#TITLE:For Sure;
#SUBTITLE:;
#ARTIST:Scooch;
#CREDIT:Lisek;
#BANNER:[ROUND I] - For Sure.png;
#BACKGROUND:[ROUND I] - For Sure-bg.png;
#LYRICSPATH:;
#CDTITLE:cdtitle.png;
#MUSIC:[ROUND I] - For Sure.ogg;
#OFFSET:-1.897;
#SAMPLESTART:56.666;
#SAMPLELENGTH:13.150;
#SELECTABLE:YES;
#BPMS:0.000=126.500;
#STOPS:;
#BGCHANGES:0.000=[ROUND I] - For Sure.avi=1.000=1=1=0,
248.000=[ROUND I] - For Sure-bg.png=1.000=1=0=1,
99999=-nosongbg-=1.000=0=0=0 // don't automatically add -songbackground-
;

//---------------dance-single - Lisek----------------
#NOTES:
     dance-single:
     Lisek:
     Hard:
     7:
     0.447,0.420,0.253,0.340,0.273:
0000
0000
0000
0000
,
0000
0000
0000
0000
,
0000
1000
0000
0010
,
0000
0000
0100
0000
0000
0000
0001
1000
,
0010
0100
0001
0000
0010
0000
0100
0010
,
0001
0000
0010
0000
0100
0010
0000
0001
0000
0000
0000
0000
0100
0000
0010
0000
,
1000
1000
0001
0100
0010
0010
1000
0000
,
0001
0000
0000
0000
0010
0000
0000
0100
0000
0100
0000
0100
1000
0000
0100
0000
,
0010
0000
0001
0000
0100
0001
0000
1000
0000
0000
0020
0000
1000
0000
0000
0000
,
1030
0000
0000
0000
0100
0000
0000
0010
0000
0010
0000
0010
0001
0000
0100
0000
,
0010
0110
2002
3003
,
0000
1000
0100
0010
0001
1000
0010
0000
,
0000
0110
2002
3003
,
0000
0001
0010
0100
1000
0001
1000
0010
,
0200
1000
0010
0302
,
2003
0000
0000
0000
0000
0000
3000
0001
0000
0001
0000
0001
1000
0000
1000
0000
,
0200
0010
0001
2300
,
3002
0000
0000
0000
0000
0000
0003
1000
0000
1000
0000
1000
0001
0000
0001
0000
,
0000
0101
2020
3030
,
0000
0010
0100
0001
0010
0100
0010
0000
,
0011
0101
2020
3030
,
0000
0000
1000
0100
0010
0100
1000
0010
,
2000
0100
0010
3002
,
0203
0000
0000
0000
0000
0000
0300
0010
0000
0010
0000
0010
0100
0000
0000
0000
,
0002
0010
0100
2003
,
3020
0000
0000
0000
0000
0000
0030
1000
0000
1000
0000
1000
0010
0000
0000
0000
,
1000
0000
0010
0000
0001
0000
0000
0010
0000
0010
0000
0010
1000
0000
0000
0000
,
0001
0000
0010
0000
1000
0000
0000
0010
0000
0010
0000
0010
0001
0000
0000
0000
,
0100
0000
0010
0000
1000
0000
0000
0001
0000
0010
0000
0100
1000
0000
0000
0000
,
1100
0011
1010
0101
,
2002
0000
0000
0000
3003
0000
0001
1000
,
0010
0000
0010
0100
0000
0010
0100
0000
0000
0000
0000
0000
0001
0000
0100
0000
,
0010
0000
1000
0000
0100
0010
0000
0001
0000
0000
0200
0000
0000
0000
0300
0000
,
1010
0101
0011
1100
,
2002
0000
0000
0000
3003
0000
1000
0001
,
0100
0000
0100
0010
0000
0100
0010
0000
0000
0000
0000
0000
1000
0000
0001
0000
,
1000
0000
0000
0100
0000
0000
0001
0000
0100
0000
0000
1000
0000
0000
1000
0000
,
0001
0000
0000
0100
0000
0000
1000
0000
0100
0000
0000
0001
0000
0000
0001
0000
,
1000
0000
0100
0000
0010
0000
0000
0001
0000
0100
0000
0010
1000
0000
0000
0000
,
0110
0000
1001
0000
0011
0000
0200
1000
,
1300
0010
1000
0000
0001
0000
0100
0001
,
0100
0000
0010
0000
1000
0010
0000
0100
0000
0000
0000
0000
0001
0000
0010
0000
,
0100
1000
0001
0000
1000
0000
0001
0100
,
0010
0000
1000
0000
0001
0010
0000
0100
0000
0000
2000
0000
0001
0000
3001
0000
,
0100
0010
1000
0000
0001
0000
1000
0100
,
0010
0000
0100
0000
1000
0001
0000
0100
0000
0000
0000
0000
0001
0000
0010
0000
,
0200
1000
0010
2300
,
3002
0000
1003
0002
0000
0003
0100
0010
,
1000
0000
0100
0000
0001
0000
0000
0100
0000
0100
0000
0100
1000
0000
0000
0000
,
0001
0000
0100
0000
1000
0000
0000
0100
0000
0100
0000
0100
0001
0000
0000
0000
,
0100
0000
0001
0000
1000
0000
0000
0001
0000
0100
0000
0010
1000
0000
0000
0000
,
1010
0011
0101
1100
,
2002
0000
0000
0000
3003
0000
0001
0010
,
0100
0000
0100
1000
0000
0100
1000
0000
0000
0000
0000
0000
0010
0000
0100
0000
,
0001
0000
0010
0000
0100
0010
0000
0001
0000
0000
2000
0000
0000
0000
3000
0000
,
0002
0203
2300
3020
,
0032
0000
0000
0000
0000
0000
1003
0100
,
0010
0000
0010
0100
0000
0010
0100
0000
0000
0000
0000
0000
1000
0000
0001
0000
,
1000
0000
0000
0010
0000
0000
0001
0000
0010
0000
0000
0100
0000
0000
0001
0000
,
0010
0000
0000
1000
0000
0000
0010
0000
0001
0000
0000
1000
0000
0000
0002
0000
,
0000
0003
1000
0000
0010
0000
0000
0000
,
0101
1010
1100
0011
,
2002
0000
3003
0000
;

//---------------dance-single - Lisek----------------
#NOTES:
     dance-single:
     Lisek:
     Medium:
     4:
     0.255,0.321,0.047,0.261,0.000: // measure 1
0000
0000
0000
0000
,  // measure 2
0000
0000
0000
0000
,  // measure 3
0000
1000
0000
0100
,  // measure 4
0000
0010
0000
0001
,  // measure 5
1000
0100
1000
0100
,  // measure 6
0010
0001
0010
0001
,  // measure 7
0100
0001
0100
0001
,  // measure 8
1000
0010
0100
0001
,  // measure 9
1000
0010
0100
0010
,  // measure 10
1000
0001
0100
0001
,  // measure 11
1000
0100
0010
0000
,  // measure 12
0001
0100
0010
1000
,  // measure 13
0000
0001
0010
0000
,  // measure 14
0001
0100
0010
1000
,  // measure 15
0002
1000
1003
2000
,  // measure 16
3002
0000
0000
0003
0000
0000
0000
0000
,  // measure 17
0200
0010
0310
0020
,  // measure 18
0230
0000
0000
0300
0000
0000
0000
0000
,  // measure 19
0000
0001
1000
0000
,  // measure 20
0001
0010
0100
1000
,  // measure 21
0001
0100
0001
0000
,  // measure 22
1000
0100
0010
0001
,  // measure 23
2000
0001
3001
0002
,  // measure 24
2003
0000
0000
3000
0000
0000
0000
0000
,  // measure 25
0020
0100
0130
0200
,  // measure 26
0320
0000
0000
0030
0000
0000
0000
0000
,  // measure 27
1000
0010
1000
0001
,  // measure 28
0100
0010
0100
0001
,  // measure 29
1000
0100
1000
0001
,  // measure 30
0100
0010
0100
0010
,  // measure 31
0220
0000
0330
0000
,  // measure 32
0001
1000
0001
0000
,  // measure 33
1000
0001
1000
0000
,  // measure 34
0010
0100
0010
0100
,  // measure 35
0220
0000
0330
0000
,  // measure 36
1000
0001
1000
0000
,  // measure 37
0001
0010
0100
1000
,  // measure 38
0001
0010
0100
1000
,  // measure 39
0001
0100
0010
1000
,  // measure 40
0002
2003
3020
0230
,  // measure 41
0301
0000
0000
1000
,  // measure 42
0010
0100
0001
0000
,  // measure 43
1001
0000
0000
0001
,  // measure 44
0100
0001
1000
0000
,  // measure 45
1001
0000
0000
1000
,  // measure 46
0100
1000
0010
0000
,  // measure 47
2000
0010
3010
0020
,  // measure 48
2030
0000
0000
3000
0000
0000
0000
0000
,  // measure 49
0001
0100
0010
1000
,  // measure 50
1000
0100
0010
0001
,  // measure 51
2000
0000
0000
3000
,  // measure 52
0010
0100
0010
0100
,  // measure 53
0220
0000
0330
0001
,  // measure 54
1000
0100
1000
0000
,  // measure 55
0010
0100
0010
0000
,  // measure 56
2000
3200
0320
0032
,  // measure 57
2003
0000
0000
3000
,  // measure 58
0001
0010
0001
0000
,  // measure 59
1000
1000
0001
0001
,  // measure 60
0100
0100
0010
0010
,  // measure 61
1000
0010
0100
0001
,  // measure 62
0100
0010
0100
0010
,  // measure 63
0220
0000
0330
0000
;

//---------------dance-single - Lisek----------------
#NOTES:
     dance-single:
     Lisek:
     Easy:
     2:
     0.131,0.173,0.000,0.079,0.000:
0000
0000
0000
0000
,
0000
0000
0000
0000
,
0000
1000
0000
0001
,
0000
1000
0000
0001
,
1000
0000
0010
0000
,
0100
0000
0010
0000
,
1000
0000
0001
0000
,
0100
0000
0001
0000
,
1000
0000
0100
0000
,
0010
0000
0001
0000
,
1000
0000
0001
0000
,
0100
0000
0010
0000
,
1000
0000
0001
0000
,
0100
0000
0010
0000
,
1000
0000
0100
0000
,
0010
0000
0001
0000
,
1000
0000
0100
0000
,
0010
0000
0001
0000
,
1000
0000
0010
0000
,
0100
0000
0010
0000
,
1000
0000
0100
0000
,
0010
0000
0100
0000
,
1000
0000
0100
0000
,
0010
0000
0001
0000
,
1000
0000
0100
0000
,
0010
0000
0001
0000
,
1000
0000
0010
0000
,
0100
0000
0001
0000
,
2000
0000
0000
0000
,
3001
1000
0001
1000
,
0002
0000
0003
0000
,
1000
0000
0010
0000
,
0100
0000
0001
0000
,
1000
0000
0010
0000
,
2000
0000
3000
0000
,
0001
0000
0100
0000
,
0001
0000
1000
0000
,
0010
0000
0100
0000
,
0001
0000
1000
0000
,
0010
0000
1000
0000
,
0001
0000
0000
0000
,
1000
0000
0000
0000
,
0001
0000
0000
0000
,
0100
0000
0000
0000
,
0010
0000
0000
0000
,
0100
0000
0000
0000
,
0002
0000
0000
0000
,
0003
0000
0000
0000
,
2000
0000
0000
0000
,
3000
0000
0000
0000
,
0020
0000
0000
0000
,
1030
0001
1000
0001
,
2000
0000
3000
0000
,
0001
0000
1000
0000
,
0010
0000
0100
0000
,
0001
0000
1000
0000
,
0020
0000
0000
0000
,
0030
0000
0000
0000
,
0100
0000
0001
0000
,
0100
0000
0010
0000
,
2000
0000
0000
0000
,
3001
1000
0001
1000
,
0002
0000
0003
0000
;

//---------------dance-single - Lisek----------------
#NOTES:
     dance-single:
     Lisek:
     Beginner:
     1:
     0.067,0.124,0.024,0.127,0.000:
0000
0000
0000
0000
,
0000
0000
0000
0000
,
0000
0000
0000
0000
,
0000
0000
0000
0000
,
1000
0000
0000
0000
,
0001
0000
0000
0000
,
1000
0000
0000
0000
,
0000
0000
0000
0000
,
0002
0000
0000
0000
,
0003
0000
0000
0000
,
1000
0000
0000
0000
,
0001
0000
0000
0000
,
1000
0000
0000
0000
,
0001
0000
0000
0000
,
2000
0000
0000
0000
,
3000
0000
0000
0000
,
0002
0000
0000
0000
,
0003
0000
0000
0000
,
1000
0000
0000
0000
,
0001
0000
0000
0000
,
1000
0000
0000
0000
,
0001
0000
0000
0000
,
2000
0000
0000
0000
,
3000
0000
0000
0000
,
0002
0000
0000
0000
,
0003
0000
0000
0000
,
1000
0000
0000
0000
,
0001
0000
0000
0000
,
1000
0000
0000
0000
,
0000
0000
0000
0000
,
2002
0000
3003
0000
,
0000
0000
0000
0000
,
0001
0000
0000
0000
,
0000
0000
0000
0000
,
2002
0000
3003
0000
,
0000
0000
0000
0000
,
1000
0000
0000
0000
,
0001
0000
0000
0000
,
0000
0000
0000
0000
,
2000
0000
0000
0000
,
3000
0000
0000
0000
,
0001
0000
0000
0000
,
1000
0000
0000
0000
,
0001
0000
0000
0000
,
1000
0000
0000
0000
,
0001
0000
0000
0000
,
2000
0000
0000
0000
,
3000
0000
0000
0000
,
0002
0000
0000
0000
,
0003
0000
0000
0000
,
2000
0000
0000
0000
,
3000
0000
0000
0000
,
2002
0000
3003
0000
,
0000
0000
0000
0000
,
1000
0000
0000
0000
,
0000
0000
0000
0000
,
0001
0000
0000
0000
,
0000
0000
0000
0000
,
1000
0000
0000
0000
,
0001
0000
0000
0000
,
0000
0000
0000
0000
,
1000
0000
0000
0000
,
0200
0000
0300
0000
;
