#TITLE:Billie Jean;
#SUBTITLE:;
#ARTIST:Breathe Carolina;
#TITLETRANSLIT:;
#SUBTITLETRANSLIT:;
#ARTISTTRANSLIT:;
#CREDIT:;
#BANNER:[ROUND I] - Billie Jean.png;
#BACKGROUND:[ROUND I] - Billie Jean-bg.png;
#LYRICSPATH:;
#CDTITLE:;
#MUSIC:[ROUND I] - Billie Jean.ogg;
#OFFSET:-0.004;
#SAMPLESTART:72.008;
#SAMPLELENGTH:16.000;
#SELECTABLE:YES;
#BPMS:0.000=120.000,112.000=60.000,126.000=120.000;
#STOPS:;
#BGCHANGES:32.250=[ROUND I] - Billie Jean.avi=1.000=0=0=1,
226.000=[ROUND I] - Billie Jean-bg.png=1.000=0=0=1,
99999=-nosongbg-=1.000=0=0=0 // don't automatically add -songbackground-
;

//---------------dance-single - ----------------
#NOTES:
     dance-single:
     :
     Beginner:
     1:
     0.065,0.108,0.000,0.000,0.000:
0000
0000
0000
0000
,
0000
0000
0000
0000
,
0000
0000
0000
0000
,
0000
0000
0000
0000
,
0001
0000
0000
0000
,
1000
0000
0000
0000
,
0001
0000
0000
0000
,
1000
0000
0000
0000
,
0010
0000
0000
0000
,
0010
0000
0000
0000
,
0100
0000
0000
0000
,
0100
0000
0000
0000
,
1000
0000
0000
0000
,
0001
0000
0000
0000
,
1000
0000
0000
0000
,
0001
0000
0000
0000
,
0100
0000
0000
0000
,
0100
0000
0000
0000
,
0010
0000
0000
0000
,
0010
0000
0000
0000
,
1000
0000
0000
0000
,
1000
0000
0000
0000
,
0001
0000
0000
0000
,
0001
0000
0000
0000
,
0100
0000
0000
0000
,
0100
0000
0000
0000
,
0010
0000
0000
0000
,
0010
0000
0000
0000
,
1000
0000
0001
0000
,
1000
0000
0001
0000
,
0100
0000
0010
0000
,
0100
0000
0010
0000
,
0000
0000
0000
1000
,
0000
0001
0000
1000
,
0000
0001
0000
0100
,
0000
0010
0000
0100
,
0000
0000
1000
0000
,
0000
0000
0001
0000
,
0000
0000
1000
0000
,
0000
0000
0001
0000
,
0000
0000
0100
0000
,
0000
0000
0010
0000
,
0000
0000
1000
0000
,
0000
0000
0100
0000
,
0000
0001
0000
0000
,
1000
0000
0000
0000
,
0000
0000
0010
0000
,
0000
0000
0000
0000
,
0000
0000
0100
0000
,
0000
0000
0000
0000
,
0000
0000
0001
0000
,
0001
0000
0001
0000
,
0000
0000
1000
0000
,
0000
0000
0100
0000
,
0000
0000
0010
0000
,
0000
0000
0001
0000
;

//---------------dance-single - ----------------
#NOTES:
     dance-single:
     :
     Medium:
     6:
     0.248,0.397,0.070,0.039,0.043:
0000
0000
0000
0000
,
0000
0000
0000
0000
,
0000
0000
0000
0000
,
0000
0000
0000
0000
,
1000
0000
0000
1000
0000
0000
0000
0000
,
0001
0000
0000
0001
0000
0000
0000
0000
,
1000
0000
0000
1000
0000
0000
0000
0000
,
0001
0000
0000
0001
0000
0000
1000
0000
,
0010
0000
0001
0000
0001
0100
0000
1000
,
0000
1000
0000
0000
0110
0000
0101
0000
,
1000
0000
0001
0000
0010
0100
0000
0100
,
0000
1000
0000
0002
0000
0003
0100
0100
,
0000
0000
1000
0000
0000
0000
0010
0100
,
0000
0000
1000
0010
0000
0000
0001
0100
,
0000
0000
0001
0010
0000
0000
0100
0000
,
0001
0000
1000
0200
0000
0300
0000
0001
,
0000
1000
0000
0010
,
0000
1000
0000
0001
,
0000
0000
0100
0010
0000
0000
0001
0000
,
1000
0000
0001
0010
0000
0000
1000
0000
,
0100
0000
0001
0000
0011
0000
0000
1000
,
0000
1100
0000
0000
0010
0000
0110
0000
,
0000
1000
0000
0001
0000
0000
0000
0100
,
0000
0010
0000
2000
0000
3000
0000
0001
,
0000
0000
0000
0100
0000
0000
1000
0100
,
0000
0000
0100
0010
0000
0000
0010
0001
,
0000
0000
0000
1000
0000
0000
0001
0000
,
0100
0000
0000
0010
0000
0000
1000
0000
,
0100
0000
0000
0001
0000
0000
1000
0000
0000
0001
0000
0000
0000
0000
0000
0000
0010
0000
0000
0000
0000
0000
0010
0000
0000
0000
0000
0000
0000
0000
0000
0000
,
0001
0000
0000
0000
0000
0000
0000
0000
1000
0000
0000
0000
0000
0000
0000
0010
0000
0000
0000
0000
0000
0000
0100
0000
0000
0000
0000
0000
0000
0000
0000
0000
,
0010
0000
0100
0000
0010
0000
0000
0000
1000
0000
0000
1000
0000
0000
0000
0000
,
0100
0001
0100
0001
0100
0001
0100
0001
1000
0000
0001
0000
1000
0000
0001
0000
,
1000
0001
1000
0000
0000
0000
0010
0000
,
0100
0000
0110
0000
1000
1000
0000
1001
,
0000
0000
0000
0010
0000
0100
0100
0100
,
0001
0000
0011
0000
1000
0100
0000
0002
,
0000
0003
0000
1000
0000
0000
1000
0001
,
0000
0000
0000
0100
0010
0000
0010
0000
,
1000
0100
0000
0010
0000
0001
0000
1000
,
0000
0000
0000
0000
0010
0000
0000
0200
,
0000
0300
0000
0010
0000
0000
0000
1000
,
0000
0000
0001
0010
0100
0000
0100
0000
,
1000
0010
0000
0001
0000
1001
0000
1000
,
0000
0000
0100
0000
0010
0000
0001
1000
,
0000
0010
0100
1000
,
0001
0000
0001
0001
0100
0000
0001
0000
,
0001
1000
1000
0000
0010
0000
1000
0000
,
0010
0000
0100
0100
0001
0000
0100
0000
,
0001
0010
0100
1000
0010
0000
0100
0000
,
0010
0000
1000
0001
0001
0000
1000
0100
,
0000
0010
0000
0001
0010
0000
0000
0000
,
0100
0000
0000
0010
1000
0000
0000
0000
,
0010
0001
0100
0001
0100
0000
1000
0000
,
0010
0000
0001
0001
0100
0000
1000
0000
,
0010
0010
1000
0000
0010
0000
0000
0000
,
0100
0000
1000
0001
0001
0000
0000
0000
,
0010
0000
0100
0010
0100
0000
0000
0000
;

//---------------dance-single - ----------------
#NOTES:
     dance-single:
     :
     Hard:
     8:
     0.363,0.530,0.172,0.055,0.262: // measure 1
0000
0000
0000
0000
,  // measure 2
0000
0000
0000
0000
,  // measure 3
0000
0000
0000
0000
,  // measure 4
0000
0000
0000
0000
,  // measure 5
1000
0000
0000
0010
0000
0000
0000
0000
,  // measure 6
0001
0000
0000
0100
0000
0000
0000
0000
,  // measure 7
1000
0000
0000
0010
0000
0000
0000
0000
,  // measure 8
0001
0000
0000
0100
0000
0000
1000
0000
,  // measure 9
0110
0000
0001
0000
0001
0010
0000
1000
,  // measure 10
0000
0000
1000
0000
0000
0000
0000
0001
0100
0000
0001
0000
0100
0000
0000
0000
,  // measure 11
1000
0000
0001
0000
0010
0010
0000
0100
,  // measure 12
0000
1000
0000
2000
0000
3010
0001
0001
,  // measure 13
0000
0000
0000
0000
0100
0000
0000
0000
0000
0000
0000
0000
0001
0010
0001
0000
,  // measure 14
0000
0000
0000
0000
1000
0100
1000
0000
0000
0000
0000
0000
0100
0010
0100
0000
,  // measure 15
0000
0000
0001
0010
0000
0000
0110
0000
,  // measure 16
0001
0000
1000
0200
0000
0310
0010
0001
,  // measure 17
0000
0000
0000
0000
1000
0000
0000
0000
0000
0000
0000
0100
1000
0100
0000
0000
,  // measure 18
0000
0000
0000
0010
0100
0010
0000
0000
0000
0000
0000
0001
1000
0001
0000
0000
,  // measure 19
0000
0000
0100
0010
0000
0000
0011
0000
,  // measure 20
1000
0000
0001
0010
0000
0000
1100
0000
,  // measure 21
1000
0000
0001
0010
0001
0010
0000
0110
,  // measure 22
0000
0000
1100
0000
0000
0000
1000
0010
1000
0000
0010
0000
0010
0000
0000
0000
,  // measure 23
0000
0001
1000
0100
1000
0100
0001
0010
,  // measure 24
0000
0110
0000
2000
0000
3100
0010
0001
,  // measure 25
0100
0000
0000
0000
0000
0000
0100
0000
0000
0000
0000
0000
1000
0010
1000
0000
,  // measure 26
0000
0000
0000
0000
0001
0100
0001
0000
0000
0000
0000
0000
0010
0100
0010
0000
,  // measure 27
0100
0000
0000
1000
0000
0000
0001
0000
,  // measure 28
0110
0000
0000
0110
0000
0000
1000
0000
,  // measure 29
0100
0000
0000
0001
0000
0000
1000
0000
0000
1001
0000
0000
0000
0000
0000
0000
0100
0000
0000
0010
0000
0000
0110
0000
0000
0000
0000
0000
0000
0000
0001
0000
,  // measure 30
0010
0000
0100
0000
0000
0000
1000
0010
1000
0000
0010
0000
0000
0000
0000
0010
0000
0000
0000
0000
0000
0000
0100
0000
0000
0000
0000
0000
0000
0000
0000
0000
,  // measure 31
0010
0000
0000
0100
0000
0000
0000
0010
0000
0000
0100
0000
0000
0000
0000
0000
1000
0000
0000
0001
0000
0000
1000
0000
0000
0000
0000
0000
0000
0000
0000
0000
,  // measure 32
0100
0010
0100
0010
0100
0010
0100
0010
1000
0001
1000
0001
1000
0001
1000
0001
,  // measure 33
1000
0001
1000
0001
1000
0000
0000
0000
0000
0000
0000
0000
0001
0000
0010
0000
,  // measure 34
0100
0000
1100
0000
0100
0010
0000
0011
,  // measure 35
0000
0101
0000
1000
0000
0100
0010
0100
,  // measure 36
0001
0000
0011
0000
1000
0100
0000
0002
,  // measure 37
0000
0013
0100
0100
0000
0000
1000
0001
,  // measure 38
0000
0010
1000
0010
0200
0000
0301
0000
,  // measure 39
1000
0100
0000
0011
0000
0110
0000
1000
,  // measure 40
0000
0000
0001
0000
0010
0000
0100
2000
,  // measure 41
0000
3001
0001
0010
0100
0000
0100
1000
,  // measure 42
0000
0000
0001
0010
0200
0000
0301
0000
,  // measure 43
0010
1000
0000
1100
0000
1010
0000
0001
,  // measure 44
0000
0010
0100
0010
0100
0000
0001
1000
,  // measure 45
0000
0100
0010
0100
0010
0000
1000
0000
,  // measure 46
0001
0000
0000
0000
0001
0100
0001
0100
1000
0000
0000
0000
0001
0000
0000
0000
,  // measure 47
0001
0010
1000
0010
1000
0000
0000
0000
0110
0000
0000
0000
1000
0000
0000
0000
,  // measure 48
0010
0000
0000
0000
0100
0010
0100
0010
0001
0000
0000
0000
0100
0000
0000
0000
,  // measure 49
0010
0001
0010
0001
1000
0100
1000
0001
0010
0000
0000
0000
0100
0000
0000
0000
,  // measure 50
0010
0000
0000
0000
1000
0100
0001
0010
0001
0000
0000
0000
1000
0000
0000
0000
,  // measure 51
0001
0100
0010
0100
0010
0000
0000
0000
,  // measure 52
0010
0000
0000
0000
1000
0100
1000
0100
1000
0000
0000
0000
0000
0000
0000
0000
,  // measure 53
0100
0010
0100
0010
0100
0010
0100
0010
0100
0000
0000
0000
1000
0000
0000
0000
,  // measure 54
0010
0000
0000
0000
0001
0010
0001
0010
0100
0000
0000
0000
1000
0000
0000
0000
,  // measure 55
0010
0100
0010
0100
1000
0000
0000
0000
0010
0000
0000
0000
0000
0000
0000
0000
,  // measure 56
0110
0000
0000
0000
1000
0100
0001
0010
0001
0000
0000
0000
0000
0000
0000
0000
,  // measure 57
1001
0000
0000
0000
0100
0010
0100
0010
0100
0000
0000
0000
0000
0000
0000
0000
;

//---------------dance-single - ----------------
#NOTES:
     dance-single:
     :
     Easy:
     3:
     0.184,0.243,0.086,0.000,0.000:
0000
0000
0000
0000
,
0000
0000
0000
0000
,
0000
0000
0000
0000
,
0000
0000
0000
0000
,
1000
0000
0000
1000
0000
0000
0000
0000
,
0010
0000
0000
0010
0000
0000
0000
0000
,
0001
0000
0000
0001
0000
0000
0000
0000
,
0100
0000
0000
0100
0000
0000
0000
0000
,
0000
0000
1000
0000
0010
0000
0000
0100
,
0000
0100
0000
0000
0001
0000
0001
0000
,
0000
0000
1000
0000
0100
0000
0000
0010
,
0000
0010
0000
0001
0000
0000
0000
0100
,
0000
0000
0000
0000
0000
0000
0000
1000
,
0000
0000
0000
0010
0000
0000
0000
0001
,
0000
0000
0000
0100
0000
0000
0000
0000
,
0010
0000
0000
0100
0000
0000
0000
0000
,
1000
0000
0000
0001
0000
0000
0000
0100
,
0000
0000
0000
0010
0000
0000
0000
0100
,
0000
0000
0000
1000
0000
0000
0000
0000
,
0001
0000
0000
0001
0000
0000
0000
0000
,
0000
0000
1000
0000
0010
0000
0000
0100
,
0000
0100
0000
0000
0010
0000
0010
0000
,
0000
0001
1000
0001
,
0100
0100
0010
0000
,
0110
0000
0000
1000
0000
0000
0000
0001
,
0000
0000
0000
0001
0000
0000
0000
1000
,
0000
0000
0000
0010
0000
0000
0100
0000
,
0010
0000
0000
0100
0000
0000
0010
0000
,
1000
0000
0001
0000
,
0010
0100
1000
0000
,
0001
0001
0010
0100
,
1000
1000
1000
1000
0001
0000
0001
0000
,
0001
0001
0100
0010
,
0110
0000
0110
0000
1000
0000
0000
0001
,
0000
0000
0000
0100
0000
0000
0010
0000
,
0110
0000
0110
0000
1000
0000
0000
0001
,
0000
0000
0000
0000
1000
0000
0000
0010
,
0000
0100
0010
0010
,
0100
0000
0001
0000
1000
0000
0000
0001
,
0000
0000
1001
0000
1000
0000
0000
0001
,
0000
0000
1001
0100
,
0000
0010
0110
0000
,
1000
0000
0001
1000
,
0000
0000
0001
0000
1000
0000
0000
0001
,
0000
0100
0010
0010
,
1000
1000
0010
0100
,
0001
0001
1000
0010
,
0100
0100
0001
0010
,
1000
1000
0001
0100
,
0001
0001
0010
0100
,
1000
0001
1001
0000
,
1001
0000
0110
0000
,
1000
1000
0010
0100
,
0001
0100
0100
0001
,
0010
0001
0001
0010
,
0100
1000
1000
0010
,
0100
0001
1000
0000
;
