#TITLE:魔カい造ヨd STEAMPUNK Frankenstein;
#SUBTITLE:;
#ARTIST:cybermiso;
#TITLETRANSLIT:makaiso-ed STEAMPUNK Frankenstein;
#SUBTITLETRANSLIT:;
#ARTISTTRANSLIT:;
#CREDIT:;
#BANNER:[ROUND H] - makaiso-ed STEAMPUNK Frankenstein.png;
#BACKGROUND:[ROUND H] - makaiso-ed STEAMPUNK Frankenstein-bg.png;
#LYRICSPATH:;
#CDTITLE:;
#MUSIC:[ROUND H] - makaiso-ed STEAMPUNK Frankenstein.ogg;
#OFFSET:-3.692;
#SAMPLESTART:22.805;
#SAMPLELENGTH:14.769;
#SELECTABLE:YES;
#DISPLAYBPM:128.000:132.000;
#BPMS:0.000=130.000,38.000=132.000,41.000=130.000,174.000=128.000,176.000=130.000,260.000=132.000,262.000=130.000;
#STOPS:;
#BGCHANGES:;

//---------------dance-single - ----------------
#NOTES:
     dance-single:
     :
     Hard:
     9:
     0.459,0.539,0.240,0.105,0.240:
0000
0000
0000
0000
,
0000
0000
0000
0000
,
0002
0000
0000
0003
,
0200
0000
0000
0300
,
2000
0000
0000
3000
,
0020
0000
0000
0030
,
1000
0000
0001
0000
1000
0100
1100
0000
,
0001
0000
0001
0000
0010
0100
0110
0000
,
1000
0000
1000
0000
0001
0010
0011
0000
,
1000
0000
0000
0000
1000
0000
0000
0000
0010
0000
0001
0100
0001
0000
0001
0100
,
0001
0000
0001
0100
0001
1000
0000
0000
0010
0100
0000
0010
0100
0000
1000
0001
,
0000
0000
0001
0000
0000
0000
0000
0000
1000
0001
0000
1000
0001
0000
0100
0010
,
0000
0000
0100
0000
0000
0000
0000
0000
0001
1000
0000
0001
1000
0000
0100
0010
,
0000
0000
0010
0000
0000
0000
0000
1000
0100
0000
1000
0010
0000
0100
0001
0000
,
0000
0000
0001
1000
,
1001
1001
0100
0110
,
1000
0100
0010
0000
0001
0000
1000
0000
,
0110
0110
1000
1010
,
0100
0000
0000
0100
0000
0000
0000
0000
1000
0000
0010
0000
1000
0000
0000
0000
,
0100
0010
0001
0000
0100
0000
0100
0000
1000
0000
0001
0000
2000
0000
0000
0000
,
3010
0000
0000
0010
0000
0000
0010
0000
0100
0000
0000
0000
0000
0000
0000
0000
0001
0000
0000
0000
1000
0000
0000
0000
0002
0000
0000
0000
0000
0000
0000
0000
,
0103
0010
0100
0010
0100
0000
0100
0000
1000
0000
0001
0000
0200
0000
0000
0000
,
0310
0000
0000
0010
0000
0000
0010
0000
0100
0000
0000
0000
0000
0000
0000
0000
1000
0000
0000
0000
0010
0000
0000
0000
1000
0000
0000
0000
0000
0000
0000
0000
,
0001
0100
0001
0100
0001
0000
0001
0000
1000
0000
0010
0000
0100
0000
0000
0000
,
0001
0000
0000
0001
0000
0000
0001
0000
1000
0000
0000
0000
0001
0000
0000
0000
0100
0000
0000
0000
0010
0000
0000
0000
0200
0000
0000
0000
0000
0000
0000
0000
,
0301
0000
0000
0001
0000
0000
0001
0000
1000
0000
0000
0000
0001
0000
0000
0000
0010
0000
0000
0000
0000
0000
0000
0000
0010
0000
0000
0000
0000
0000
0000
0000
,
1000
0000
0000
0000
1000
0000
0000
0000
0001
0000
0010
0000
0100
0000
1000
0010
,
1000
0000
0001
0000
0010
0000
1000
0000
0100
0000
1000
0000
0010
0000
0001
0010
,
0001
0000
1000
0000
0100
0000
0010
0000
0001
0000
1000
0000
0001
0000
1000
0010
,
1000
0000
0001
0000
0100
0000
0010
0000
1000
0000
0100
0000
1000
0000
0001
0010
,
0001
0010
0100
0100
1000
0001
1000
0001
,
1001
0000
0000
0000
1001
0000
0010
0100
0010
0000
0100
0010
0100
0000
0010
0100
,
0010
0000
1000
0000
0001
0000
0000
0000
0100
0000
0010
0000
1000
0000
0100
0010
,
0001
0010
0100
1000
0010
0100
0010
0100
,
0001
0010
0001
0000
1000
0010
1000
0000
,
0001
0000
0100
0000
0000
0000
0000
0000
0110
0000
0000
0110
0000
0000
1010
0000
,
2020
0000
0000
0000
0000
3030
0000
0000
0001
0000
0100
0000
0001
0000
0100
0000
,
0010
0000
1000
0000
0010
0000
0000
0000
0100
0000
0100
0000
0100
0010
0000
0000
,
0001
0000
0000
0000
0011
0000
0000
0000
1000
0000
0001
0000
1000
0000
0010
0100
,
0010
0010
0100
0000
0001
0000
1010
0000
,
0110
0000
0000
0000
0101
0000
0000
0000
1000
0000
0010
0000
0100
0000
1000
0010
,
1000
0100
0001
0000
1000
0100
0010
0001
,
0010
0100
0001
0000
2000
0000
0000
0000
,
0000
0000
0000
3000
0002
0000
0000
0000
,
0000
0000
0003
0000
0010
0000
0010
1000
,
0000
1100
0000
0000
0100
0000
0100
0001
,
0000
0011
0000
0000
0001
0010
0100
0000
,
1000
0100
0010
0000
0100
0001
0100
0000
,
0010
1000
0010
0000
0100
0001
0100
0000
,
0001
0000
1010
0000
1000
0010
0100
0000
,
0101
0000
0101
0000
1000
0100
0001
0000
,
0110
0000
0000
0000
0110
0000
0000
0000
0001
1000
0001
1000
0010
0000
0000
0000
,
0000
0000
0000
0000
0100
0010
0100
0010
,
0001
1000
0001
1000
0000
0000
0000
0000
0001
0000
0010
0000
0100
0000
0000
0000
,
1000
0000
0000
0100
0000
0000
1000
0000
0010
0000
1000
0000
0000
0000
0000
0000
0001
0000
0000
0000
0010
0000
0000
0000
0100
0000
0000
0000
0010
0000
0000
0000
,
0100
0001
0100
0000
1000
0010
1000
0000
,
0001
0000
0000
0010
0000
0000
0001
0000
0100
0000
0001
0000
0000
0000
0000
0000
1000
0000
0000
0000
0010
0000
0000
0000
1000
0000
0000
0000
0000
0000
0000
0000
,
0220
0330
0100
0100
,
0001
1000
0001
0000
0100
0000
0100
0000
,
0001
0000
0000
0010
0000
0000
0001
0000
1000
0000
0000
0000
0000
0000
0000
0000
0010
0000
0000
0000
0000
0000
0000
0000
0001
0000
0000
0000
0000
0000
0000
0000
,
1100
0000
0000
0000
1001
0000
0000
0000
0100
0000
0000
0000
0000
0000
0000
0100
,
0010
0000
0100
0000
0010
0000
0000
0000
1000
0000
0000
0100
0000
0000
1000
0000
,
0010
0000
0000
0000
0000
0000
0000
0000
1000
0000
0000
0000
0000
0000
0000
1000
,
0001
0000
0010
0000
0001
0000
0000
0000
0100
0000
0000
0001
0000
0000
0100
0000
,
0010
0000
0000
0000
0000
0000
0000
0000
1000
0000
0000
0000
0000
0000
0000
0001
,
0010
0000
0001
0000
0000
0000
0000
0000
0100
0000
0000
0010
0000
0000
1000
0000
,
1100
0000
0000
0000
0000
0000
0000
0000
0110
0000
0000
0000
0000
0000
0000
0010
,
0001
0000
0001
0000
0000
1000
0000
0000
0001
0000
0000
0100
0000
0000
0001
0000
,
1000
0000
0000
1000
0000
0000
0000
0000
0110
0000
0000
0000
0000
0000
0000
0000
;

//---------------dance-single - ----------------
#NOTES:
     dance-single:
     :
     Medium:
     7:
     0.363,0.385,0.187,0.142,0.109:
0000
0000
0000
0000
,
0000
0000
0000
0000
,
0002
0000
0000
0003
,
0200
0000
0000
0300
,
2000
0000
0000
3000
,
0020
0000
0000
0030
,
0100
0000
0001
0000
1000
0100
1000
0000
,
0001
0000
0100
0000
0001
0010
0001
0000
,
0010
0000
0010
0000
0001
0100
0001
0000
,
1000
0000
1000
0000
0001
0001
0001
0100
,
0100
0000
0100
0000
1000
0001
0000
0000
0010
0000
0000
0100
0000
0000
1000
0001
,
0000
0000
0001
0000
0000
0000
0000
0000
1000
0000
0000
0010
0000
0000
0100
0010
,
0000
0000
0100
0000
0000
0000
0000
0000
0001
0000
0000
1000
0000
0000
0100
0010
,
0000
0000
0001
0000
0000
0000
0000
0100
0000
0000
1000
0010
0000
0100
0001
0000
,
0000
0000
0001
1000
,
0001
1001
0100
0010
,
1000
1010
0001
1000
,
0010
0110
1000
1001
,
0100
0000
0000
0010
0000
0000
0000
0000
1000
0000
0000
0000
1000
0000
0000
0000
,
0001
0010
0001
0000
0100
0000
0100
0000
1000
0000
0000
0000
0200
0000
0000
0000
,
0320
0000
0000
0030
0100
0000
0000
0000
0001
0000
1000
0000
0002
0000
0000
0000
,
0103
0000
1000
0000
0010
0000
0100
0000
0010
0000
0000
0000
2000
0000
0000
3000
,
0002
0000
0000
0003
0100
0000
0000
0000
1000
0000
0010
0000
1000
0000
0000
0000
,
0001
0100
1000
0010
,
0002
0000
0000
0003
1000
0000
0001
0000
0010
0000
0000
0000
0200
0000
0000
0000
,
0302
0000
0000
0003
1000
0000
0001
0000
0010
0000
0000
0000
0010
0000
0000
0000
,
0100
0100
0001
1000
,
1010
0011
0100
0010
,
0101
1100
0001
0010
,
0100
0010
0001
0010
1000
0000
0100
0000
,
0011
0110
0001
1000
,
0101
0000
1001
0010
0100
0000
0010
0000
,
1000
0000
0100
0000
0001
0000
0000
0000
0100
0000
0000
0000
1000
0000
0000
0010
,
0001
0100
1000
1010
,
0010
0000
0101
0000
1000
0010
1000
0000
,
0001
0000
0100
0000
0000
0000
0000
0000
0010
0000
0000
0100
0000
0000
0010
0000
,
2000
0000
0000
0000
0000
3000
0000
0000
0001
0000
0100
0000
0001
0000
0100
0000
,
0010
0000
1000
0000
0010
0000
0000
0000
1000
0000
1000
0000
1000
0010
0000
0000
,
0001
0000
0011
0000
1000
0001
0100
0000
,
0010
1000
0001
1010
,
0110
0101
1000
0110
,
0001
1001
0010
0100
,
1000
0001
0020
0000
,
0000
0000
0000
0030
0200
0000
0000
0000
,
0000
0000
0300
0000
0010
0000
0010
1000
,
0000
1000
0000
0000
0100
0000
0100
0001
,
0000
0001
0000
0000
0001
0100
0001
0000
,
0010
0000
0010
0000
1000
0010
1000
0000
,
0001
0010
0001
0000
0100
0000
0100
0000
,
0001
0000
1000
0000
1000
0100
0010
0000
,
0001
0000
0001
0000
1000
0100
0001
0000
,
0010
0000
0000
0000
0100
0000
0000
0000
0001
1000
0001
1000
0001
0000
0000
0000
,
0000
0000
0000
0000
1000
0010
1000
0010
,
0001
0001
0100
0000
0001
0010
0001
0000
,
2000
3010
0001
1100
,
0001
0100
1000
0110
,
0002
0003
1000
0010
,
0220
0330
0001
0100
,
0001
1000
0001
0000
0100
0000
0010
0000
,
1000
0000
0000
0001
0000
0000
0100
0000
1000
0000
0000
0000
0000
0000
0000
0000
0010
0000
0000
0000
0000
0000
0000
0000
1000
0000
0000
0000
0000
0000
0000
0000
,
0001
0000
0000
0000
1001
0000
0000
0000
0100
0000
0000
0000
0000
0000
0000
0100
,
0001
0000
0100
0000
0001
0000
0000
0000
0010
0000
0000
0100
0000
0000
1000
0000
,
0001
0000
0000
0000
0000
0000
0000
0000
1000
0000
0000
0000
0000
0000
0000
0010
,
0001
0000
1000
0000
0001
0000
0000
0000
0100
0000
0000
1000
0000
0000
0001
0000
,
0010
0000
0000
0000
0000
0000
0000
0000
1000
0000
0000
0000
0000
0000
0000
0001
,
0100
0000
0001
0000
0000
0000
0000
0000
0010
0000
0000
0001
0000
0000
1000
0000
,
0100
0000
0000
0000
0000
0000
0000
0000
0010
0000
0000
0000
0000
0000
0000
0010
,
0001
0000
0000
0000
0000
1000
0000
0000
0001
0000
0000
0100
0000
0000
0001
0000
,
1000
0000
0000
0001
0000
0000
0000
0000
0110
0000
0000
0000
0000
0000
0000
0000
;

//---------------dance-single - ----------------
#NOTES:
     dance-single:
     :
     Easy:
     4:
     0.276,0.308,0.007,0.112,0.064: // measure 1
0000
0000
0000
0000
,  // measure 2
0000
0000
0000
0000
,  // measure 3
0002
0000
0000
0003
,  // measure 4
0200
0000
0000
0300
,  // measure 5
2000
0000
0000
3000
,  // measure 6
0020
0000
0000
0030
,  // measure 7
0100
0001
1000
1000
,  // measure 8
0001
0100
0001
0001
,  // measure 9
0010
0010
0001
0001
,  // measure 10
1000
1000
0001
0001
,  // measure 11
0010
0000
0000
0000
1000
0001
0000
0000
0001
0000
0000
0001
0000
0000
0010
0001
,  // measure 12
0000
0000
0001
0000
0000
0000
0000
0000
1000
0000
0000
1000
0000
0000
1000
0010
,  // measure 13
0000
0000
1000
0000
0000
0000
0000
0000
0100
0000
0000
0100
0000
0000
0100
0010
,  // measure 14
0000
0000
0001
0000
0000
0000
0100
0010
0000
0000
0010
0100
0000
0000
0100
0000
,  // measure 15
0000
0000
0001
1000
,  // measure 16
0001
1000
0100
0010
,  // measure 17
0001
1000
0001
1000
,  // measure 18
0010
0100
1000
0001
,  // measure 19
0100
0000
0000
0010
0000
0000
0000
0000
1000
0000
0000
0000
0001
0000
0000
0000
,  // measure 20
0010
0100
1000
0200
,  // measure 21
0000
0000
0300
0000
0001
1000
0002
0000
,  // measure 22
0013
0100
0010
2000
,  // measure 23
0000
3000
0010
0100
,  // measure 24
0001
0010
1000
0100
,  // measure 25
0002
0000
0003
0100
,  // measure 26
0001
0000
1000
0001
0010
0000
0010
0000
,  // measure 27
0100
0100
0001
1000
,  // measure 28
0010
0001
0100
0010
,  // measure 29
1000
0001
0010
0100
,  // measure 30
0010
0001
1000
0100
,  // measure 31
0001
0010
0001
1000
,  // measure 32
0100
0001
0010
0100
,  // measure 33
1000
0001
0100
1000
,  // measure 34
0001
0100
1000
0010
,  // measure 35
0001
0100
1000
0010
,  // measure 36
0001
0000
0100
0000
0000
0000
0000
0000
0010
0000
0000
0100
0000
0000
0010
0000
,  // measure 37
2000
0000
0000
0000
0000
3000
0000
0000
0001
0000
0000
0000
0001
0000
0000
0000
,  // measure 38
0010
0100
1000
0010
,  // measure 39
0001
0100
1000
0010
,  // measure 40
0001
1000
0001
1000
,  // measure 41
0010
0001
1000
0100
,  // measure 42
0001
0010
1000
0001
,  // measure 43
1000
0001
0020
0000
,  // measure 44
0000
0000
0000
0030
0200
0000
0000
0000
,  // measure 45
0000
0000
0300
0000
0010
0000
0010
1000
,  // measure 46
0000
1000
0000
0000
0100
0000
0100
0001
,  // measure 47
0000
0001
0000
0000
0001
0000
0100
0000
,  // measure 48
0010
1000
0100
0001
,  // measure 49
0010
0010
0100
0100
,  // measure 50
0001
1000
1000
0010
,  // measure 51
0001
0001
1000
0001
,  // measure 52
0010
0100
0002
0003
,  // measure 53
0000
0000
1000
1000
,  // measure 54
0001
0100
0010
0010
,  // measure 55
2000
3000
0001
0010
,  // measure 56
1000
0100
1000
0010
,  // measure 57
0002
0003
1000
0010
,  // measure 58
0200
0300
0001
0010
,  // measure 59
1000
0001
0100
0010
,  // measure 60
1000
1000
0010
1000
,  // measure 61
0001
0101
1000
0000
,  // measure 62
0010
0000
0000
0000
0100
0000
0000
0000
0010
0000
0000
0001
0000
0000
1000
0000
,  // measure 63
0001
0000
1000
0000
,  // measure 64
0001
0000
1000
0000
0001
0000
0000
0000
0100
0000
0000
0100
0000
0000
0001
0000
,  // measure 65
0001
0000
1000
0000
,  // measure 66
0010
0000
0001
0000
0000
0000
0000
0000
0100
0000
0000
0100
0000
0000
1000
0000
,  // measure 67
1000
0000
0010
0000
,  // measure 68
0001
0000
0000
0000
0000
0010
0000
0000
0010
0000
0000
0010
0000
0000
0100
0000
,  // measure 69
1000
0000
0000
0001
0000
0000
0000
0000
0010
0000
0000
0000
0000
0000
0000
0000
;
