#VERSION:0.81;
#TITLE:Wicked Irie;
#SUBTITLE:;
#ARTIST:DJ'TEKINA/ /SOMETHING feat. YUC'e;
#TITLETRANSLIT:;
#SUBTITLETRANSLIT:;
#ARTISTTRANSLIT:;
#GENRE:;
#ORIGIN:;
#CREDIT:;
#BANNER:Wicked Irie - DJ'TEKINA-SOMETHING feat. YUC'ebn.png;
#BACKGROUND:Wicked Irie - DJ'TEKINA-SOMETHING feat. YUC'ebg.png;
#PREVIEWVID:;
#JACKET:Wicked Irie - DJ'TEKINA-SOMETHING feat. YUC'ejacket.png;
#CDIMAGE:;
#DISCIMAGE:;
#LYRICSPATH:;
#CDTITLE:encorerebirth.png;
#MUSIC:Wicked Irie - DJ'TEKINA-SOMETHING feat. YUC'e.ogg;
#OFFSET:-0.012;
#SAMPLESTART:87.607;
#SAMPLELENGTH:14.769;
#SELECTABLE:YES;
#DISPLAYBPM:65.000:130.000;
#BPMS:0.000=130.000,
47.000=260.000,
48.000=130.000,
79.000=65.000,
79.500=130.000,
110.000=65.000,
110.500=130.000,
189.000=65.000,
190.000=130.000,
205.000=65.000,
205.500=130.000,
220.500=65.000,
221.000=130.000,
236.000=65.000,
236.500=130.000,
251.500=65.000,
252.000=130.000;
#STOPS:47.000=0.231;
#DELAYS:;
#WARPS:;
#TIMESIGNATURES:0.000=4=4;
#TICKCOUNTS:0.000=4;
#COMBOS:0.000=1;
#SPEEDS:0.000=1.000=0.000=0;
#SCROLLS:0.000=1.000;
#FAKES:;
#LABELS:0.000=Song Start;
#BGCHANGES:;
#KEYSOUNDS:;
#ATTACKS:
;

//---------------dance-single - Spork!----------------
#NOTEDATA:;
#CHARTNAME:Spork! - Beginner;
#STEPSTYPE:dance-single;
#DESCRIPTION:Spork!;
#CHARTSTYLE:;
#DIFFICULTY:Beginner;
#METER:1;
#RADARVALUES:0.077,0.102,0.016,0.087,0.000,55.000,2.000,11.000,0.000,0.000,0.000,0.000,0.000,0.077,0.102,0.016,0.087,0.000,55.000,2.000,11.000,0.000,0.000,0.000,0.000,0.000;
#CREDIT:Spork!;
#OFFSET:-0.022;
#BPMS:0.000=130.000
,47.000=260.000
,49.000=130.000
,80.000=65.000
,80.500=130.000
,111.000=65.000
,111.500=130.000
,190.000=65.000
,191.000=130.000
,206.000=65.000
,206.500=130.000
,221.500=65.000
,222.000=130.000
,237.000=65.000
,237.500=130.000
,252.500=65.000
,253.000=130.000
;
#STOPS:;
#DELAYS:;
#WARPS:;
#TIMESIGNATURES:0.000=4=4
;
#TICKCOUNTS:0.000=4
;
#COMBOS:0.000=1
;
#SPEEDS:0.000=1.000=0.000=0
;
#SCROLLS:0.000=1.000
;
#FAKES:;
#LABELS:0.000=Song Start
;
#DISPLAYBPM:65.000:130.000;
#NOTES:
// measure 0
0000
0000
0000
0000
,  // measure 1
0000
0000
0000
0000
,  // measure 2
0000
0000
0000
0000
,  // measure 3
0000
0000
0000
0000
,  // measure 4
1000
0000
0000
0000
,  // measure 5
0000
0000
0000
0000
,  // measure 6
0001
0000
0000
0000
,  // measure 7
0000
0000
0000
0000
,  // measure 8
2002
0000
0000
0000
,  // measure 9
0000
0000
3003
0000
,  // measure 10
0220
0000
0000
0000
,  // measure 11
0000
0000
0330
0000
,  // measure 12
1000
0000
0000
0000
,  // measure 13
0100
0000
0000
0000
,  // measure 14
0010
0000
0000
0000
,  // measure 15
0001
0000
0000
0000
,  // measure 16
0001
0000
0001
0000
,  // measure 17
0001
0000
0000
0000
,  // measure 18
1000
0000
1000
0000
,  // measure 19
1000
0000
0000
0000
0000
0000
0000
0010
,  // measure 20
0000
0000
0000
0010
0000
0000
0000
0010
,  // measure 21
0000
0000
0000
0000
0000
0000
0000
0100
,  // measure 22
0000
0000
0000
0100
0000
0000
0000
0100
,  // measure 23
0000
0000
0000
0000
0000
0000
0000
0001
,  // measure 24
0000
0000
0000
0000
0000
0000
0000
0100
,  // measure 25
0000
0000
0000
0000
0000
0000
0000
0010
,  // measure 26
0000
0000
0000
0000
0000
0000
0000
1000
,  // measure 27
0000
0000
0000
1000
,  // measure 28
0000
0000
0000
1000
,  // measure 29
0000
0000
0000
0001
,  // measure 30
0000
0000
0000
0001
,  // measure 31
0000
0000
0000
0020
,  // measure 32
0000
0000
0000
0000
,  // measure 33
0000
0000
0000
0230
,  // measure 34
0000
0000
0000
0000
,  // measure 35
0000
0000
0000
2300
,  // measure 36
0000
0000
0000
0000
,  // measure 37
0000
0000
0000
3002
,  // measure 38
0000
0000
0000
0000
,  // measure 39
0000
0000
0000
0103
,  // measure 40
0000
0000
0000
0100
,  // measure 41
0000
0000
0000
0010
,  // measure 42
0000
0000
0000
0010
,  // measure 43
0000
0000
0000
2000
,  // measure 44
0000
0000
0000
0000
,  // measure 45
0000
0000
0000
0002
,  // measure 46
0000
0000
0000
0000
,  // measure 47
0000
3003
1000
0000
,  // measure 48
0000
0000
1000
0000
,  // measure 49
0000
0000
0100
0000
,  // measure 50
0000
0000
0100
0000
,  // measure 51
0000
0000
0000
0010
0000
0000
0000
0000
,  // measure 52
0000
0000
0000
0010
0000
0000
0000
0000
,  // measure 53
0000
0000
0000
0001
0000
0000
0000
0000
,  // measure 54
0000
0000
0000
0001
0000
0000
0000
0000
,  // measure 55
0000
0001
0000
0000
,  // measure 56
0000
0001
0000
0000
,  // measure 57
0000
0010
0000
0000
,  // measure 58
0000
0010
0000
0000
,  // measure 59
0000
0100
0000
0000
0000
0000
0000
0000
,  // measure 60
0000
0100
0000
0000
0000
0000
0000
0000
,  // measure 61
0000
1000
0000
0000
0000
0000
0000
0000
,  // measure 62
0000
1000
0000
0000
0000
0000
0000
0000
,  // measure 63
2000
0000
0000
0000
,  // measure 64
3000
0000
0000
0000
;

//---------------dance-single - Spork!----------------
#NOTEDATA:;
#CHARTNAME:Spork! - Light;
#STEPSTYPE:dance-single;
#DESCRIPTION:Spork!;
#CHARTSTYLE:;
#DIFFICULTY:Easy;
#METER:2;
#RADARVALUES:0.157,0.178,0.016,0.127,0.000,120.000,2.000,16.000,0.000,0.000,0.000,0.000,0.000,0.157,0.178,0.016,0.127,0.000,120.000,2.000,16.000,0.000,0.000,0.000,0.000,0.000;
#CREDIT:Spork!;
#OFFSET:-0.022;
#BPMS:0.000=130.000
,47.000=260.000
,49.000=130.000
,80.000=65.000
,80.500=130.000
,111.000=65.000
,111.500=130.000
,190.000=65.000
,191.000=130.000
,206.000=65.000
,206.500=130.000
,221.500=65.000
,222.000=130.000
,237.000=65.000
,237.500=130.000
,252.500=65.000
,253.000=130.000
;
#STOPS:;
#DELAYS:;
#WARPS:;
#TIMESIGNATURES:0.000=4=4
;
#TICKCOUNTS:0.000=4
;
#COMBOS:0.000=1
;
#SPEEDS:0.000=1.000=0.000=0
;
#SCROLLS:0.000=1.000
;
#FAKES:;
#LABELS:0.000=Song Start
;
#DISPLAYBPM:65.000:130.000;
#NOTES:
// measure 0
0000
0000
0000
0000
,  // measure 1
0000
0000
0000
0000
,  // measure 2
0000
0000
0000
0000
,  // measure 3
0000
0000
0000
0000
,  // measure 4
0001
0000
1000
0000
,  // measure 5
0100
0000
0100
0000
,  // measure 6
1000
0000
0001
0000
,  // measure 7
0010
0000
0010
0000
,  // measure 8
0001
0000
0001
0001
,  // measure 9
1000
0000
1000
1000
,  // measure 10
0010
0000
0010
0010
,  // measure 11
0100
0000
0100
0200
,  // measure 12
0301
0000
0001
0000
,  // measure 13
1000
0000
1000
0001
,  // measure 14
1000
0000
1000
0000
,  // measure 15
0001
0000
0001
0000
,  // measure 16
0200
0000
0001
0000
,  // measure 17
0010
0300
1000
0000
,  // measure 18
0200
0000
1000
0000
,  // measure 19
0010
0000
0300
0000
0001
0000
0000
0020
,  // measure 20
0000
0000
0000
0001
0000
0000
0000
0100
,  // measure 21
0000
0030
0000
1000
0000
0000
0000
0020
,  // measure 22
0000
0000
0000
1000
0000
0000
0000
0100
,  // measure 23
0000
0030
0000
0001
0000
0000
0000
0001
,  // measure 24
0000
0000
0000
0010
0000
0000
0000
0001
,  // measure 25
0000
0000
0000
0100
0000
0000
0000
0010
,  // measure 26
0000
0000
0000
1000
0000
0000
0000
0001
,  // measure 27
0000
0000
0000
0001
0000
0000
1000
0000
,  // measure 28
0000
0100
0000
1000
,  // measure 29
0000
0010
0000
0100
,  // measure 30
0000
0001
0000
1000
,  // measure 31
0000
1000
0000
1001
,  // measure 32
0000
0001
0000
1000
,  // measure 33
0000
0100
0000
0020
,  // measure 34
0000
0100
0000
0001
,  // measure 35
0030
1000
0000
1001
,  // measure 36
0000
1000
0000
0001
,  // measure 37
0000
0100
0000
0020
,  // measure 38
0000
0100
0000
1000
,  // measure 39
0030
0001
0000
1000
,  // measure 40
0000
0000
0000
1000
,  // measure 41
0000
0000
0000
0001
,  // measure 42
0000
0000
0000
0001
,  // measure 43
0000
0000
0000
0020
,  // measure 44
0000
0000
0000
0000
,  // measure 45
0000
0000
0000
0200
,  // measure 46
0000
0000
0000
0000
,  // measure 47
0000
0330
0010
0000
,  // measure 48
0010
0000
0001
0000
,  // measure 49
0001
0000
0100
0000
,  // measure 50
0100
0000
0010
0000
,  // measure 51
0010
0000
0000
0010
0000
0000
0000
0010
,  // measure 52
0000
0000
0000
1000
0000
0000
0000
1000
,  // measure 53
0000
0000
0000
0100
0000
0000
0000
0100
,  // measure 54
0000
0000
0000
0010
0000
0000
0000
0010
,  // measure 55
0000
0020
0000
0031
,  // measure 56
0000
0200
0000
0310
,  // measure 57
0010
2000
0000
3001
,  // measure 58
0000
1000
1000
0010
,  // measure 59
0000
0020
0000
0000
0000
1030
0000
0000
,  // measure 60
0000
0200
0000
0000
0000
0310
0000
0010
,  // measure 61
0000
0002
0000
0000
0000
1003
0000
0000
,  // measure 62
0000
0001
0000
0001
0000
0100
0000
0000
,  // measure 63
0020
0000
0000
0000
,  // measure 64
0030
0000
0000
0000
;

//---------------dance-single - Spork!----------------
#NOTEDATA:;
#CHARTNAME:Spork! - Standard;
#STEPSTYPE:dance-single;
#DESCRIPTION:Spork!;
#CHARTSTYLE:;
#DIFFICULTY:Medium;
#METER:5;
#RADARVALUES:0.300,0.325,0.222,0.310,0.008,197.000,28.000,39.000,0.000,0.000,0.000,0.000,0.000,0.300,0.325,0.222,0.310,0.008,197.000,28.000,39.000,0.000,0.000,0.000,0.000,0.000;
#CREDIT:Spork!;
#DISPLAYBPM:65.000:130.000;
#NOTES:
// measure 0
0000
0000
0000
0000
,  // measure 1
0000
0000
0000
0000
,  // measure 2
0000
0000
0000
0000
,  // measure 3
0000
0000
0000
0000
,  // measure 4
0001
0000
0010
0000
,  // measure 5
0001
0000
0000
0000
0200
0010
0010
0010
,  // measure 6
0000
0300
0000
0020
0000
0000
0000
0000
,  // measure 7
1030
0000
0100
0000
,  // measure 8
1000
0100
2200
3300
,  // measure 9
0010
0100
0220
0330
,  // measure 10
0010
1000
2002
3003
,  // measure 11
0001
0010
0011
0002
,  // measure 12
0103
0010
0100
0100
,  // measure 13
0001
0000
0010
0000
0001
0010
0100
1000
,  // measure 14
0010
0100
0010
0010
,  // measure 15
1000
0001
1001
0000
,  // measure 16
0001
0010
0001
0100
,  // measure 17
0010
0000
1000
0000
0000
0001
0001
0001
,  // measure 18
1000
0010
0100
0010
,  // measure 19
1000
0000
0100
0000
0010
0000
0000
0010
,  // measure 20
0000
0100
0000
0010
0000
0001
0000
0200
,  // measure 21
0000
0000
0320
0000
0000
0000
1030
0000
0000
0100
0000
0000
1001
0000
0000
0000
,  // measure 22
0000
0010
0000
0100
0000
0010
0000
1000
,  // measure 23
1000
1000
0000
0001
0001
0001
0000
1000
,  // measure 24
0000
0100
0000
0010
0000
0001
0000
0100
,  // measure 25
0000
0010
0000
0002
0000
0013
0000
0100
,  // measure 26
0000
0001
0000
0010
0000
0001
0000
1000
,  // measure 27
0000
0000
0001
0000
0000
0000
0100
0000
0000
0100
0000
0000
0001
0000
0000
0000
,  // measure 28
0010
0100
1000
0010
,  // measure 29
0100
2000
3100
0010
,  // measure 30
1000
0100
0010
2002
,  // measure 31
0000
3003
0000
0020
,  // measure 32
0030
0020
0030
0020
,  // measure 33
1030
0001
1000
0200
,  // measure 34
0300
2000
3000
0002
,  // measure 35
0003
2000
3000
0200
,  // measure 36
0300
0200
0300
0200
,  // measure 37
1300
0010
0100
0200
,  // measure 38
0300
0002
0003
2000
,  // measure 39
3000
0002
0003
0010
,  // measure 40
0000
0010
0000
0010
,  // measure 41
0000
0010
0000
0100
,  // measure 42
0000
0100
0000
0100
,  // measure 43
0000
0100
0000
0020
,  // measure 44
0000
0000
0000
0000
,  // measure 45
0000
0000
0000
0200
,  // measure 46
0000
0000
0000
0000
,  // measure 47
0000
0330
1001
1000
,  // measure 48
0100
0000
0100
0000
1001
0000
0001
0100
,  // measure 49
0000
0100
0010
0000
1001
0000
0001
0000
,  // measure 50
0010
0010
1001
0010
,  // measure 51
2002
0000
3003
0110
0000
0010
0000
1000
,  // measure 52
0000
1000
0000
0110
0000
0100
0001
0000
,  // measure 53
0001
1000
0000
0110
0000
0010
0000
0001
,  // measure 54
0000
0001
0000
0110
0000
1000
0000
0220
,  // measure 55
0000
0330
1010
0000
0100
0000
0001
0000
,  // measure 56
1000
0000
0011
0000
0100
0000
1000
0010
,  // measure 57
0010
1100
1000
0001
,  // measure 58
0010
1001
0010
2002
,  // measure 59
3003
0101
0000
0010
0000
1000
0000
0001
,  // measure 60
0000
1100
0000
0010
0000
0001
1000
1000
,  // measure 61
0000
0011
0000
0001
0000
1000
0000
0010
,  // measure 62
0000
0110
0000
1001
0000
0220
0000
0330
;

//---------------dance-single - Spork!----------------
#NOTEDATA:;
#CHARTNAME:Spork! - Expert;
#STEPSTYPE:dance-single;
#DESCRIPTION:Spork!;
#CHARTSTYLE:;
#DIFFICULTY:Challenge;
#METER:10;
#RADARVALUES:0.718,0.763,0.334,1.000,0.346,454.000,42.000,137.000,71.000,0.000,15.000,0.000,0.000,0.718,0.763,0.334,1.000,0.346,454.000,42.000,137.000,71.000,0.000,15.000,0.000,0.000;
#CREDIT:Spork!;
#DISPLAYBPM:65.000:130.000;
#NOTES:
// measure 0
0000
0000
0000
0000
,  // measure 1
0000
0000
0000
0000
0000
00M0
000M
M000
,  // measure 2
0000
M000
0000
0000
0000
0000
0000
0000
,  // measure 3
0000
0000
0000
0000
,  // measure 4
0001
0010
0000
0010
0100
0001
0000
0001
,  // measure 5
0100
1000
0000
0100
0010
M001
M100
001M
,  // measure 6
1000
0100
0000
010M
0010
1000
0000
1000
,  // measure 7
0010
0000
0001
0000
0000
0000
0010
0000
0100
0000
0000
0010
0001
0000
1000
0000
,  // measure 8
1001
0000
1000
0000
0100
1000
0000
0010
0100
0000
0000
0110
0000
0000
0100
0000
,  // measure 9
0001
0100
0010
0000
1000
0000
0000
0000
1001
0000
0000
0011
0000
0000
0100
0000
,  // measure 10
0000
0000
0010
0000
1000
0100
0000
0000
0110
0000
0000
1100
0000
0000
0001
0000
,  // measure 11
0000
1000
0010
0000
0010
1000
0001
0000
1000
0100
1000
0000
1200
0000
0000
0000
,  // measure 12
0310
0100
1000
0010
0100
0001
0100
0020
,  // measure 13
2030
0000
0000
0000
3020
0000
0000
0000
0130
0000
0000
0000
0002
0000
0000
0003
0021
0000
0000
0000
0032
0000
0000
0000
2003
0000
0000
3000
2010
0000
0000
0000
,  // measure 14
3010
0000
0100
0010
1000
0000
0100
0000
0020
0000
0030
0010
0000
0001
0020
0000
,  // measure 15
0031
0200
0301
2000
3020
0230
0302
0023
,  // measure 16
0031
0101
00M0
0100
1000
1010
0M00
0010
,  // measure 17
0001
0101
M000
0100
0010
0011
1001
1010
,  // measure 18
1000
1100
00M0
0100
0001
0011
0M00
0010
,  // measure 19
1000
0000
1100
0000
000M
0000
0100
0000
0110
0000
0000
1010
0000
1001
1000
0000
,  // measure 20
1100
00M0
0100
0010
1010
0M00
1000
0400
,  // measure 21
0304
0000
0043
0000
0034
0000
4003
0000
3000
1100
0000
0000
0101
0000
0001
0000
,  // measure 22
0011
0M00
0010
0100
0101
00M0
0001
0040
,  // measure 23
4030
0000
0000
0000
3400
0000
4000
0000
0300
0000
3000
0000
0040
0000
0000
0000
4030
0000
0000
0000
3004
0000
0000
0000
0043
0000
0000
0030
0010
0000
0000
0000
,  // measure 24
0001
0100
0010
0000
0100
0000
0001
0000
1000
0100
0010
0000
0200
0000
2300
0000
,  // measure 25
3020
0000
0100
0030
0001
0000
0000
0000
0020
0000
0100
0000
1030
0000
0000
0000
0002
0000
0000
0000
2003
0000
0000
0000
3010
0000
0000
0000
0010
0000
0000
0000
,  // measure 26
1000
0000
0010
0000
0100
0000
0000
0000
0010
0000
0000
0000
2000
0000
0000
0000
3002
0000
0010
0003
0100
0000
0000
0000
0020
0000
0000
0000
0031
0000
0000
0000
,  // measure 27
0200
0000
0001
0300
0010
0000
0000
0000
0200
0000
1000
0300
0010
0000
0000
0000
0020
0000
2000
0030
0002
3000
0000
0003
0010
0000
0000
0000
0001
0000
0100
0000
,  // measure 28
0010
0000
0000
0000
0200
0000
0000
0000
2300
0000
0000
0000
3100
0000
0001
0000
1000
0000
0000
0000
0020
0000
0000
0000
0031
0000
0000
0000
0020
0000
0100
0030
,  // measure 29
0001
0000
0000
0000
0200
0000
0010
0300
1000
0000
0000
0000
0200
0000
0000
0000
2300
0000
0000
0000
3010
0000
0000
0000
0010
0000
0000
0000
1000
0000
0100
0000
,  // measure 30
0010
0000
0100
0000
0002
0000
0103
1000
0001
0000
0010
0000
1000
0000
0010
0000
,  // measure 31
0100
0000
0000
0000
2000
0000
0000
0000
3020
0000
1000
0030
0200
0000
1000
0300
0020
0000
0000
0030
0010
0000
0000
0000
020M
0000
0000
0000
0000
0000
0000
0000
,  // measure 32
031M
0000
0000
0000
200M
0000
0000
000M
3100
0000
002M
0000
0000
0000
013M
0000
,  // measure 33
200M
0000
302M
0000
013M
0100
00M2
0000
,  // measure 34
20M3
0000
0000
0000
32M0
0000
0000
00M0
0301
0000
00M2
0000
0000
0000
01M3
0000
,  // measure 35
02M0
0000
0000
0300
10M1
00M0
00M0
0000
01M0
0000
0100
0000
M020
0000
0000
0000
,  // measure 36
M130
0000
0000
0000
M002
0000
0000
M000
0013
0000
M200
0000
0000
0000
M310
0000
,  // measure 37
M002
0000
M103
0000
M100
0010
2M00
0000
,  // measure 38
3M02
0000
0000
0000
0M23
0000
0000
0M00
1030
0000
2M00
0000
0000
0000
3M10
0000
,  // measure 39
0M20
0000
0M32
0000
1M03
0001
1001
0000
,  // measure 40
0001
0001
0001
1000
,  // measure 41
1000
0000
0000
0000
1000
0000
0000
0100
1000
0000
0010
0000
0110
0000
0000
0000
,  // measure 42
0010
0010
0010
0100
,  // measure 43
0100
0000
0000
0000
0000
0000
0100
0000
0000
0010
0100
0010
0100
0000
0000
0100
0000
0000
0001
0000
0000
0010
0001
0010
,  // measure 44
0001
0000
0000
0000
0000
0000
0100
0000
0000
0000
0000
0000
0010
0000
0000
1000
0000
0000
0001
0000
0000
0000
0000
0000
0100
0000
0000
00M0
0000
0000
0100
0000
0000
0000
0000
0000
1000
0000
0000
0000
0000
0000
0010
0000
0100
0000
0010
0000
,  // measure 45
0100
0000
0001
0000
0010
0001
1000
0000
0010
0M00
0010
0001
0100
0010
1000
0010
,  // measure 46
0100
0000
0000
0001
0000
0000
0010
0000
0000
0100
0000
0000
1000
0000
0000
0010
0000
0000
1000
0000
0000
0100
0000
0000
0010
0000
0000
0001
0000
0000
0100
0000
0000
0001
0000
0000
4000
0000
0004
0000
0000
0000
0000
0000
0000
0000
0000
0000
,  // measure 47
0000
0000
0000
0000
0000
0000
0000
0000
0000
0000
3003
0000
0000
0000
0000
0000
0000
0000
0000
0000
0000
0000
0000
0000
1000
0000
0000
0000
0100
0000
2000
0000
0000
0000
0000
0000
0020
0000
0000
3000
0000
0000
0200
0000
0000
0030
0000
0000
,  // measure 48
0000
0000
0000
0000
0000
0000
2000
0000
0000
0300
0000
0000
0200
0000
0000
3000
0000
0000
0002
0000
0000
0300
0000
0000
0013
0000
0000
0000
0001
0000
2000
0000
0000
0000
0000
0000
0002
0000
0000
3000
0000
0000
0020
0000
0000
0003
0000
0000
,  // measure 49
0000
0000
0000
0000
0000
0000
0200
0000
0000
0030
0000
0000
0002
0000
0000
0300
0000
0000
0000
0000
0000
0000
0000
0000
0103
0000
0000
0000
0010
0000
0200
0000
0000
0000
0000
0000
2000
0000
0000
0300
0000
0000
0020
0000
0000
3000
0000
0000
,  // measure 50
0000
0000
0002
0030
0020
0003
1030
0000
1100
0000
0010
0000
0101
0000
0010
0000
,  // measure 51
2002
0000
0000
0000
0000
0000
0000
0000
0000
3003
0000
0000
0MM0
0000
0000
0000
0000
0000
0001
0000
0000
0000
0100
0000
0002
0000
0000
0000
0000
0000
0020
0000
0000
0003
0000
0000
0200
0000
0000
0030
0000
0000
0010
0000
0000
0000
0000
0000
,  // measure 52
0002
0000
0000
0300
0000
0000
0200
0000
0000
0003
0000
0000
2000
0000
0000
0300
0000
0000
3010
0000
0000
0000
1000
0000
0002
0000
0000
0000
0000
0000
2000
0000
0000
0003
0000
0000
0200
0000
0000
3000
0000
0000
1000
0000
0000
0000
0000
0000
,  // measure 53
0020
0000
0000
0300
0000
0000
2000
0000
0000
0000
0000
0000
0030
0000
0000
0000
0000
0000
3010
0000
0000
0000
0100
0000
0020
0000
0000
0000
0000
0000
0002
0000
0000
0030
0000
0000
0200
0000
0000
0003
0000
0000
0010
0000
0000
0000
0000
0000
,  // measure 54
2000
0000
0000
0300
0000
0000
3200
0000
0000
0000
0000
0000
0320
0000
0000
0000
0000
0000
2030
0000
0000
0000
0000
0000
3001
0000
0010
0000
0100
0000
1000
0000
0000
0000
0000
0000
1000
0000
0100
0000
0010
0000
0001
0000
0000
0000
0000
0000
,  // measure 55
0000
0000
0000
0000
0000
0000
M00M
0000
0000
M00M
0000
0000
0100
0000
0000
0000
0010
0000
2000
0000
0000
0000
0000
0000
0200
0000
0000
3000
0000
0000
0020
0000
0000
0300
0000
0000
0000
0000
0000
003M
0000
0000
0020
0000
0000
0000
0000
0000
,  // measure 56
2000
0000
0000
0030
0000
0000
0200
0000
0000
3000
0000
0000
0310
0000
0000
0000
0001
0000
0200
0000
0000
0000
0000
0000
0002
0000
0000
0300
0000
0000
0020
0000
0000
0003
0000
0000
0000
0000
0000
0M30
0000
0000
1010
0000
0000
0000
0000
0000
,  // measure 57
2002
0000
0000
0000
0000
0000
0000
0000
0000
3003
0000
0000
0100
0000
0000
0000
0001
0000
0020
0000
0000
0000
0000
0000
2000
0000
0000
0030
0000
0000
0020
0000
0000
3000
0000
0000
0000
0000
0000
0M30
0000
0000
0020
0000
0000
0000
0000
0000
,  // measure 58
0200
0030
0001
0300
0011
0000
0100
0000
1010
0000
0100
0000
2002
0000
0000
3003
,  // measure 59
0MM0
0000
0000
0000
0000
0000
0001
0000
0000
0000
0100
0000
0002
0000
0000
0000
0000
0000
0020
0000
0000
0003
0000
0000
0100
0000
0000
0030
0000
0000
M100
0000
0000
0000
0000
0000
0200
0000
0000
0000
0000
0000
0002
0000
0000
0300
0000
0000
,  // measure 60
0020
0000
0000
0003
0000
0000
0130
0000
0000
0000
1000
0000
0020
0000
0000
0000
0000
0000
2000
0000
0000
0030
0000
0000
0100
0000
0000
3000
0000
0000
01M0
0000
0000
0000
0000
0000
0101
0000
0000
0000
0000
0000
2002
0000
0000
0000
0000
0000
,  // measure 61
0000
0000
0000
3003
0000
0000
0010
0000
0000
0000
1000
0000
0200
0000
0000
0000
0000
0000
0002
0000
0000
0300
0000
0000
0200
0000
0000
0003
0000
0000
0020
0000
0000
0300
0000
0000
0002
0000
0000
0030
0000
0000
2003
0000
0000
0000
0000
0000
,  // measure 62
0020
0000
0000
0000
0000
0000
3000
0000
0000
0000
0000
0000
0000
0000
0000
0000
0000
0000
0000
0000
0000
0000
0000
0000
0130
0000
0000
0000
0000
0000
0000
0000
0000
0000
0000
0000
0000
0000
0000
0000
0000
0000
0000
0000
0000
0000
0000
0000
0010
0000
0000
0000
0000
0000
0000
0000
1000
0000
0000
0000
0000
0000
0000
0000
0001
0000
0000
0000
0000
0000
0000
0000
0020
0000
0000
0000
0000
0000
0000
0000
0000
0000
0000
0000
0000
0000
0000
0000
0000
0000
0000
0000
0000
0000
0000
0000
0130
0000
0000
0000
0000
0000
0000
0000
1000
0000
0000
0000
0000
0000
0000
0000
0001
0000
0000
0000
0000
0000
0000
0000
0200
0000
0000
0000
0000
0000
0000
0000
0000
0000
0000
0000
0000
0000
0000
0000
0000
0000
0000
0000
0000
0000
0000
0000
0300
0000
0000
0000
0000
0000
0000
0000
0000
0000
0000
0000
0100
0000
0000
0000
0000
0000
0000
0000
0000
0000
0000
0000
0010
0000
0000
0000
0000
0000
0000
0000
0000
0000
0000
0000
0110
0000
0000
0000
0000
0000
0000
0000
0000
0000
0000
0000
,  // measure 63
2002
0000
0000
0000
,  // measure 64
3003
0000
0000
0000
;

//---------------dance-single - Spork!----------------
#NOTEDATA:;
#CHARTNAME:Spork! - Heavy;
#STEPSTYPE:dance-single;
#DESCRIPTION:Spork!;
#CHARTSTYLE:;
#DIFFICULTY:Hard;
#METER:9;
#RADARVALUES:0.556,0.508,0.238,0.357,0.171,415.000,30.000,45.000,0.000,0.000,0.000,0.000,0.000,0.556,0.508,0.238,0.357,0.171,415.000,30.000,45.000,0.000,0.000,0.000,0.000,0.000;
#CREDIT:Spork!;
#DISPLAYBPM:65.000:130.000;
#NOTES:
// measure 0
0000
0000
0000
0000
,  // measure 1
0000
0000
0000
0000
,  // measure 2
0000
0000
0000
0000
,  // measure 3
0000
0000
0000
0000
,  // measure 4
0002
0010
0003
0010
0200
0010
0300
0010
,  // measure 5
2000
0010
3000
0010
0110
0000
1100
0100
,  // measure 6
2000
0010
3000
0010
0200
0010
0300
0010
,  // measure 7
0002
0000
0010
0000
0003
0000
0010
0000
0100
0000
0000
0100
0001
0000
1000
0000
,  // measure 8
0001
0000
0100
0000
1000
0000
0100
0000
0110
0000
0000
1010
0000
0000
0010
0000
,  // measure 9
1000
0000
0100
0000
0001
0000
0100
0000
0110
0000
0000
1100
0000
0000
0200
0000
,  // measure 10
0000
0000
1300
0000
0010
0000
0001
0000
0011
0000
0000
0110
0000
0000
0200
0000
,  // measure 11
0001
0301
0010
1000
1010
0000
0210
0000
,  // measure 12
1300
0100
1000
0010
0100
0001
0010
0100
,  // measure 13
1000
0100
0010
0001
0100
0100
0010
0010
,  // measure 14
1000
0000
0001
0000
0010
0000
0001
0000
0100
0000
0000
0001
0000
0010
0100
0000
,  // measure 15
1000
0000
0000
0000
0010
0000
0000
0000
1010
0000
0000
0010
0100
0000
0001
0000
,  // measure 16
0020
1000
0030
0001
0200
1000
0300
1000
,  // measure 17
0020
0001
0030
0001
0020
1000
1030
1000
,  // measure 18
0200
0001
0300
1000
0020
0001
0030
0001
,  // measure 19
0200
0000
1000
0000
1300
0000
0100
0000
0010
0000
0000
1000
0000
1001
0000
0000
,  // measure 20
0001
0000
0010
0000
0100
0000
0010
0000
0000
0001
0000
1000
0001
0000
0100
0000
,  // measure 21
0010
0000
1000
0000
0100
0000
0110
0000
0000
1001
0000
0000
0101
0000
0000
0000
,  // measure 22
0001
0100
0001
0000
0000
0000
0001
0000
0000
0010
0100
1000
0100
0000
1000
0000
,  // measure 23
0010
0000
0100
0010
0000
0000
0010
0000
0100
0000
0001
0000
1000
0000
0001
0000
,  // measure 24
0010
0100
0010
1000
0010
0100
1000
0010
,  // measure 25
0000
0100
0000
0000
0210
0000
0000
0000
0310
0000
1000
0000
0000
0000
1000
0000
,  // measure 26
0100
0010
0100
0001
0100
0010
0001
0100
,  // measure 27
0000
0000
0010
0000
0000
0000
0110
0000
0000
1001
0000
0000
1000
0000
0010
0000
,  // measure 28
0100
0000
0010
0000
0001
0000
0010
0000
0100
0000
0001
0000
0010
0000
0000
0100
,  // measure 29
0000
1200
0000
1300
0001
0000
0001
0100
,  // measure 30
0010
0100
1000
0100
0010
1000
0001
0010
,  // measure 31
0100
0000
1000
0000
0010
1000
0000
1000
0100
0000
0010
0000
0002
0000
0000
0000
,  // measure 32
0013
0000
0000
0000
0002
0000
0000
0100
0003
0000
0002
0000
0000
0000
1003
0000
,  // measure 33
1000
0000
0110
0000
0001
0001
0020
0000
,  // measure 34
0130
0000
0000
0000
0200
0000
0000
0310
0001
0000
0200
0000
0000
0000
0310
0000
,  // measure 35
0010
0000
1002
0000
0103
0010
2000
0000
,  // measure 36
3100
0000
0000
0000
2000
0000
0000
3010
0000
0000
2000
0000
0000
0000
3001
0000
,  // measure 37
0001
0000
0100
0000
0010
0010
0200
0000
,  // measure 38
0301
0000
0000
0000
0020
0000
0000
0100
0030
0000
0020
0000
0000
0000
0031
0000
,  // measure 39
0001
0100
0010
0120
,  // measure 40
1000
0100
0001
0100
,  // measure 41
1000
0030
0000
0000
1100
0000
0000
1000
0001
0000
0010
0000
0120
0000
0000
0000
,  // measure 42
0001
0100
1000
0100
,  // measure 43
0001
0000
0000
0030
0000
0000
0000
0000
0000
0000
0000
0000
1000
0000
0000
0000
0000
0000
0001
0000
1000
0000
0001
0000
1000
0000
0000
0000
0000
0000
0001
0000
0000
0000
0000
0000
0010
0000
0000
0000
0000
0000
0100
0000
0000
0000
0000
0000
,  // measure 44
0010
0100
0010
0100
0010
0100
1000
0001
,  // measure 45
1000
0001
1000
0001
1000
0001
0100
0010
,  // measure 46
1000
0000
0100
0000
0010
0000
0001
0000
0100
0000
0001
0000
1000
0001
1000
0001
,  // measure 47
1000
0001
1000
0001
1000
0000
0000
0000
2000
0000
0100
0000
0001
3000
1000
0000
,  // measure 48
0001
0000
0100
0000
0010
0000
0010
0000
0200
0000
0010
0000
0001
0300
1000
0000
,  // measure 49
0001
0000
0010
0000
0010
0000
0000
0000
0002
0000
0010
0000
1000
0003
0001
0000
,  // measure 50
0100
0010
0100
0100
0001
0010
1000
0100
,  // measure 51
0002
0000
0000
0003
1100
0000
0200
0000
0010
0000
1000
0300
0001
0000
0010
0000
,  // measure 52
0001
0000
0100
0000
0100
0000
0002
0000
0100
0000
1000
0003
0010
0000
1000
0000
,  // measure 53
0100
0000
0110
0000
0000
0000
0020
0000
0100
0000
0001
0030
0010
0000
0100
0000
,  // measure 54
1000
0000
0010
0000
0010
0000
0100
0000
0001
0100
0001
0000
1000
0100
2000
0000
,  // measure 55
0000
0000
3001
0001
0010
0100
0010
0000
0001
0000
0100
0000
1000
0000
0100
0000
,  // measure 56
0010
0000
1000
0000
0100
0010
0100
0000
1000
0000
0001
0000
0010
0000
0001
0000
,  // measure 57
0101
0000
0000
0000
0010
0100
0010
0000
1000
0000
0100
0000
0001
0000
0100
0000
,  // measure 58
0010
0000
0001
0000
1000
0000
0010
0000
0001
0000
0100
0000
2000
0000
0000
3000
,  // measure 59
0011
0000
0001
1000
0001
0000
0100
0000
0010
0000
0001
0000
0010
0000
1000
0000
,  // measure 60
0100
0000
1000
0001
1000
0000
0100
0000
0010
0000
1000
0000
0010
0000
0011
0000
,  // measure 61
0000
0000
0001
1000
0001
0000
0100
0000
0010
0000
1000
0000
0100
0000
0010
0000
,  // measure 62
0001
0000
0100
0000
0010
1000
0001
0000
0100
0001
2000
0000
0000
0000
3100
0000
,  // measure 63
0220
0000
0000
0000
,  // measure 64
0330
0000
0000
0000
;
