#TITLE:The setting sun;
#SUBTITLE:;
#ARTIST:DJ YASETAKA;
#TITLETRANSLIT:;
#SUBTITLETRANSLIT:;
#ARTISTTRANSLIT:;
#GENRE:;
#CREDIT:usaminseijin;
#BANNER:[ROUND H] - The setting sun.png;
#BACKGROUND:[ROUND H] - The setting sun-bg.png;
#LYRICSPATH:;
#CDTITLE:cdtitle.png;
#MUSIC:[ROUND H] - The setting sun.mp3;
#OFFSET:-1.377000;
#SAMPLESTART:16.775000;
#SAMPLELENGTH:11.959999;
#SELECTABLE:YES;
#DISPLAYBPM:70.000000:140.000000;
#BPMS:0.000000=140.000000
,67.000000=280.000000
,68.500000=140.000000
,75.000000=280.000000
,77.000000=140.000000
,91.000000=280.000000
,94.000000=140.000000
,99.000000=70.000000
,115.000000=140.000000
;
#STOPS:32.000000=0.214000,
32.500000=0.214000,
67.000000=0.161000,
67.750000=0.161000,
75.000000=0.107000,
75.500000=0.214000,
76.500000=0.107000,
91.000000=0.214287,
92.000000=0.214283,
93.000000=0.214283,
139.000000=3.000000
;
#BGCHANGES:;
#KEYSOUNDS:;
#ATTACKS:;

//---------------dance-single - ----------------
#NOTES:
     dance-single:
     :
     Hard:
     8:
     0.472972,0.780343,0.383985,0.068264,0.247457,388.000000,343.000000,45.000000,8.000000,0.000000,0.000000,0.472972,0.780343,0.383985,0.068264,0.247457,388.000000,343.000000,45.000000,8.000000,0.000000,0.000000:
0000
0000
0000
0000
,
0000
0000
0000
0000
,
0000
0000
0000
0000
,
0000
0000
0000
0000
,
0000
0000
0000
0000
,
0000
0000
0000
0000
,
0000
0000
0000
0000
,
0000
0000
0000
0000
,
1000
0000
0001
0000
1000
0000
0001
0010
0001
0010
0001
0010
0001
0000
0000
1000
,
0000
0000
0001
0000
1000
0000
0000
0000
0010
0000
0100
0000
0001
0000
0000
0100
,
0000
0001
0010
0001
0100
0001
0000
0000
,
1000
0000
0001
0000
1000
0000
0000
0000
0010
0000
0100
0000
0001
0000
0000
1000
,
0000
0000
0001
0000
0100
0000
0010
0000
1000
0000
0010
0000
0100
0000
0000
0010
,
0000
0000
1000
0000
0001
0000
1000
0000
0100
0000
1000
0000
0001
0000
0000
0010
,
0000
0001
0010
0100
1000
0100
0000
0000
,
1000
0000
0001
0000
1000
0000
0000
0000
0001
0000
0100
0000
0001
0000
0000
0010
,
0000
0000
0001
0000
1000
0000
0100
0000
1000
0000
0010
0000
1000
0000
0000
0001
,
0000
0000
1001
0000
0000
0010
0000
0000
0100
0000
0010
0000
1000
0000
0000
0001
,
0000
0100
0010
1000
0100
1000
0000
0001
,
0000
0000
1000
0000
0000
0000
0000
0000
0010
0000
0100
0000
0010
0000
0000
1000
,
0000
0000
0001
0100
0001
0000
1000
0000
0010
0000
1000
0000
0001
0000
0000
1000
,
0000
0000
0001
0000
0000
0100
0000
0000
0010
0000
0100
0000
0001
0000
0000
0010
,
0000
0001
1000
0010
1000
0100
1001
0000
,
1001
0000
0000
0000
1001
0000
0000
0000
0001
0000
1000
0000
0010
0100
0010
0100
,
0010
0100
0010
0100
0001
0000
1000
0000
0001
0000
1000
0000
0100
0000
1000
0001
,
1000
0000
0001
0000
1000
0000
0001
0000
0010
0000
0000
0010
0000
0000
0010
0000
0100
0000
0010
0000
0100
0000
0010
0000
0001
0000
0000
0000
0100
0000
0010
0000
,
0100
0000
0010
0000
0100
0000
0010
0000
1000
0000
0000
1000
0000
0000
1000
0000
0001
0000
1000
0000
0001
0000
1000
0000
0010
0000
0000
0000
1000
0000
0001
0000
,
1000
0000
0001
0000
1000
0000
0001
0000
0100
0000
0000
0100
0000
0000
0100
0000
0010
0000
0100
0000
0010
0000
0100
0000
0001
0000
1000
0000
0001
0000
1000
0000
,
0001
0000
1000
0000
0001
0000
1000
0000
0100
0000
1000
0000
0100
0000
1000
0000
0100
0000
0000
0010
1000
0000
0000
0000
1100
0000
0000
0000
0000
0000
0000
0000
,
1100
1001
1001
0011
,
0011
0110
0110
1010
,
1010
1001
1001
0101
,
0101
0110
0110
1010
,
0110
0101
1001
1100
,
1001
0000
0000
0000
0011
0000
0000
0000
0110
0000
0000
0000
2002
3003
0000
0000
,
1001
0000
1000
0010
1000
0010
1000
0010
,
0100
0001
0100
0001
2000
0000
3001
0000
,
1001
0000
1000
0100
1000
0100
1000
0100
,
0010
0001
0010
0001
0200
0000
0310
0000
,
0110
0000
1000
0001
1000
0001
1000
0001
,
0100
0010
0100
0010
2000
0000
3001
0000
,
0110
0000
0010
0100
0010
0100
0010
0100
,
0001
0000
1000
0000
0001
0000
1000
0000
0001
0000
0000
0100
0010
0000
0000
0000
,
0000
0000
1000
0001
1000
0000
0100
0000
0000
0000
0010
0000
0000
0000
0011
0000
,
0100
0010
0100
0010
2000
0000
3001
0000
,
0000
0000
0001
1000
0001
0000
0010
0000
0000
0000
0100
0000
0000
0000
1100
0000
,
0010
0000
0100
0000
0010
0000
1000
0001
2000
0000
0000
0000
3010
0000
0100
0000
,
0000
0000
1000
0010
1000
0000
0001
0000
0000
0000
0100
0000
0000
0000
0101
0000
,
0010
0001
0010
0001
0200
0000
0310
0000
,
0000
1000
0001
0100
0010
1000
0001
0100
,
0010
0000
1000
0000
0001
0000
1000
0000
0010
0000
0000
0100
0010
0000
0000
0000
,
1000
1001
0100
0110
,
0001
1001
0010
0110
,
1000
1100
0010
0011
,
0100
0101
0010
1010
,
0001
0000
0000
1000
0000
0000
0001
0000
0100
0000
0000
0000
0010
0000
0000
0000
,
1000
0000
0000
0100
0000
0000
1000
0000
0010
0000
1000
0000
0100
0000
1000
0000
,
0001
0000
1000
0001
1000
0000
0010
0000
,
1000
0000
0000
0001
0000
0000
1000
0000
0100
0000
0010
0000
0100
0000
0010
0000
,
1001
0000
0000
0000
;

//---------------dance-single - ----------------
#NOTES:
     dance-single:
     :
     Medium:
     7:
     0.390080,0.654482,0.204792,0.017066,0.162127,320.000000,296.000000,24.000000,2.000000,0.000000,0.000000,0.390080,0.654482,0.204792,0.017066,0.162127,320.000000,296.000000,24.000000,2.000000,0.000000,0.000000:
0000
0000
0000
0000
,
0000
0000
0000
0000
,
0000
0000
0000
0000
,
0000
0000
0000
0000
,
0000
0000
0000
0000
,
0000
0000
0000
0000
,
0000
0000
0000
0000
,
0000
0000
0000
0000
,
1000
0000
0001
0000
1000
0000
0001
0010
0000
0000
0000
0000
0001
0000
0000
1000
,
0000
0000
0001
0000
1000
0000
0000
0000
0010
0000
0100
0000
0001
0000
0000
0100
,
0000
0001
0010
0000
0001
0000
0000
0000
,
1000
0000
0001
0000
1000
0000
0000
0000
0010
0000
0100
0000
0001
0000
0000
1000
,
0000
0000
0001
0000
0100
0000
0000
0000
0010
0000
0000
0000
0100
0000
0000
0010
,
0000
0000
1000
0000
0001
0000
0000
0000
0100
0000
0000
0000
0001
0000
0000
0010
,
0000
0001
0010
0000
0100
0000
0000
0000
,
1000
0000
0001
0000
1000
0000
0000
0000
0001
0000
0100
0000
0001
0000
0000
0010
,
0000
0000
0001
0000
1000
0000
0000
0000
0010
0000
0000
0000
1000
0000
0000
0001
,
0000
0000
1001
0000
0000
0010
0000
0000
0100
0000
0010
0000
1000
0000
0000
0001
,
0000
0100
0010
0000
0100
0000
0000
0001
,
0000
0000
1000
0000
0000
0000
0000
0000
0001
0000
0010
0000
0100
0000
0000
0010
,
0000
0000
0100
0000
1000
0000
0000
0000
1001
0000
0000
0000
1000
0000
0000
0001
,
0000
0000
1000
0000
0000
0100
0000
0000
0010
0000
0100
0000
1000
0000
0000
0010
,
0000
1000
0001
0000
1000
0000
1001
0000
,
1001
0000
1001
0000
0001
1000
0010
0100
,
0010
0000
0000
0000
0100
0000
0000
0000
0001
0000
0000
0000
0000
0000
0000
0000
1001
0000
0000
0000
0000
0000
0000
0000
0100
0000
0000
0010
0000
0000
0100
0000
,
0010
0000
0000
0000
0010
0000
0000
0000
1000
0000
0000
0001
0000
0000
1000
0000
0001
0000
0000
0000
1000
0000
0000
0000
0010
0000
0000
0100
0000
0000
0010
0000
,
0100
0000
0000
0000
0010
0000
0000
0000
1000
0000
0000
0001
0000
0000
1000
0000
0001
0000
0000
0000
1000
0000
0000
0000
0010
0000
0000
0100
0000
0000
0010
0000
,
0100
0000
0000
0000
0010
0000
0000
0000
1000
0000
0000
0001
0000
0000
1000
0000
0001
0000
0000
0000
1000
0000
0000
0000
0001
0000
1000
0000
0001
0000
1000
0000
,
0001
0000
1000
0000
0001
0000
1000
0000
0100
0000
1000
0000
0100
0000
1000
0000
0100
0000
0000
0010
1000
0000
0000
0000
1000
0000
0000
0000
0000
0000
0000
0000
,
1100
0001
1001
0010
,
0011
0100
0110
1000
,
1010
0001
1001
0100
,
0101
0010
0110
1000
,
0110
0001
1001
0100
,
1001
0000
0000
0000
0010
0000
0000
0000
0110
0000
0000
0000
2002
3003
0000
0000
,
1001
0000
1000
0010
1000
0010
1000
0010
,
0100
0001
0100
0001
1000
0000
0001
0000
,
1001
0000
1000
0100
1000
0100
1000
0100
,
0010
0001
0010
0001
0100
0000
0010
0000
,
0110
0000
1000
0001
1000
0001
1000
0001
,
0100
0010
0100
0010
1000
0000
0001
0000
,
0110
0000
0010
0100
0010
0100
0010
0100
,
0001
0000
1000
0000
0001
0000
1000
0000
0001
0000
0000
0100
0010
0000
0000
0000
,
0000
1000
0100
1000
0000
0010
0000
1000
,
0100
0010
0100
0010
0001
0000
1000
0000
,
0000
1000
0010
1000
0000
0100
0000
1000
,
0100
0010
0100
1000
0001
0000
0010
0100
,
0000
1000
0010
1000
0000
0001
0000
0100
,
0010
1000
0010
1000
0100
0000
0010
0000
,
0000
0001
1000
0010
0100
0001
1000
0010
,
0100
0000
0001
0000
1000
0000
0001
0000
0100
0000
0000
0010
0100
0000
0000
0000
,
0001
0001
0100
0010
,
1000
0001
0010
0010
,
0001
0100
0010
1000
,
0100
1000
0001
1000
,
0001
0000
0000
1000
0000
0000
0001
0000
0100
0000
0000
0000
0010
0000
0000
0000
,
1000
0000
0000
0100
0000
0000
1000
0000
0010
0000
0000
0000
0100
0000
0000
0000
,
0001
0000
1000
0001
1000
0000
0010
0000
,
1000
0000
0000
0001
0000
0000
1000
0000
0100
0000
0000
0000
0010
0000
0000
0000
,
1001
0000
0000
0000
;

//---------------dance-single - ----------------
#NOTES:
     dance-single:
     :
     Easy:
     4:
     0.286465,0.377586,0.093863,0.110929,0.004267,235.000000,224.000000,11.000000,13.000000,0.000000,0.000000,0.286465,0.377586,0.093863,0.110929,0.004267,235.000000,224.000000,11.000000,13.000000,0.000000,0.000000:
0000
0000
0000
0000
,
0000
0000
0000
0000
,
0000
0000
0000
0000
,
0000
0000
0000
0000
,
0000
0000
0000
0000
,
0000
0000
0000
0000
,
0000
0000
0000
0000
,
0000
0000
0000
0000
,
1000
0001
1000
0000
0001
0000
1000
0000
,
0001
0000
1000
0000
0010
0100
0001
0000
,
1000
0010
1000
0000
,
0001
1000
0000
0000
0010
0100
0001
0000
,
1000
0100
0010
0100
,
0010
0001
1000
0001
,
0100
0010
0100
0000
0010
0000
0000
0000
,
1000
0001
0000
0000
1000
0100
1000
0000
,
0010
0000
0000
0000
1000
0000
0000
0000
0010
0000
0000
0000
1000
0000
0000
0001
,
0000
1001
0000
0000
0100
0010
1000
0000
,
0001
0000
0100
0000
0010
0000
0000
1000
,
0000
0001
0000
0000
1000
0010
0200
0000
,
0000
0301
1001
1000
,
0001
0000
1000
0000
0010
0100
0001
0000
,
1000
0010
0100
0001
,
1001
1000
0001
0220
,
0000
0330
0001
0000
1001
0000
0200
0000
,
0000
0320
0000
2030
,
0000
3002
0000
0203
,
0000
0302
0000
2003
,
0000
3020
0000
1030
,
1000
0001
0001
0010
,
0010
0100
0100
1000
,
1000
0001
0001
0100
,
0100
0010
0010
1000
,
0010
1000
0001
0100
,
0001
0000
0000
0000
0010
0000
0000
0000
0100
0000
0000
0000
2002
3003
0000
0000
,
1001
0000
1000
0010
1000
0010
1000
0000
,
0001
0100
0001
0100
0001
0000
1000
0000
,
1001
0000
1000
0100
1000
0100
1000
0000
,
0001
0010
0001
0010
0001
0000
0100
0000
,
0110
0000
1000
0001
1000
0001
1000
0000
,
0010
0100
0010
0100
0001
0000
1000
0000
,
0110
0000
0010
0100
0010
0100
0010
0000
,
1000
0001
1000
0001
1000
0000
0010
0000
,
0000
1000
0100
1000
0000
0010
0000
1000
,
0100
0010
0001
1000
,
0000
1000
0010
1000
0000
0100
0000
1000
,
0010
0000
1000
0000
0001
0000
0010
0100
,
0000
1000
0010
1000
0000
0001
0000
0100
,
0010
1000
0100
0010
,
0000
0001
1000
0001
0000
1000
0001
1000
,
0010
0100
0010
0000
0100
0010
0100
0000
,
0001
1000
0100
0010
,
0001
1000
0010
0010
,
1000
0100
0010
0001
,
0100
0001
1000
0001
,
0001
1000
0100
0010
,
0001
1000
0010
0100
,
0001
1000
0001
0010
,
1000
0010
0100
0010
,
1001
0000
0000
0000
;

//---------------dance-single - ----------------
#NOTES:
     dance-single:
     :
     Beginner:
     2:
     0.177974,0.276896,0.042665,0.051198,0.000000,146.000000,141.000000,5.000000,6.000000,0.000000,0.000000,0.177974,0.276896,0.042665,0.051198,0.000000,146.000000,141.000000,5.000000,6.000000,0.000000,0.000000:
// measure 0
0000
0000
0000
0000
,  // measure 1
0000
0000
0000
0000
,  // measure 2
0000
0000
0000
0000
,  // measure 3
0000
0000
0000
0000
,  // measure 4
0000
0000
0000
0000
,  // measure 5
0000
0000
0000
0000
,  // measure 6
0000
0000
0000
0000
,  // measure 7
0000
0000
0000
0000
,  // measure 8
1000
0001
0000
1000
,  // measure 9
1000
1000
0000
0001
,  // measure 10
0001
0001
0000
0100
,  // measure 11
0100
0100
0000
0010
,  // measure 12
0010
0010
0000
0100
,  // measure 13
0100
0100
0000
0001
,  // measure 14
0001
0001
0000
1000
,  // measure 15
1000
1000
0000
0010
,  // measure 16
0010
0010
0000
2000
,  // measure 17
0000
3001
0000
0000
0000
0000
1000
0000
,  // measure 18
1000
0000
1000
0000
0000
0000
0000
1000
,  // measure 19
0000
1000
0000
0000
0000
0000
0200
0000
,  // measure 20
0000
0310
0000
1000
,  // measure 21
1000
1000
0000
0001
,  // measure 22
0001
0001
0000
0100
,  // measure 23
0100
0010
0010
0220
,  // measure 24
0000
0330
0000
0000
1001
0000
0100
0000
,  // measure 25
0000
0010
0000
1000
,  // measure 26
0000
0001
0000
0100
,  // measure 27
0000
0001
0000
1000
,  // measure 28
0000
0010
0000
1000
,  // measure 29
0000
0001
0000
0010
,  // measure 30
0000
0100
0000
1000
,  // measure 31
0000
0001
0000
0100
,  // measure 32
0000
0010
0000
1000
,  // measure 33
0000
0010
0000
0100
,  // measure 34
0000
0000
0000
0000
0001
0000
0000
0000
0000
0000
0000
0000
2002
3003
0000
0000
,  // measure 35
1001
1000
1000
1000
,  // measure 36
0001
0001
0001
0001
,  // measure 37
0100
0100
0100
0100
,  // measure 38
0010
0010
0010
0010
,  // measure 39
1000
1000
1000
1000
,  // measure 40
0010
0010
0010
0010
,  // measure 41
0100
0100
0100
0100
,  // measure 42
0001
0001
0001
0001
,  // measure 43
1000
1000
0010
0000
,  // measure 44
0100
0100
0001
0000
,  // measure 45
1000
1000
0100
0000
,  // measure 46
0010
0010
0001
0000
,  // measure 47
1000
1000
0001
0000
,  // measure 48
0100
0100
0010
0000
,  // measure 49
1000
1000
0100
0000
,  // measure 50
0010
0010
0001
0000
,  // measure 51
1000
0000
0010
0000
,  // measure 52
0100
0000
0010
0000
,  // measure 53
1000
0000
0010
0000
,  // measure 54
0100
0000
0001
0000
,  // measure 55
0001
0000
0100
0000
,  // measure 56
0001
0000
0010
0000
,  // measure 57
0001
0000
0100
0000
,  // measure 58
0010
0000
1000
0000
,  // measure 59
1001
0000
0000
0000
;
