#TITLE:The Trooper;
#SUBTITLE:;
#ARTIST:MICappella;
#TITLETRANSLIT:;
#SUBTITLETRANSLIT:;
#ARTISTTRANSLIT:;
#CREDIT:;
#BANNER:;
#BACKGROUND:;
#LYRICSPATH:;
#CDTITLE:;
#MUSIC:The Trooper.ogg;
#OFFSET:0.000;
#SAMPLESTART:62.645;
#SAMPLELENGTH:12.694;
#SELECTABLE:YES;
#BPMS:0.000=76.500,3.000=153.000,5.000=76.500,8.000=153.000,10.000=76.500,13.000=153.000,56.000=76.500,58.500=153.000,60.000=76.500,63.000=153.000,64.500=76.500,67.500=153.000,69.000=76.500,71.000=153.000,314.000=76.500;
#STOPS:62.750=0.196
,67.250=0.196
,69.500=0.588
;
#BGCHANGES:;

//---------------dance-single - ----------------
#NOTES:
     dance-single:
     :
     Medium:
     6:
     0.460,0.525,0.157,0.447,0.029:
0000
0000
0000
0000
0000
0000
1000
0001
,
1000
0001
0000
1000
0010
0100
0001
1000
,
0001
0100
0010
1000
0000
0001
0100
0010
,
1000
0100
0001
0100
1000
0100
0000
0000
,
0001
0000
1000
0100
1000
0000
0001
0010
,
0001
0000
1000
0010
1000
0010
0000
0000
,
1000
0001
1000
0000
0001
0100
0001
0000
,
1000
0010
1000
0000
0001
1000
0001
1000
,
0000
0100
0010
0100
,
0010
0000
0001
0100
0010
1000
0000
0000
,
0001
0001
1000
1000
,
0001
0000
0100
0010
0100
0010
0000
0000
,
1000
0001
0100
0010
,
1000
0000
1000
0001
1000
0002
0000
0003
,
1000
0100
0010
0001
0010
0100
1000
0010
,
0100
0000
0001
0100
0000
0001
0100
0000
0010
0000
1000
0000
0001
0000
0010
0000
,
0100
1000
0001
1000
0010
0100
0001
0010
,
0100
1000
0100
1000
0100
0010
0001
0000
,
1000
0100
0010
0001
0010
0000
0010
0000
,
0100
0100
1000
1000
,
0001
0100
0010
1000
0000
0000
0001
0000
,
0100
0010
1000
0100
,
0010
0001
0010
0100
0000
0000
0010
0000
,
0001
0100
0010
1000
,
0100
0010
0001
0010
0100
0000
1000
0000
,
0010
0100
0001
0100
,
0010
0000
0000
2000
0000
3000
0020
0000
,
0230
0302
0203
0320
,
2030
0000
0001
3001
0000
0000
1000
0000
,
0001
0100
0010
1000
,
0100
0000
0000
2001
0000
0000
3020
0000
,
0230
0302
0203
2300
,
3100
0000
0000
0011
0000
0000
0001
0000
,
0001
1000
1000
0010
,
0010
0000
0000
2002
0000
0000
0000
3003
,
0202
0000
0000
0303
0020
0230
0302
0203
,
0000
0320
2030
0020
0000
0000
3030
0000
,
1000
0100
1000
0100
1000
0100
1000
0000
0000
1000
0000
0000
,
1001
0100
0101
0100
,
0002
0000
2003
3001
,
1000
0010
0100
0001
,
0100
0010
1000
0100
,
0010
0000
0001
0000
0000
2002
0000
3003
,
0000
0220
0000
0330
0000
0202
0000
0303
,
0000
0202
0000
0303
0000
0002
0000
0000
,
2000
0003
0000
0000
0000
0000
0000
0000
3200
0000
0000
0000
0000
0000
0000
0000
,
2300
0000
0000
0000
0000
0000
3000
0000
1000
0000
0000
0220
0000
0330
0000
0000
,
1000
0001
0100
0010
,
1000
0100
0010
0001
,
0100
0010
1000
0100
,
0010
0001
2002
0000
,
0000
3003
0102
0000
,
0000
1003
2002
3003
,
0102
1000
0103
0101
,
0010
1000
0010
0000
2200
0000
0300
0000
,
0001
0001
3002
0000
,
0020
0033
2200
3300
,
0002
0100
1003
0010
,
0100
0000
0001
0000
1000
0001
1000
0001
,
1000
0001
1000
0001
1000
0001
1000
0001
,
1000
0001
1000
0001
0000
0000
0100
0010
,
0100
0000
1000
0001
1000
0000
0001
0000
,
0100
0010
0100
0010
0000
0000
0001
0000
,
1000
0010
0100
0001
,
1000
0010
0100
0001
0000
0000
1000
0000
,
1000
0010
0010
0010
,
0010
0000
0000
1001
0000
0000
1000
1000
,
0000
0000
0001
0001
0000
0000
0100
0100
,
0010
1000
0010
1000
0000
0000
0010
0010
,
0000
0000
0100
0100
0000
0000
0001
0001
,
1000
0001
0100
0010
0000
0000
0000
0000
;

//---------------dance-single - ----------------
#NOTES:
     dance-single:
     :
     Hard:
     8:
     0.564,0.702,0.240,0.348,0.228:
0000
0000
0000
0000
0000
0000
1000
0001
,
1000
0001
0000
0000
0000
0000
0000
0000
,
0100
0010
0100
0010
0000
0000
0000
0000
,
0000
0000
1000
0001
1000
0001
0000
1000
,
0100
0010
0100
0010
0001
0100
0001
0100
,
0010
1000
0100
0010
0001
0100
0000
0010
,
1000
1000
0100
0010
0001
0001
0100
0010
,
1000
1000
0001
0100
0010
1010
0000
1000
,
0001
0001
0100
0010
1000
1000
0100
0010
,
0001
0100
0010
1000
0001
1001
0000
1000
,
0010
0010
0100
0001
0100
0100
0010
1000
,
0100
0010
0001
0100
0010
1010
0000
1000
,
0001
0001
0100
0010
1000
1000
0100
0010
,
0001
0100
0010
1000
0001
0100
0000
0000
,
1000
0001
1000
0000
0010
0100
0010
0100
0010
0000
1000
0000
0100
0000
0010
0000
,
0001
0000
0100
0010
0000
0010
1000
0100
0010
0001
0010
0001
0010
0000
0100
0000
,
0010
0000
0100
0000
0010
0001
0010
0100
0010
0001
0100
0010
0001
0010
0100
0000
,
0001
0000
0010
0000
0100
0000
0100
0000
0010
0001
0100
0010
1000
0000
0000
0000
,
0001
0000
0100
0000
0010
0000
1010
0000
0000
0000
0000
1000
0100
0000
0000
0100
,
0010
0000
0000
0010
0001
0000
0000
0001
0100
0000
0000
0100
0010
0000
0000
0010
,
1000
0000
0001
0000
0100
0000
0110
0000
0000
0000
0000
0010
1000
0000
0000
1000
,
0100
0000
0000
0100
0010
0000
0000
0010
0001
0000
0000
0001
0100
0000
0000
0100
,
0010
0000
1000
0000
0010
0000
0100
0000
0000
0000
0000
0100
0001
0000
0000
0100
,
0001
0000
0000
1000
0100
0000
0000
1000
0001
0000
0000
0100
0010
0000
0000
0100
,
0010
0000
1000
0000
0010
0000
0110
0000
0000
0000
0000
1000
0001
0000
0000
0001
,
0100
0000
0000
0100
0010
0000
0000
0010
1000
0000
0000
1000
0100
0000
0000
0100
,
0010
0001
0010
0012
0000
0000
0100
0000
,
0023
0100
0032
1000
,
0100
0000
0010
0013
0000
0000
1000
0000
,
0010
0100
0001
1000
,
1000
0010
0100
0102
0000
0000
1000
0000
,
0203
0010
0001
0010
,
1000
0000
0010
0310
0000
0000
1000
0000
,
0001
0100
0110
1100
,
1000
0010
0100
0220
0000
0000
0330
0000
,
0202
0000
0000
0303
0001
0100
1000
0200
,
0000
0000
0001
0302
0000
0000
0000
0000
,
1003
0100
1000
0001
0010
0100
1000
0000
0000
0001
0000
0000
,
1001
0010
2000
0000
,
3002
0000
0203
0310
,
1000
0001
0100
0010
,
1000
0000
0000
0000
0000
0000
0100
0000
0000
0000
0000
0000
0010
0000
0000
0001
0000
0000
1000
0000
0001
0000
1000
0000
,
0001
1000
0001
1000
0001
0020
0000
0000
,
0000
0230
0000
0000
0000
2300
0000
0000
,
0000
0000
0000
3002
0000
0000
0000
0000
0000
0000
0000
0000
0000
0000
0000
0003
2000
0000
0000
0000
3200
0000
0000
0000
,
0302
0000
0203
0000
0320
0000
2030
0000
3020
0000
0230
0000
,
0302
0000
0023
0000
0130
0000
0220
0000
0000
0000
0000
0000
,
0330
1000
0001
0100
,
0010
0000
1000
0000
0100
0010
0100
1000
,
0100
0010
0001
0100
0010
1000
0100
0010
,
0001
1000
0001
1000
0001
0000
0100
0000
0020
0000
0000
0000
0000
0000
0000
0000
,
0000
2030
0000
0000
,
3000
0001
0002
0000
,
2003
3020
0230
0301
,
0100
0010
0110
0000
2000
0000
0010
0000
,
3020
0230
0302
1000
,
0103
0110
0020
1000
,
0230
0000
0301
0000
1000
0100
1000
0001
,
0100
0010
1000
0100
0110
0000
0010
0010
,
0001
0000
0100
0100
0010
0001
1000
0100
,
0010
0001
1000
1100
0000
0000
0010
0010
,
0001
0000
0100
0100
0010
1000
0100
0010
,
0001
0100
0010
1010
0000
0000
1000
1000
,
0100
0000
0010
0010
0001
0100
0010
1000
,
0100
0010
0001
1001
0000
1000
0100
0100
,
0010
0001
0100
0100
0010
1000
0100
0010
,
0001
0100
0010
1010
0000
0000
0000
0000
,
0000
0000
0000
0000
,
0110
0110
0110
0110
0000
0000
1000
0000
,
0001
0100
0010
1000
,
0100
0000
1001
1001
1001
1001
0000
0000
;

//---------------dance-single - Copied from----------------
#NOTES:
     dance-single:
     Copied from:
     Challenge:
     11:
     0.899,0.933,0.812,0.530,0.625:
0000
0000
0000
0000
0000
0000
1001
0101
,
1010
0000
0000
0000
1001
0000
0000
0000
0000
0000
0001
0000
0100
0010
0100
0000
0001
0000
1000
0000
0100
0010
0100
0000
1000
0000
0001
0000
0100
0010
0100
0000
,
0110
0000
0101
0000
1010
0000
1001
0000
0000
0001
1000
1000
0100
0010
0001
0001
,
0010
0100
1000
1000
1001
0000
0101
0000
1010
0000
1001
0000
0000
0000
0001
0000
,
0100
0010
0100
0010
0100
0000
0010
0000
0001
0100
0010
1000
0100
0000
0010
0000
,
0001
0010
0100
1000
0100
0000
1100
0000
1001
0000
0101
0000
0000
0000
0001
0000
,
1000
0100
1000
0100
1000
0000
0010
0000
0100
0001
0100
0001
0100
0000
0010
0000
,
1000
0000
0100
0010
0100
0000
1010
0000
0101
0000
1001
0000
0000
0000
0001
0000
,
1000
0010
0100
0010
1000
0000
0001
0000
0100
0010
0100
0001
0100
0000
0010
0000
,
1000
0010
1010
0101
1001
0110
0000
1000
,
0100
0010
0100
0010
0100
0000
0010
0000
0001
1000
0001
1000
0001
0000
1000
0000
,
0100
1000
0100
0000
1000
0000
1001
0000
0101
0000
1010
0000
0000
0000
1000
0000
,
0100
1000
0100
0000
0010
0000
0010
0000
0001
1000
0001
0000
1000
0000
1000
0000
,
1001
0000
0101
1010
0110
2002
0000
3003
,
1000
0001
0100
0000
0100
0010
1000
0100
0010
0000
0011
0000
1001
0000
1010
0000
,
0110
0000
0100
0001
0000
0001
0100
0010
1000
0100
0010
0001
0101
0000
0110
0000
,
1010
0000
1001
0000
0001
0001
1000
1000
0010
0100
0001
1000
0100
0001
0011
0000
,
0101
0000
1010
0000
1100
0000
1000
0000
1000
0010
0100
0001
1000
0100
1000
0100
,
1000
0000
1001
0000
0101
0000
0110
0000
1000
0000
0001
0100
0010
0000
1000
0010
,
0100
0000
0001
0100
0010
0000
1000
0010
0100
0000
0001
0100
0010
0000
0100
0001
,
0010
0000
1000
0000
0001
0000
1001
0000
0000
0000
1000
0010
1000
0000
0001
0100
,
0001
0000
1000
0100
0010
0000
0001
0010
0100
0000
1000
0010
0100
0000
0001
0100
,
0010
0000
1000
0000
0001
0000
0101
0000
0000
0000
0010
1000
0100
0000
0010
0001
,
0100
0000
0010
1000
0100
0000
0010
0001
1000
0000
0100
0010
0100
0000
1000
0000
,
0010
0000
0100
0000
0001
0000
0101
0000
0000
0000
1000
0001
1000
0000
0001
0100
,
0001
0000
0100
0010
0100
0000
0001
0100
0001
0000
1000
0010
1000
0000
0100
0010
,
0100
0000
0010
0000
0001
0000
2002
0000
3003
0000
1000
0010
2000
0000
3010
0100
,
0020
0000
0130
0001
0200
0000
0310
1000
0020
0000
0130
0001
2000
0000
3100
0000
,
1100
0000
1000
0000
0010
0000
0110
0000
0000
0000
0100
0001
0100
0000
0010
1000
,
0010
0000
1000
0100
1000
0000
0001
0100
0010
0000
1000
0010
0100
0000
0001
0100
,
0010
1000
0001
2001
0000
0000
3020
0000
,
0230
0302
0203
2300
,
3100
0000
0001
0000
0010
0000
0011
0000
0000
0000
0010
0001
1000
0000
1000
0001
,
0100
0000
0100
0010
1000
0000
0001
0100
0010
1000
0010
1000
0001
0100
0010
0100
,
0101
1010
0101
2002
0000
0000
0000
3003
,
0202
0000
0000
0303
1020
0230
0302
0203
,
0000
0320
2030
0020
0000
0000
3030
0000
,
1000
0000
0100
0000
0010
0000
0001
0000
0100
0000
0010
0000
1000
0000
0000
0100
0000
0000
1000
0000
0000
0001
1000
0001
,
1000
0010
0100
0000
0101
0010
0100
0000
,
0002
0000
0000
0000
0000
0000
0000
0000
2003
0000
0000
0000
3001
0000
0100
0010
,
0100
0000
0100
0001
0100
0000
0100
0010
0100
0000
0010
1000
0010
0000
1000
0010
,
1000
0000
0001
0100
0001
0000
1000
0010
1000
0000
0001
0100
0001
0000
1000
0010
,
1000
0100
0010
0001
1001
2002
0000
3003
,
0000
0220
0000
0330
0000
0202
0000
0303
,
0000
0000
0202
0000
0000
0000
0303
0000
0000
0000
0002
0000
0000
1000
0000
0000
,
2000
0003
0100
0000
0000
0100
0000
0000
3200
0000
0000
1000
0000
0000
1000
0000
,
2300
0000
0000
0001
0000
0000
3001
0000
2200
0000
3300
2002
0000
3003
0000
0000
,
0000
0000
1000
0001
1000
0000
0010
1000
0010
0000
0100
0001
0100
0000
0010
1000
,
0010
0000
1000
0100
1000
0000
0001
0010
0002
0000
0203
0000
0320
0000
2030
0000
,
3200
0320
0032
0103
0101
0010
1000
1010
,
1000
0001
0100
0010
1000
0000
0001
0000
2002
0000
0000
0000
0000
0000
0000
0000
,
0000
0003
0000
3001
0102
0000
0000
0000
,
0000
0000
1003
0000
2002
0000
0000
3003
,
0102
1000
0103
0101
,
0010
1000
1010
0000
2200
0000
0300
0000
,
0001
0001
3002
0000
,
0020
0033
2200
3300
,
0002
0000
0100
0000
1003
0010
1000
0010
,
0100
0000
0001
0000
0100
0010
1000
0010
1000
0000
0001
0000
1000
0100
1000
0100
,
1000
0000
0001
0000
0100
0010
0100
0010
0100
0000
0001
0000
1000
0000
0010
0000
,
0110
0000
0101
0000
1001
0000
1010
0000
0000
0000
0100
0000
0001
1000
0100
1000
,
0001
0000
1000
0000
0001
1000
0100
0010
0001
0000
0100
0000
0010
0000
0000
0000
,
1010
0000
0110
0000
0101
0000
1001
0000
0000
0000
0001
0000
1000
0100
1000
0100
,
1000
0000
0001
0000
0100
0010
0100
0010
0100
0000
0001
0000
1000
0000
0000
0000
,
1001
0000
1001
0000
0011
0000
1010
0000
0000
0000
1000
0000
0001
0100
0010
0100
,
0001
0000
1000
0000
0010
1000
0010
1000
0010
0000
0100
0000
0001
0100
0001
0100
,
0001
0000
1000
0000
0010
0000
0101
0000
0000
0000
0001
0000
1000
0100
1000
0000
,
0001
0000
0001
0000
0100
0010
0100
0000
0001
0000
1000
0000
0100
0010
0100
0000
,
0110
0000
0101
0000
1010
0000
1001
0000
0000
0000
0001
0000
0100
0010
0100
0000
,
0001
0000
0100
0000
0010
0100
0010
0100
0010
0000
1000
0000
0001
0100
0010
0000
,
0110
1010
0101
1001
0000
0000
0000
0000
;

//---------------dance-single - ----------------
#NOTES:
     dance-single:
     :
     Easy:
     1:
     0.138,0.203,0.017,0.058,0.000: // measure 1
0000
0000
0000
1000
,  // measure 2
0000
0000
0000
0000
,  // measure 3
0010
0000
0000
0000
,  // measure 4
0000
0100
0000
0001
,  // measure 5
0000
1000
0000
0001
,  // measure 6
0000
0100
0000
0000
,  // measure 7
0010
0000
0010
0000
,  // measure 8
0010
0000
0000
0000
,  // measure 9
1000
0000
1000
0000
,  // measure 10
1000
0000
0000
0000
,  // measure 11
0001
0000
0001
0000
,  // measure 12
0001
0000
0000
0000
,  // measure 13
0010
0000
0010
0000
,  // measure 14
0010
0000
0000
0000
,  // measure 15
1000
0000
0000
0000
0000
0001
0000
0000
,  // measure 16
0000
0000
0000
1000
,  // measure 17
0000
0000
0000
0000
0000
0000
0000
0001
,  // measure 18
0000
0000
0000
1000
,  // measure 19
1000
0000
0000
0001
,  // measure 20
0000
0100
0000
0010
,  // measure 21
0000
0000
0000
1000
,  // measure 22
0000
0001
0000
0100
,  // measure 23
0000
0000
0000
0010
,  // measure 24
0010
0010
0100
0100
,  // measure 25
0100
0000
0001
0000
,  // measure 26
1000
0000
0001
0000
,  // measure 27
0000
0000
0000
2000
0000
0000
0000
0000
,  // measure 28
0000
0000
0000
0000
,  // measure 29
0000
0000
0000
0000
0000
3000
0000
0000
,  // measure 30
0000
0000
0000
0000
,  // measure 31
0000
0000
0000
2000
0000
0000
0000
0000
,  // measure 32
0000
0000
0000
0000
,  // measure 33
0000
0000
0000
3000
0000
0000
0001
0000
,  // measure 34
0001
0001
0001
0001
,  // measure 35
0001
0000
0000
2000
0000
3000
0000
0000
,  // measure 36
0002
0003
0200
0300
,  // measure 37
0000
0000
0000
0020
0000
0000
0030
0000
,  // measure 38
1000
0000
0001
0000
,  // measure 39
1000
0000
0001
0000
,  // measure 40
2000
0000
3000
0000
,  // measure 41
0001
0000
0100
0000
,  // measure 42
0010
0000
1000
0000
,  // measure 43
0010
0000
0100
0000
,  // measure 44
0100
0000
0001
0000
,  // measure 45
0100
0000
0010
0000
,  // measure 46
1000
0000
0100
0000
,  // measure 47
0010
0000
0001
0000
,  // measure 48
1000
0000
0010
0000
,  // measure 49
0100
0000
0001
0000
,  // measure 50
1000
0000
0100
0000
,  // measure 51
0100
0000
0010
0000
,  // measure 52
0010
0000
0001
0000
,  // measure 53
1000
0000
0010
0000
,  // measure 54
0100
0000
0001
0000
,  // measure 55
0100
0000
0010
0000
,  // measure 56
1000
0000
1000
0000
,  // measure 57
0001
0000
0010
0000
,  // measure 58
0100
0000
0010
0000
,  // measure 59
1000
0000
0000
0001
,  // measure 60
0000
0001
0000
0001
,  // measure 61
0000
0000
0000
1000
,  // measure 62
0000
1000
0000
1000
,  // measure 63
0000
0000
0000
0010
,  // measure 64
0000
0010
0000
0010
,  // measure 65
0000
0000
0000
0100
,  // measure 66
0000
0100
0000
0100
,  // measure 67
0000
0000
0000
0000
,  // measure 68
0000
0000
0000
0000
,  // measure 69
1001
0000
0000
0000
,  // measure 70
0000
0000
0000
0000
,  // measure 71
0110
0000
0000
0000
;
