#TITLE:TSUBAKI;
#SUBTITLE:;
#ARTIST:Ocelot;
#TITLETRANSLIT:;
#SUBTITLETRANSLIT:;
#ARTISTTRANSLIT:;
#GENRE:;
#CREDIT:;
#BANNER:[ROUND H] - TSUBAKI.png;
#BACKGROUND:[ROUND H] - TSUBAKI-bg.png;
#LYRICSPATH:;
#CDTITLE:;
#MUSIC:[ROUND H] - TSUBAKI.ogg;
#OFFSET:-0.754000;
#SAMPLESTART:29.700001;
#SAMPLELENGTH:9.600000;
#LASTBEATHINT:377.684387;
#SELECTABLE:YES;
#DISPLAYBPM:199.000000:50.000000;
#BPMS:0.000000=199.000000
,92.000000=398.000000
,95.000000=199.000000
,95.500000=99.500000
,127.000000=199.000000
,192.000000=99.500000
,208.000000=199.000000
,240.000000=49.750000
,248.000000=199.000000
,312.000000=99.500000
,343.000000=199.000000
,374.000000=398.000000
,376.000000=199.000000
,377.000000=99.500000
,377.500000=49.750000
;
#STOPS:95.500000=0.301000,
127.000000=0.301000,
343.000000=0.301000,
378.000000=1.000000
;
#BGCHANGES:;
#KEYSOUNDS:;
#ATTACKS:;

//---------------dance-single - ----------------
#NOTES:
     dance-single:
     :
     Beginner:
     3:
     0.212246,0.381179,0.154623,0.141177,0.000000,221.000000,198.000000,23.000000,21.000000,0.000000,0.000000,0.212246,0.381179,0.154623,0.141177,0.000000,221.000000,198.000000,23.000000,21.000000,0.000000,0.000000:
0000
0000
0000
0000
,
0000
0000
0000
0000
,
0000
0000
0000
0000
,
0000
0000
0000
0000
,
0000
0000
0000
0000
,
0000
0000
0000
0000
,
0000
0000
0000
0000
,
0000
0000
0000
0000
,
1000
0000
0100
0000
,
0010
0000
0001
0000
,
0001
0000
0100
0000
,
0010
0000
1000
0000
,
0001
0000
1000
0000
,
0010
0000
0100
0000
,
0001
0000
0100
0000
,
0020
0000
2030
0000
,
3100
0000
0000
0000
,
0100
0000
0000
0000
,
1100
0000
0000
0000
,
1100
0000
0000
0000
,
0101
0000
0000
0000
,
0101
0000
0000
0000
,
0010
0000
0100
0000
,
2002
0000
0000
3003
,
1000
0100
0010
0002
,
1003
0010
0200
0301
,
1000
0002
0103
0010
,
1000
0100
0020
0030
,
1001
1000
0100
0020
,
0031
1000
0020
0130
,
0001
0001
1000
1000
,
0010
0100
0110
1001
,
1000
0000
0100
0000
,
1000
0000
0100
0000
,
0001
0000
0100
0000
,
0001
0000
0100
0000
,
0010
0000
0001
0000
,
0010
0000
0001
0000
,
1000
0000
0010
0000
,
0100
0000
1001
0000
,
0010
0000
0100
0000
,
0001
0001
0001
0000
,
0010
0000
0100
0000
,
1000
1000
1000
0000
,
0001
0000
0110
0000
,
1001
0000
0110
0000
,
1000
0000
0010
0000
,
0100
0000
0001
0000
,
1001
0000
1000
0000
,
0100
0100
0010
0000
,
0110
0000
0001
0000
,
0010
0010
0100
0000
,
1000
0000
0010
0000
,
0100
0000
0010
0000
,
0100
0000
0001
0000
,
1000
0000
0001
0000
,
0010
0000
0100
0000
,
0010
0000
0001
0000
,
1000
0000
0100
0000
,
1000
0000
0010
0000
,
0210
0010
0010
0310
,
0002
1000
1000
1003
,
1000
0000
0010
0000
,
1000
0000
0010
0000
,
0100
0000
0001
0000
,
0100
0000
0001
0000
,
0010
0000
0001
0000
,
0010
0000
0001
0000
,
1000
0000
0100
0000
,
1000
0000
0100
0000
,
1000
0000
0001
0000
,
0100
0000
0010
0000
,
1000
0000
0001
0000
,
0010
0000
0100
0000
,
1000
0000
1001
0000
,
0001
0000
1001
0000
,
0100
0000
0010
0000
,
1002
0000
0023
0000
,
0031
0010
0100
2000
,
3001
0100
0020
1030
,
0001
2000
3010
0100
,
0001
0010
0200
0300
,
1001
0001
0010
0200
,
1300
0000
0001
0110
,
0100
0100
0010
0010
,
1000
0001
1001
0110
,
0100
0000
0000
0001
,
0000
0000
1000
0000
,
0100
0000
0000
1000
,
0000
0000
0001
0000
,
0010
0000
0000
0001
,
0000
0000
1000
0000
,
0010
0000
0000
0100
,
0000
0000
2002
0000
,
0000
0000
3003
0000
;

//---------------dance-single - ----------------
#NOTES:
     dance-single:
     :
     Easy:
     5:
     0.354384,0.476474,0.174791,0.215128,0.000000,369.000000,343.000000,26.000000,32.000000,0.000000,0.000000,0.354384,0.476474,0.174791,0.215128,0.000000,369.000000,343.000000,26.000000,32.000000,0.000000,0.000000:
0000
0000
0000
0000
,
0000
0000
0000
0000
,
0000
0000
0000
0000
,
0000
0000
0000
0000
,
0000
0000
0000
0000
,
0000
0000
0000
0000
,
0000
0000
0000
0000
,
0000
0000
0000
0000
,
1000
0000
0000
1000
0000
0000
0000
0000
,
0001
0000
0000
0001
0000
0000
0000
0000
,
0100
0000
0000
0100
0000
0000
0000
0000
,
0010
0000
0110
0000
,
1000
0000
0000
1000
0000
0000
0000
0000
,
0100
0000
0000
0100
0000
0000
0000
0000
,
0010
0000
0000
0010
0000
0000
0000
0000
,
0001
0000
1001
0000
,
1000
0000
0000
1000
0000
0000
0000
0000
,
0001
0000
0000
0001
0000
0000
0000
0000
,
1000
0000
0000
1000
0000
0000
0000
0000
,
0001
0000
0000
0001
0000
0000
0000
0000
,
0010
0100
1000
0001
,
0100
0010
1000
0001
,
0010
0001
1000
0010
,
0200
0000
0000
0000
0000
0000
0000
0300
,
0001
0000
1000
0100
1000
0010
1000
0000
,
0100
1000
0010
0100
0001
0000
1001
0000
,
1000
0000
0002
0000
0103
0010
0100
0001
,
0200
0000
0310
0000
1000
0010
0100
0001
,
1000
0000
0001
0100
0001
0010
0001
0000
,
1000
0100
0010
0001
2000
3000
0002
0003
,
0010
0100
0010
0000
0001
0100
0010
0000
,
0110
1001
1100
0101
,
0100
0010
1000
0100
,
0010
0001
1001
1001
,
0001
0010
0100
1000
,
0010
0100
0110
0110
,
0100
0001
1000
0100
,
0010
0001
1000
0010
,
0100
0010
0100
0010
,
2000
3020
0230
0302
,
0013
0100
1000
0010
,
0100
0001
1001
1001
,
0001
0100
0010
1000
,
0010
0100
0110
0110
,
0001
0100
1000
0100
,
0001
0010
1000
0010
,
0200
0300
0020
0030
,
0110
0011
1010
0000
,
0100
0000
0010
0000
1000
0001
1000
0000
,
0100
0010
0001
0010
0100
0000
1000
0010
,
0100
0000
0010
1000
0001
1000
0001
0000
,
0100
0010
1000
0010
0100
0000
0001
0000
,
1000
0100
0010
0100
,
1000
0100
1000
0000
,
0001
0100
0010
0100
,
0001
0100
0001
0000
,
0010
0100
0010
0001
,
1000
0001
0100
0010
,
0100
0001
0010
0100
,
1000
0000
0010
0000
,
0200
0000
0010
0000
0010
0000
0010
0300
,
0002
0000
1000
0000
1000
0000
1000
0003
,
1000
0010
1000
0010
,
1000
0010
0100
0100
,
0001
0010
0001
0010
,
0001
0010
0100
0100
,
1000
0100
1000
0100
,
1000
0100
0010
0010
,
0001
0100
0001
0100
,
0001
0010
0010
0010
,
0001
0010
0100
1000
,
0002
2003
3002
2003
,
3001
0100
0010
1000
,
0002
2003
3002
2003
,
3010
0100
0001
1000
,
0200
0320
0230
0320
,
0031
0010
0100
1000
,
0001
1000
1001
1001
,
1000
0000
0001
0010
0001
0100
0001
0000
,
0010
0001
0100
0010
1000
0000
1001
0000
,
0001
0000
2000
0000
3010
0100
0010
1000
,
0020
0000
0130
0000
0001
0100
0010
1000
,
0001
0000
1000
0010
1000
0100
1000
0000
,
0002
0000
0000
1003
0002
0003
2000
3000
,
0100
0010
0100
0000
1000
0010
0100
0000
,
0110
1001
0011
1010
,
1000
0100
1000
0001
,
0100
0001
0100
0010
,
1000
0010
1000
0001
,
0010
0001
0010
0100
,
1000
0100
0010
0001
,
0010
0100
1000
0001
,
1000
0010
0100
0001
,
0100
0010
2002
0000
,
0000
0000
3003
0000
;

//---------------dance-single - ----------------
#NOTES:
     dance-single:
     :
     Medium:
     8:
     0.498443,0.794123,0.134455,0.161346,0.282355,519.000000,499.000000,20.000000,24.000000,0.000000,0.000000,0.498443,0.794123,0.134455,0.161346,0.282355,519.000000,499.000000,20.000000,24.000000,0.000000,0.000000:
0000
0000
0000
0000
,
0000
0000
0000
0000
,
0000
0000
0000
0000
,
0000
0000
0000
0000
,
0000
0000
0000
0000
,
0000
0000
0000
0000
,
0000
0000
0000
0000
,
0000
0000
0000
0000
,
1000
0000
0000
0100
0000
0000
1000
0000
,
0001
0000
0000
0100
0000
0000
0001
0000
,
0010
0000
0000
0001
0000
0000
0010
0000
,
0100
0000
0000
1000
0000
0000
0100
0000
,
1000
0000
0100
0010
,
0001
0100
0001
0000
1000
0000
0100
0000
,
0010
0001
1000
0100
,
2000
0000
3002
0000
,
0103
0001
0010
0001
,
0100
0001
0010
0010
,
0100
1000
0010
1000
,
0100
1000
0010
0010
,
1000
0100
0001
0100
,
1000
0010
0001
0010
,
1000
0100
0010
0001
,
2002
0000
0000
0000
0000
0000
0000
3003
,
0100
0000
0000
0000
0010
1000
0010
1000
0001
0000
0010
0000
0100
0000
1000
0000
,
0001
0000
0100
0000
1000
0000
0100
0000
0001
0000
0000
0001
0010
0000
0100
0000
,
1000
0000
0000
0000
0001
0100
0001
0100
0001
0000
1000
0000
0001
0100
0001
1000
,
0010
1000
0001
0000
1000
0000
0100
0000
1000
0010
0100
0010
1000
0010
0100
0010
,
1000
0000
0000
0000
0100
1000
0010
0100
0001
0000
1000
0000
0100
0000
0010
0000
,
0001
0000
0100
0000
0010
0000
0100
0000
0001
1000
0001
1000
0001
0010
0100
0000
,
1000
0100
0010
0101
0010
1100
0001
1000
,
0010
0000
0000
1000
0001
0010
0100
0010
0002
0000
2003
0000
3100
0000
0000
0000
,
1000
0000
0010
0000
0100
0001
0100
0000
,
0001
1000
0001
0000
1000
0000
0010
0000
,
0001
0000
0010
0000
1000
0100
1000
0000
,
0001
0000
0000
0001
0010
0000
0120
0000
,
0031
0000
0010
0000
0100
1000
0100
0000
,
1000
0001
1000
0000
0100
0010
0001
0010
,
0001
1000
0100
0000
1000
0000
0001
0000
,
0100
0010
0100
0010
1000
0001
1000
0001
,
0100
0000
0001
0000
0100
0001
0010
0000
,
0001
1000
0010
0000
1000
0000
0100
0000
,
1000
0000
0010
0000
0100
0010
1000
0000
,
0001
1000
0100
0000
0010
0000
0100
0000
,
0010
0000
0001
0000
1000
0001
0100
0000
,
0001
1000
0010
0000
0100
0000
0010
0000
,
1000
0000
0000
0010
1000
0010
0100
0010
,
0001
1000
0200
0000
,
0301
0000
1000
0100
1000
0010
0100
0001
,
0010
0001
0100
0010
1000
0000
1000
0010
,
1000
0000
0000
0000
0001
0000
0010
0000
0001
0010
0100
0000
1000
0000
0010
0000
,
0100
0010
1000
0001
0100
0000
0010
1000
,
0100
1000
0010
0100
,
0001
0010
1000
0010
,
0001
0100
1000
0100
,
0001
0000
0011
0110
,
1100
0000
0100
0010
,
0010
0001
1000
0000
0001
0000
0100
0000
,
0010
1000
0001
0100
,
0020
0000
0230
0000
,
0302
0000
0000
0010
0010
0000
0000
0010
0010
0000
0000
0010
0010
0000
0000
0000
,
2003
0000
0000
0100
0100
0000
0000
0100
0100
0000
0000
0100
0100
0000
3000
0000
,
0100
0000
0100
1000
0000
1000
0100
0000
0100
1000
0000
1000
,
0010
0000
0010
0100
0000
0100
0010
0000
0010
0100
0000
0000
,
0100
0000
0100
0001
0000
0001
0100
0000
0100
0001
0000
0001
,
0010
0000
0010
0100
0000
0100
0010
0000
0010
0100
0000
0000
,
1000
0000
1000
0100
0000
0100
0010
0000
0010
0100
0000
0100
,
1000
0000
1000
0010
0000
0010
0100
0000
0000
0110
0000
0000
,
0001
0000
0001
0100
0000
0100
0010
0000
0010
0100
0000
0100
,
0001
0000
0001
0010
0000
0100
1000
0000
0000
1001
0000
0000
,
1000
0000
0000
0100
0000
1000
0010
0000
0000
0100
0000
0000
,
0001
0000
0000
0100
0000
0001
0010
0000
0000
0100
0000
0000
,
0010
0000
0000
0001
0000
1000
0100
0000
0000
1000
0000
0000
,
0010
0000
0000
1000
0000
0001
0100
0000
0000
0001
0000
0000
,
1000
0000
0000
0100
0000
0001
0100
0000
0000
1000
0000
0000
,
0001
0000
0000
0010
0000
1000
0010
0000
0000
0001
0000
0000
,
1000
0000
0000
0010
0000
0100
0001
0000
0000
0010
0000
0100
,
1000
0000
0001
0100
0000
0010
1000
0000
0000
1001
0000
0000
,
0010
0000
0000
0000
0100
0001
0100
0001
1000
0000
0100
0000
0010
0000
0001
0000
,
1000
0000
0010
0000
0001
0000
0010
0000
1000
0000
0000
1000
0100
0000
0010
0000
,
0001
0000
0000
0000
1000
0010
1000
0010
1000
0000
0001
0000
1000
0010
1000
0001
,
0100
0001
1000
0000
0001
0000
0010
0000
0001
0100
0010
0100
0001
0100
0010
0100
,
0001
0000
0000
0000
0010
0001
0100
0010
1000
0000
0001
0000
0010
0000
0100
0000
,
1000
0000
0000
0010
0000
0000
0100
0000
0001
0010
0000
0100
1000
0100
0010
0000
,
0001
0010
0100
1010
0100
0011
1000
0001
,
0100
0000
0000
0001
1000
0100
0010
0100
2000
0000
3002
0000
0013
0000
0000
0000
,
0001
0000
0001
0100
0000
0100
0001
0000
,
0001
1000
0000
1000
0100
0000
0110
0000
,
1000
0000
1000
0100
0000
0100
1000
0000
,
1000
0001
0000
0001
0010
0000
0110
0000
,
0010
0000
0010
0001
0000
0001
0100
0000
,
0100
0010
0000
0010
1000
0000
1001
0000
,
0220
0000
0330
2020
0000
3030
2002
0000
,
3003
0022
0000
0033
0220
0000
0000
0000
,
0000
0000
0330
0000
;

//---------------dance-single - ----------------
#NOTES:
     dance-single:
     :
     Hard:
     10:
     0.662670,1.048242,0.389919,0.295800,0.497482,690.000000,632.000000,58.000000,44.000000,0.000000,0.000000,0.662670,1.048242,0.389919,0.295800,0.497482,690.000000,632.000000,58.000000,44.000000,0.000000,0.000000:
// measure 0
0000
0000
0000
0000
,  // measure 1
0000
0000
0000
0000
,  // measure 2
0000
0000
0000
0000
,  // measure 3
0000
0000
0000
0000
,  // measure 4
0000
0000
0000
0000
,  // measure 5
0000
0000
0000
0000
,  // measure 6
0000
0000
0000
0000
,  // measure 7
0000
0000
0000
0000
,  // measure 8
0001
0000
0000
0001
0100
0000
0110
0000
,  // measure 9
1000
0000
0000
1000
0100
0000
0110
0000
,  // measure 10
0001
0000
0000
0001
1000
0000
1001
0000
,  // measure 11
0100
0000
0000
0001
0011
0000
0000
0000
,  // measure 12
0100
0000
0000
1000
0001
0000
0010
0000
,  // measure 13
0001
1000
0100
0000
0100
0010
0100
0000
,  // measure 14
1000
0000
0010
0100
0010
0000
1000
0000
,  // measure 15
0001
0000
0000
1000
1100
0000
0000
0000
,  // measure 16
1000
0010
0100
0001
0100
0010
1000
0000
,  // measure 17
0001
0010
0100
1000
0100
0010
0001
0000
,  // measure 18
1000
0010
0100
0001
0010
0100
1000
0000
,  // measure 19
0001
0100
0010
1000
0100
0010
0001
0000
,  // measure 20
1000
0001
0100
0001
1000
0010
1000
0000
,  // measure 21
0001
0010
0001
1000
0100
1000
0001
0000
,  // measure 22
0100
0010
0100
0010
1000
0001
1000
0001
,  // measure 23
0220
0000
0000
0000
0000
0000
0000
0330
,  // measure 24
1001
0000
0000
0000
1000
0100
0010
0100
1000
0000
1010
0000
0110
0000
0101
0000
,  // measure 25
0001
0000
0000
0000
0100
0000
0000
0000
0010
0000
1000
0000
0100
0000
0000
0000
1000
0000
0000
1000
0000
0000
0001
0000
0020
0000
0000
0000
0230
0000
0000
0000
,  // measure 26
1300
0000
0000
0000
0001
0000
0000
0000
0100
0001
0100
0001
0100
0000
0010
0000
1000
0000
0000
0000
0200
0000
0000
0000
1300
0000
0010
0000
0100
0000
0010
0000
,  // measure 27
1000
0001
0100
0000
0001
0010
0001
0010
0100
0010
0001
1000
0100
0010
0001
0100
,  // measure 28
0010
0000
0000
0000
0000
0000
0000
0000
0100
0001
0100
0000
0001
0000
0010
0000
0100
0000
0000
0000
1100
0000
0000
0000
0110
0000
0000
0000
0011
0000
0000
0000
,  // measure 29
0001
0000
0100
0000
0010
0000
1000
0000
0100
0000
0010
0000
0001
0000
0000
0000
1000
0001
1000
0001
1000
0000
0100
0000
1000
0000
0010
0000
0100
0000
0000
0000
,  // measure 30
0001
0000
1000
0000
0100
0100
0010
0000
0001
0001
0010
0000
0200
0000
2300
0000
,  // measure 31
3010
0000
0000
1000
0001
0010
0100
0010
0002
0000
2003
0000
3200
0300
0000
0000
,  // measure 32
1000
0000
0000
0000
1100
0000
0000
0100
0010
0000
0001
0000
0100
0000
0001
0000
,  // measure 33
1000
0000
2020
3030
0220
0330
0202
0303
,  // measure 34
0001
0000
0100
0000
0010
0000
1000
0001
1000
0000
0010
0000
0100
0000
0001
0000
,  // measure 35
0010
0000
0000
0010
0000
0000
0100
0000
2000
0000
0000
0000
3002
0000
0000
0000
,  // measure 36
0103
0000
0000
0000
0110
0000
0000
0000
0001
1000
0001
1000
0001
0000
0100
0000
,  // measure 37
0001
0010
0200
0000
1300
0010
0100
0010
,  // measure 38
1000
0001
0100
0000
0001
0010
0001
0010
,  // measure 39
0100
0010
0001
1000
0100
0010
1000
0001
,  // measure 40
0100
0000
0000
0000
0110
0000
0000
0000
0001
0010
0001
0010
0001
0000
1000
0000
,  // measure 41
0100
0000
2200
3300
2002
3003
0022
0033
,  // measure 42
0001
0000
0000
0000
0100
0000
0000
0010
0100
0000
0001
0000
0010
0000
0100
0000
,  // measure 43
1000
0001
1000
0001
1000
0000
0100
0000
1000
0000
0010
0000
0100
0000
0000
0000
,  // measure 44
0101
0000
1100
0000
0100
0100
0010
0000
,  // measure 45
1000
1000
0010
0000
0200
0000
2300
0000
,  // measure 46
3010
0100
0000
0001
1000
0010
0100
0010
,  // measure 47
2000
3002
0203
0000
,  // measure 48
0301
0000
0000
0001
1000
0000
1100
0000
1000
0000
0000
1000
0001
0000
0101
0000
,  // measure 49
0100
0000
0000
0100
0010
0000
1001
0000
1000
0000
0000
0100
0110
0000
0010
0000
,  // measure 50
0001
0000
0000
0001
0100
0000
0010
0000
1000
0010
0100
0000
0001
0000
1000
0000
,  // measure 51
0100
0010
0001
1000
0010
0000
0100
0110
,  // measure 52
1000
0000
0000
0000
0010
0000
0000
0100
0001
0000
0100
0000
0010
0000
0000
0000
,  // measure 53
1000
0000
0000
0000
0100
0000
0000
0010
0001
0000
0010
0000
0100
0000
0000
0000
,  // measure 54
1000
0010
0001
0010
1000
0100
0001
0100
,  // measure 55
1000
0010
0100
0000
0110
0000
1001
0000
,  // measure 56
0001
0000
0000
0000
0010
0000
0000
0100
1000
0000
0100
0000
0010
0000
0000
0000
,  // measure 57
0001
0000
0010
0000
0100
0000
1000
0001
1000
0000
0010
0000
0100
0000
0000
0000
,  // measure 58
0100
0000
0001
0000
0010
0000
0100
0010
0100
0000
1000
0000
0010
0000
0100
0010
,  // measure 59
0200
0000
0302
0000
,  // measure 60
2003
0000
0000
0000
0000
0000
0100
0000
0100
0000
0000
0001
0000
0000
0100
0000
0100
0000
0000
0001
0000
0000
0100
0000
0100
0000
0000
0001
0000
0000
0100
0000
,  // measure 61
3002
0000
0000
1000
0000
0000
0010
0000
0010
0000
0000
1000
0000
0000
0010
0000
0010
0000
0000
1000
0000
0000
0010
0000
0010
0000
0000
1000
0003
0000
0000
0000
,  // measure 62
1000
0000
0100
1000
0000
0100
0010
0000
0100
1000
0000
0100
,  // measure 63
0010
0000
0001
0010
0000
0100
0010
0000
0001
0100
0000
0000
,  // measure 64
0001
0000
0100
0001
0000
0100
0010
0000
0100
0001
0000
0100
,  // measure 65
0010
0000
1000
0100
0000
0010
0001
0000
1000
0001
0000
0000
,  // measure 66
1000
0000
0100
0010
0000
0001
0100
0000
0001
0010
0000
0100
,  // measure 67
1000
0000
0010
0100
0000
0010
1000
0000
0001
0100
0000
0000
,  // measure 68
0001
0000
0010
0100
0000
1000
0001
0000
1000
0100
0000
0010
,  // measure 69
0001
0000
1000
0001
0000
1000
0001
0000
1000
0010
0000
0100
,  // measure 70
0001
0101
1100
0110
,  // measure 71
0001
0000
0010
1000
0000
0010
0001
0000
0100
1000
0000
0100
,  // measure 72
0001
0011
1010
0110
,  // measure 73
1000
0000
0010
0001
0000
0010
1000
0000
0100
0001
0000
0100
,  // measure 74
1000
1001
0110
1001
,  // measure 75
0001
0000
0100
0010
0000
0001
0010
0000
0100
0001
0000
1000
,  // measure 76
0100
0110
1001
0110
,  // measure 77
1000
0000
0100
0010
0000
1000
0010
0000
0100
1000
0000
0000
,  // measure 78
1001
0000
0000
0000
0001
0010
0100
0010
0001
0000
0101
0000
0110
0000
1010
0000
,  // measure 79
1000
0000
0000
0000
0010
0000
0000
0000
0100
0000
0001
0000
0010
0000
0000
0000
0001
0000
0000
0001
0000
0000
1000
0000
0200
0000
0000
0000
0320
0000
0000
0000
,  // measure 80
0031
0000
0000
0000
1000
0000
0000
0000
0010
1000
0010
1000
0010
0000
0100
0000
0001
0000
0000
0000
0020
0000
0000
0000
0031
0000
0100
0000
0010
0000
0100
0000
,  // measure 81
0001
1000
0010
0000
1000
0100
1000
0100
0010
0100
1000
0001
0010
0100
1000
0010
,  // measure 82
0100
0000
0000
0000
0000
0000
0000
0000
0010
1000
0010
0000
1000
0000
0100
0000
0010
0000
0000
0000
0011
0000
0000
0000
0110
0000
0000
0000
1100
0000
0000
0000
,  // measure 83
0001
0000
0000
1010
0000
0000
0011
0000
0000
1100
0000
0000
0101
0000
0000
0000
0001
1000
0001
1000
0001
0000
0010
0000
0001
0000
0100
0000
0010
0000
0000
0000
,  // measure 84
1000
0000
0001
0000
0010
0010
0100
0000
1000
1000
0100
0000
0020
0000
0032
0000
,  // measure 85
0103
0000
0000
0001
1000
0100
0010
0100
2000
0000
3002
0000
0023
0030
0000
0000
,  // measure 86
0001
0100
0001
0100
0000
0010
1000
0010
,  // measure 87
1000
0010
0000
1000
0100
0000
0110
0000
,  // measure 88
0100
1000
0100
1000
0000
0001
0010
0001
,  // measure 89
0010
0001
0000
1000
0001
0000
1001
0000
,  // measure 90
0001
0100
1000
0100
0000
0001
0010
1000
,  // measure 91
0010
0001
0000
0100
0010
0000
1001
0000
,  // measure 92
1000
0100
0010
0001
0100
0010
1000
0010
,  // measure 93
0100
0001
0010
0000
2002
0000
0000
0000
,  // measure 94
0000
0000
3003
0000
;
