#TITLE:So Excited (feat. Khia);
#SUBTITLE:;
#ARTIST:Janet Jackson;
#TITLETRANSLIT:;
#SUBTITLETRANSLIT:;
#ARTISTTRANSLIT:;
#GENRE:SEXY;
#CREDIT:Telperion+;
#BANNER:[ROUND H] - So Excited (feat. Khia).png;
#BACKGROUND:[ROUND H] - So Excited (feat. Khia)-bg.png;
#JACKET:[ROUND H] - So Excited (feat. Khia)-jacket.png;
#LYRICSPATH:;
#CDTITLE:cdtitle.png;
#MUSIC:[ROUND H] - So Excited (feat. Khia).ogg;
#OFFSET:-0.024000;
#SAMPLESTART:7.743000;
#SAMPLELENGTH:17.903999;
#SELECTABLE:YES;
#BPMS:0.000000=107.000000
;
#STOPS:
;
#BGCHANGES:;
#KEYSOUNDS:;
#ATTACKS:;

//---------------dance-single - Telperion----------------
#NOTES:
     dance-single:
     Telperion:
     Hard:
     8:
     0.452084,0.554307,0.191488,0.403132,0.367858,314.000000,295.000000,19.000000,40.000000,27.000000,0.000000,0.452084,0.554307,0.191488,0.403132,0.367858,314.000000,295.000000,19.000000,40.000000,27.000000,0.000000:
0000
0000
0000
0000
,
0000
0000
0000
0000
,
0000
0000
0000
0000
,
0000
0000
0000
0000
0000
0000
0000
1000
0001
0000
0100
0000
0010
0000
1000
0020
,
0000
0130
0M00
0100
0001
0000
000M
0001
,
1000
0100
0M00
0100
0010
0010
0100
0100
,
0000
1000
0001
0000
0100
0001
0100
0000
1000
0000
0100
0002
0000
0000
1003
0100
,
1000
0000
0100
0000
0001
0000
0100
2000
0000
0000
3001
0000
0100
0000
0010
0000
,
1000
0000
2010
0000
3001
0000
0011
0001
,
1000
0000
1100
1000
0001
0000
0101
0001
,
0000
1000
0001
0000
0010
0001
0010
0000
1000
0000
0010
0002
0000
0000
1003
0010
,
1000
0000
0010
0000
0001
0000
0010
2000
0000
0000
3001
0000
0000
0000
1000
0000
,
0000
0001
0010
0000
0001
1000
0001
0000
0010
0000
0100
1000
0000
1000
0001
0100
,
0001
0000
1000
0000
0010
0000
0010
0200
0000
0000
0002
0000
0303
0000
0000
0000
,
0000
0001
0010
0001
0010
0000
0100
1000
0010
0000
0100
0001
0000
0001
1000
0100
,
1000
0000
0001
0000
0010
0000
0100
2000
0000
0000
0000
0000
0000
0000
3000
0000
,
0000
1000
0010
0000
0100
0000
0010
0000
1000
0000
0001
0020
0000
0000
0130
1000
,
0001
0000
0100
0000
0001
0000
0010
0200
0000
0000
2000
0000
3300
0000
0000
0000
,
0000
1000
0001
0000
0100
0001
0100
0001
0010
0000
0001
1000
0000
0000
0100
1000
,
0010
1000
0010
0000
0001
0000
0010
2000
0000
0000
0000
0000
3000
0000
0001
1000
,
0001
0000
0010
0000
00M0
0000
1000
0001
1000
0000
0010
0000
00M0
0000
0001
0010
,
2000
0000
0000
0000
3010
0000
0002
0000
0000
0000
0000
0000
0003
0000
1000
0001
,
1000
0000
0010
0000
00M0
0000
0001
1000
0001
0000
0100
0000
0M00
1000
0100
1000
,
0001
0100
0010
0002
0000
0000
0013
1000
,
0000
0001
0100
0001
1000
0100
1000
0001
0010
0000
0000
0010
0000
0001
0020
0000
,
0030
0000
0001
0100
0001
1000
0100
1000
0010
0000
0010
0100
0000
0100
0002
0000
,
0003
0000
1000
0100
1000
0001
0100
0001
0010
0000
0010
0100
0000
0100
1000
0001
,
1000
0000
0010
0100
0001
0000
0100
0010
1000
0000
0100
0000
0001
0000
0100
0020
,
0000
0031
0000
0010
0110
0000
00M0
1000
,
0001
0100
0M00
0100
0010
0010
0100
0100
,
0000
0001
1000
0000
0100
1000
0100
0000
0001
0000
0100
2000
0000
0000
3001
0010
,
0001
0000
0100
0000
1000
0000
0100
0002
0000
0000
1003
0000
0100
0000
0010
0000
,
0001
0000
0012
0000
1003
0000
1010
1000
,
0001
0000
0101
0001
1000
0000
1100
1000
,
0000
0001
1000
0000
0010
1000
0010
0000
0001
0000
0010
2000
0000
0000
3001
0100
,
0001
0000
0010
0000
1000
0000
0010
0002
0000
0000
1003
0000
0000
0000
0001
0000
,
0100
0010
1000
0010
0100
0000
0001
M00M
,
2002
0000
3003
M00M
2002
0000
3003
0000
,
0100
0010
0100
1000
0010
0000
1000
M00M
,
2002
0000
3003
M00M
2002
0000
3003
1000
,
1100
0100
0010
0001
1000
0000
0001
M00M
,
0220
0000
0330
0MM0
0220
0000
0330
0000
,
0101
0001
0010
0001
1000
0000
0001
M00M
,
0220
0000
0330
0MM0
0220
0000
0330
0MM0
,
0001
0000
0000
0000
;

//---------------dance-single - Telperion----------------
#NOTES:
     dance-single:
     Telperion:
     Medium:
     7:
     0.414650,0.620824,0.080626,0.080626,0.292271,288.000000,280.000000,8.000000,8.000000,0.000000,0.000000,0.414650,0.620824,0.080626,0.080626,0.292271,288.000000,280.000000,8.000000,8.000000,0.000000,0.000000:
0000
0000
0000
0000
,
0000
0000
0000
0000
,
0000
0000
0000
0000
,
0000
0000
0000
0000
0000
0000
0000
0000
0001
1000
0000
0100
1000
0001
1000
0000
,
0010
0000
0010
0000
0100
0000
0000
0001
0000
0000
0001
0000
1000
0000
0000
0000
,
0100
0000
0100
0000
0010
0000
0000
0001
0000
0000
1000
0000
0001
0000
0000
0000
,
0100
0000
0100
0000
0010
0000
0000
1000
0000
0000
1000
0000
0001
0000
0000
0000
,
0010
0000
0010
0000
0100
0000
0000
0000
1000
0001
0000
0100
0001
1000
0001
0000
,
0100
0000
0102
0000
1003
0000
1100
0100
,
0010
0000
0011
0001
1000
0000
1010
0010
,
0100
0000
0100
0000
0001
0000
0000
1000
0000
0000
1000
0000
0100
0000
0000
0000
,
0010
0000
0010
0000
0001
0000
0000
0000
1000
0010
0000
1000
0001
1000
0010
0000
,
0100
0000
0001
0000
1000
0000
0000
0100
0000
0000
1000
0000
0001
0000
0000
0000
,
0010
0000
0001
0000
1000
0000
0000
0010
0000
0000
0010
0000
0100
0000
0000
0000
,
0001
0000
1000
0000
0100
0000
0000
1000
0000
0000
0001
0000
0100
0000
0000
0000
,
0001
0000
1000
0000
0010
0000
0000
0000
0100
0001
0000
1000
0100
1000
0001
0000
,
0010
0000
0100
0000
1000
0000
0000
0010
0000
0000
1000
0000
0100
0000
0000
0000
,
0010
0000
0001
0000
1000
0000
0000
0010
0000
0000
0010
0000
0100
0000
0000
0000
,
0001
0000
0100
0000
0010
0000
0000
1000
0000
0000
0010
0000
0100
0000
0000
0000
,
0001
0000
1000
0000
0100
0000
0000
0000
0010
0001
0000
1000
0010
1000
0001
0000
,
0100
0100
0000
0010
1000
1000
0000
0001
,
0020
0000
0001
0200
0000
0000
0330
1000
,
1000
1000
0000
0001
0001
0001
0000
0100
,
0020
1000
0000
0200
0000
0000
0330
0000
,
0001
0100
0001
0100
0001
0100
0001
0100
0001
0100
0001
0100
0001
0100
0001
1000
,
0100
1000
0100
1000
0100
1000
0100
1000
0100
0000
0010
0000
0002
0000
0003
0000
,
1000
0100
1000
0100
1000
0100
1000
0100
1000
0100
1000
0100
1000
0100
1000
0001
,
0100
0001
0100
0001
0100
0001
0100
0001
0100
0000
0010
0000
2000
0000
3000
0000
,
0001
0010
0001
0010
0100
0000
1000
0000
,
0001
0100
0000
0100
0000
0010
0010
0000
,
1000
0001
1000
0010
0100
0000
0001
0000
,
0010
0000
0100
0000
0000
0000
0100
0000
1000
0001
0000
0001
0100
0001
1000
0000
,
0100
0000
2100
0000
3001
0000
0101
0100
,
0010
0000
1010
1000
0001
0000
0011
0010
,
0100
1000
0001
0100
0010
0000
0100
0000
,
0001
0000
1000
0000
0000
0000
1000
0000
0001
0010
0000
0010
0100
0010
0001
0000
,
1000
1000
0001
0001
0100
0000
0010
0000
,
0010
1000
0000
1000
0000
0000
0000
0000
,
0001
0001
0010
0010
0100
0000
1000
0000
,
1000
0001
0000
0001
0000
0000
0000
0000
,
0010
0010
0001
0001
1000
0000
0010
0000
,
0010
0100
0000
0100
0000
0000
0000
0000
,
0001
0010
0100
0010
1000
0000
0010
0000
,
0001
0000
1000
0000
0000
0000
0001
0000
1000
0010
0000
0100
0000
0010
0100
0000
,
0001
0000
0000
0000
;

//---------------dance-single - Telperion----------------
#NOTES:
     dance-single:
     Telperion:
     Easy:
     3:
     0.171331,0.266067,0.000000,0.080626,0.000000,119.000000,119.000000,0.000000,8.000000,0.000000,0.000000,0.171331,0.266067,0.000000,0.080626,0.000000,119.000000,119.000000,0.000000,8.000000,0.000000,0.000000:
0000
0000
0000
0000
,
0000
0000
0000
0000
,
0000
0000
0000
0000
,
0000
0000
0000
0000
,
1000
0000
0000
1000
0000
0000
0010
0000
,
0001
0000
0000
0001
0000
0000
0000
0000
,
1000
0000
0000
1000
0000
0000
0100
0000
,
0001
0000
0000
0001
0000
0000
0000
0000
,
1000
0000
0010
0000
1000
0000
0010
0100
,
0001
0000
0100
0001
0100
0000
0001
1000
,
0010
0000
0000
0010
0000
0000
0001
0000
,
0100
0000
0000
0100
0000
0000
1000
0000
,
0001
0000
0000
0001
0000
0000
0000
0000
,
1000
0000
0000
1000
0000
0000
0000
0000
,
0001
0000
0000
0001
0000
0000
0000
0000
,
1000
0000
0000
1000
0000
0000
0000
0100
,
0100
0000
0000
0100
0000
0000
0000
0000
,
0010
0000
0000
0010
0000
0000
0000
0000
,
0100
0000
0000
0100
0000
0000
0000
0000
,
0010
0000
0000
0010
0000
0000
0000
0001
,
0002
0003
0000
1000
2000
3000
0000
0010
,
0020
0030
0100
0200
0300
0000
0000
1000
,
2000
3000
0000
0001
0002
0003
0000
0010
,
0020
0030
0100
0200
0000
0000
0300
0000
,
4000
0000
0000
0000
,
0000
0000
3000
0000
,
0004
0000
0000
0000
,
0000
0000
0003
0000
,
0100
0000
1000
0100
0000
0000
1000
0000
,
0010
0000
1000
0010
0000
0000
0001
0000
,
0010
0000
0001
0010
0000
0000
0001
0000
,
0100
0000
0001
0100
0000
0000
0000
1000
,
1000
0000
0001
1000
0000
0000
0010
0000
,
0001
0000
1000
0001
0000
0000
0010
0000
,
1000
0000
0100
1000
0000
0000
0100
0000
,
0001
0000
0100
0001
0000
0000
0000
1000
,
1000
0010
0100
0001
,
1000
0000
0000
1000
0000
0000
0000
0000
,
0001
0010
0100
1000
,
0001
0000
0000
0001
0000
0000
0000
0000
,
0010
0100
1000
0001
,
0100
0000
0000
0100
0000
0000
0000
0000
,
0010
0100
0001
1000
,
0100
0000
0000
0100
0000
0000
0000
0000
,
0010
0000
0000
0000
;

//---------------dance-single - Telperion----------------
#NOTES:
     dance-single:
     Telperion:
     Beginner:
     1:
     0.050392,0.066517,0.000000,0.020157,0.000000,35.000000,35.000000,0.000000,2.000000,0.000000,0.000000,0.050392,0.066517,0.000000,0.020157,0.000000,35.000000,35.000000,0.000000,2.000000,0.000000,0.000000:
// measure 0
0000
0000
0000
0000
,  // measure 1
0000
0000
0000
0000
,  // measure 2
0000
0000
0000
0000
,  // measure 3
0000
0000
0000
0000
,  // measure 4
0010
0000
0000
0000
,  // measure 5
0001
0000
0000
0000
,  // measure 6
1000
0000
0000
0000
,  // measure 7
0010
0000
0000
0000
,  // measure 8
0100
0000
0000
0000
,  // measure 9
0001
0000
0000
0000
,  // measure 10
1000
0000
0000
0000
,  // measure 11
0100
0000
0000
0000
,  // measure 12
0010
0000
0000
0000
,  // measure 13
0000
0000
0000
0000
,  // measure 14
0010
0000
0000
0000
,  // measure 15
0000
0000
0000
0000
,  // measure 16
0100
0000
0000
0000
,  // measure 17
0000
0000
0000
0000
,  // measure 18
0100
0000
0000
0000
,  // measure 19
0000
0000
0000
0000
,  // measure 20
1000
0000
0000
0000
,  // measure 21
1000
0000
0000
0000
,  // measure 22
0001
0000
0000
0000
,  // measure 23
0001
0000
0000
0000
,  // measure 24
0200
0000
0000
0000
,  // measure 25
0000
0000
0300
0000
,  // measure 26
0020
0000
0000
0000
,  // measure 27
0000
0000
0030
0000
,  // measure 28
0100
0000
0000
0000
,  // measure 29
0001
0000
0000
0000
,  // measure 30
1000
0000
0000
0000
,  // measure 31
0100
0000
0000
0000
,  // measure 32
0010
0000
0000
0000
,  // measure 33
0001
0000
0000
0000
,  // measure 34
1000
0000
0000
0000
,  // measure 35
0010
0000
0000
0000
,  // measure 36
0100
0000
0000
0000
,  // measure 37
0100
0000
0000
0000
,  // measure 38
0010
0000
0000
0000
,  // measure 39
0010
0000
0000
0000
,  // measure 40
1000
0000
0000
0000
,  // measure 41
1000
0000
0000
0000
,  // measure 42
0001
0000
0000
0000
,  // measure 43
0001
0000
0000
0000
,  // measure 44
0010
0000
0000
0000
;
