#TITLE:Sing;
#SUBTITLE:;
#ARTIST:Pentatonix;
#TITLETRANSLIT:;
#SUBTITLETRANSLIT:;
#ARTISTTRANSLIT:;
#CREDIT:;
#BANNER:[ROUND H] - SING-jacket.png;
#BACKGROUND:[ROUND H] - SING-bg.png;
#LYRICSPATH:{ROUND H} - Sing.lrc;
#CDTITLE:;
#MUSIC:[ROUND H] - Sing.ogg;
#OFFSET:0.842;
#SAMPLESTART:34.720;
#SAMPLELENGTH:11.429;
#SELECTABLE:YES;
#BPMS:0.000=155.000,124.000=77.500,128.000=155.000,304.000=160.000,312.000=137.000,315.750=134.400,319.000=137.000,322.000=149.000,323.000=145.000,326.000=155.000;
#STOPS:;
#BGCHANGES:;

//---------------dance-single - ----------------
#NOTES:
     dance-single:
     :
     Hard:
     8:
     0.716,0.990,0.554,0.423,0.154:
0000
0000
0000
0000
,
0000
0000
0000
0000
,
0000
0000
0000
0000
,
1001
1000
0100
0010
0001
0010
0000
0010
,
0001
0100
0000
0101
0000
0100
0010
1000
,
0001
0100
0010
0100
0001
0101
0000
0100
,
0010
0000
1000
0000
0000
0000
1000
0010
0100
0000
0001
0000
0100
0000
0010
0000
,
1000
0100
0010
0010
0020
0001
0001
0031
,
0011
0002
0100
0100
0203
0010
0010
0310
,
0110
0100
0010
1000
0100
0001
0100
1000
,
0010
0000
0000
0010
0000
0000
0000
0000
0000
1010
0000
0000
0000
0000
0000
1000
0010
0000
1000
0010
0000
1000
0010
0000
,
1000
0001
0100
0010
1000
1001
0000
0010
,
1000
0101
0000
1010
0000
1000
0100
0010
,
0001
0100
0010
0100
0001
0011
0000
0010
,
0100
0000
1000
0000
0000
0000
1000
0100
0010
0000
0001
0000
0100
0000
0010
0000
,
1000
0001
0010
0001
0200
0010
0010
0310
,
1000
0010
0100
0001
0101
0001
0100
0001
,
1001
1000
0010
0100
0001
0010
0100
1000
,
0010
0000
0000
0100
0000
0000
0000
0000
0000
0101
0000
0000
0000
0000
0000
0100
0001
0000
0100
0001
0000
0100
0001
0000
,
0200
0320
2030
3002
,
0203
2300
3020
0032
,
0023
2030
3200
0302
,
0023
0000
2030
0000
3020
0030
0011
0000
,
0101
0000
0100
0010
1010
0000
1000
0100
,
0110
0000
0100
0010
0011
0000
0010
0001
,
1001
0000
0001
0100
1000
0100
0001
0001
,
1002
0000
0100
0003
0010
0001
0000
0101
,
0101
0000
0100
0010
1000
0010
0100
0001
,
0101
0100
0001
0100
0010
0100
0001
0100
,
0110
0000
0010
1000
0000
1000
0100
0000
,
0100
0000
0010
0000
0001
0010
0001
0000
0100
0000
0010
0000
1010
0000
0000
0000
,
1001
1000
0100
0010
1001
0001
0100
0010
1001
1000
0100
0010
1001
0001
0100
0010
,
1010
1000
0010
0100
0101
0100
0010
1000
,
1010
1000
0001
1001
0000
0001
0100
0010
,
1010
0001
1000
0001
0101
1000
0001
1000
,
1100
0001
1000
0001
1010
1000
0100
0010
,
0012
0000
0103
0010
1000
0100
0001
0100
,
1000
0010
0100
0001
1000
0010
0100
0001
0100
0010
1000
0001
,
0100
0010
1000
0010
0200
0002
0303
0000
,
0001
0100
0010
1000
0000
1001
1000
0001
,
0100
0000
0010
0000
1000
0000
0010
0000
0100
0001
1000
0000
0100
0000
1000
0000
,
0010
0100
0010
1000
0001
0001
0100
0100
,
0020
2030
3200
0302
,
0203
2300
3020
0032
,
0023
2030
3200
0302
,
0023
2030
3020
0032
,
0103
0000
0100
0010
0001
0010
0011
0000
,
1001
0000
1000
0100
0010
0001
0011
0000
,
1001
0000
0001
0100
0010
1000
1010
1000
,
0001
0000
0001
0100
0010
0100
0110
0100
,
0001
0000
0001
0010
0100
0010
0001
0100
,
0010
1000
0100
0001
0100
1000
1001
0000
,
1001
0000
1000
0100
0000
0100
0010
0000
,
0010
0000
0001
0000
0100
0010
1000
0000
0001
0000
0001
0000
0101
0000
0000
0000
,
1001
0000
1000
0001
1000
0000
0100
0000
0010
0000
0010
0000
0011
0000
0001
0000
,
0100
0000
0010
1000
0010
0000
0100
0000
0001
0000
0001
0000
0101
0000
0100
0000
,
0010
0000
1000
0001
1000
0000
0001
1000
0001
1000
0001
0000
0100
0000
0010
0100
,
0010
0100
0010
0000
1000
0000
1000
0000
0100
0000
0100
0000
0010
0000
0010
0000
,
0022
0030
2000
3000
,
0200
0000
0300
0000
0020
0000
0033
0011
,
0000
0001
0100
0001
1000
0001
0010
0020
,
0000
0030
0000
0000
0001
0100
0000
0100
,
0000
0100
0010
1000
0010
0100
0010
0010
,
0000
0010
1000
0100
0001
0100
1000
0000
,
1100
1000
0010
0100
0101
0001
0100
0000
,
0101
0100
0010
1000
1010
1000
0010
1000
,
2001
0000
0001
0000
3001
0100
0010
0100
,
0101
0000
0001
0000
0010
0100
1000
0100
,
0110
0000
0010
0001
0010
0100
1000
0010
,
1010
0000
1000
0000
1000
0100
0010
0100
,
2100
0000
3001
0100
1000
0100
0001
0011
,
0000
0001
0100
0020
1000
1000
1030
0000
,
1010
0010
0100
0001
0101
0100
0001
0000
,
1001
0000
0001
0000
0100
0010
1000
0000
1010
0000
0001
0000
0011
0000
0000
0000
,
1100
1000
0010
0100
0101
0001
1001
0000
,
1000
0000
0100
0000
0010
0001
0100
0000
0010
0000
1000
0000
1100
0000
0010
0000
,
0100
0001
0200
0000
0000
0000
0000
0000
0000
0000
0000
0000
0000
0000
0000
0000
,
0000
0000
0000
0000
0000
0000
0000
0000
0000
0000
1000
0000
0000
1000
0000
0000
,
1000
0000
0000
0000
0000
0000
0000
0000
0000
0000
0000
0000
0010
0000
0000
0000
0000
0000
0000
0000
0000
0000
0000
0000
0301
0000
0000
0100
0000
0000
0002
0000
,
0000
0000
0000
0000
0003
MMMM
2000
0000
,
3000
0200
0000
0300
0020
0001
0032
0000
,
0000
0000
0000
0000
1000
1000
2000
0000
,
0000
0000
0000
0000
,
3003
0000
0000
0000
;

//---------------dance-single - Copied from----------------
#NOTES:
     dance-single:
     Copied from:
     Medium:
     6:
     0.550,0.671,0.431,0.315,0.027:
0000
0000
0000
0000
,
0000
0000
0000
0000
,
0000
0000
0000
0000
,
1000
0100
1000
0001
1000
0001
0000
0001
,
1000
0010
0000
0110
0000
0000
0101
0000
,
0001
0010
0100
1000
0100
0010
0000
0010
,
0001
1000
0000
1100
0000
1000
0100
0010
,
0002
0000
0000
0000
0003
0100
0010
1000
,
0002
0000
0000
0000
0003
0100
0010
1000
,
0001
0000
0100
0010
1000
0010
0100
0010
,
1000
0010
0000
0010
0000
0000
0000
0000
,
0100
0001
0100
0001
0100
0010
0000
0010
,
1000
0010
0000
1010
0000
0000
1100
0000
,
1000
0100
1000
0100
0010
0001
0000
0001
,
0010
0001
0000
0011
0000
0000
1001
0000
,
1000
0100
0010
0001
2000
0000
0000
3000
,
0100
0010
0001
1000
0100
0000
0010
0001
,
0010
0000
0010
0100
0010
0100
0010
0001
,
1000
0001
0000
0001
0000
0000
0001
0100
,
0102
1003
2100
3001
,
0012
1003
2010
3001
,
0102
0013
2100
3010
,
2010
3100
0012
0103
,
0101
0000
1100
0000
,
1010
0000
0000
0000
0011
0000
0000
1001
,
0000
0001
0100
0010
1000
0001
1000
0002
,
0000
0003
0000
0000
0001
0100
0000
0101
,
0000
0100
0010
1000
0010
0100
0001
0100
,
0000
0010
1000
0100
0010
0001
0001
0000
,
0011
0000
0001
0010
0000
0010
0100
0000
,
0100
1000
0000
1000
0010
1000
0010
0000
,
1010
0000
1000
0001
1000
0000
0001
0100
0010
0100
0000
0110
0000
0100
0001
0000
,
0101
0000
0001
0010
0100
0010
0001
0010
,
0100
0010
0000
0001
0000
0000
0101
0000
,
2002
0000
0000
0000
3003
0100
0010
1000
,
0002
0000
0000
0000
0000
0103
0010
1000
,
0002
0000
0103
0010
0100
0001
0010
0100
,
1000
0100
0000
0110
0000
0000
1001
0000
,
0001
0100
0010
1000
0100
0100
0000
0000
,
0010
0001
0100
0010
0000
1010
0000
0000
,
1000
0100
0010
0100
0000
0010
0001
0010
,
0200
0000
0320
0000
0032
0100
0203
0000
,
0302
0013
2000
3010
,
0012
0103
2010
3100
,
0210
0301
0120
1030
,
0110
1001
0220
0330
,
0001
0000
0001
0100
0001
0000
1000
0100
,
1000
0000
0001
0010
0001
0000
1000
0010
,
1000
0000
1000
0100
0010
0001
1000
0100
,
0000
0000
0000
0000
0010
0001
0000
0011
,
0000
0010
0001
0100
0010
1000
0001
0100
,
0000
0100
0010
1000
0001
0001
0001
0000
,
0101
0000
0001
0100
0000
0100
1000
0000
,
1000
0010
0000
0010
0100
0001
0010
0000
,
0011
0000
0001
1000
0001
0000
1001
0000
,
1100
0000
1000
0001
1000
0000
1001
0000
,
0101
0000
0001
0100
0010
1000
1000
0100
,
0100
0010
0010
0001
0001
0100
0100
0010
,
0020
0000
2030
0000
,
3200
0000
0000
0000
0320
0000
0000
0001
,
0030
0001
0010
0001
1000
0100
0010
0002
,
0000
0003
0000
0000
0001
0100
0000
0110
,
0000
0010
1000
0100
0010
0001
0010
0100
,
0000
0100
1000
0002
0100
0100
0103
0000
,
0101
0000
0001
1001
0000
0100
1100
0000
,
1000
1001
0000
0001
0101
0000
1001
0000
,
2100
3001
0102
1003
,
2010
0000
3001
0000
0012
0000
0003
1000
,
0000
1000
0100
1000
0100
0010
0001
0002
,
0000
0003
0000
0000
0001
0100
0000
0101
,
0000
0100
0010
1000
0010
0100
0001
0010
,
0000
0010
0001
0100
0010
0010
0010
0000
,
1000
0010
0100
0001
0010
0100
1000
0000
,
0000
0100
1000
0100
0010
0010
0010
0000
,
0001
0100
0010
1000
0100
0010
0001
0000
,
0001
0010
0100
1000
0001
0010
0100
1000
,
0200
0000
0000
0000
,
0000
0000
0000
0000
0000
0000
0000
0000
0000
0000
1000
0000
0000
1000
0000
0000
,
1000
0000
0000
0000
0000
0000
1000
0000
0000
0000
0000
0000
1000
0000
0000
1000
,
0000
0000
0000
0000
0000
00M0
0010
0000
,
0000
0010
0000
0000
0001
0000
0010
0000
,
0000
0000
0010
2000
,
0000
0000
0000
0000
,
3300
0000
0000
0000
;

//---------------dance-single - Copied from Copied f----------------
#NOTES:
     dance-single:
     Copied from Copied f:
     Easy:
     5:
     0.428,0.543,0.508,0.415,0.008:
0000
0000
0000
0000
,
0000
0000
0000
0000
,
0000
0000
0000
0000
,
1000
0100
0010
0011
,
0001
0100
0010
1010
,
1000
0100
0010
0011
,
0001
0100
0010
0110
,
1002
0000
0003
1000
,
2001
0000
0000
3001
,
0101
1000
1100
1000
,
0002
0000
0000
1003
0000
0000
1000
0000
,
0100
0010
0001
0100
,
0010
1000
0010
0101
,
0001
0010
0100
0010
,
0001
0010
0100
0011
,
0120
0000
0030
0010
,
0210
0000
0000
0310
,
0102
1003
2100
3001
,
0020
0000
0000
0130
0000
0000
0101
0000
,
0002
0023
0230
2300
,
3002
0023
0230
2300
,
3002
0023
0230
2300
,
3200
0320
0032
0003
,
0011
0000
1001
0000
,
1100
0000
0000
0000
1001
0000
0000
0001
,
0000
0001
0100
0001
,
0101
0000
0000
0000
0001
0000
0000
1100
,
0000
1000
0010
0001
,
0100
1000
0100
0001
,
0001
0000
0000
0010
0000
0000
0100
0000
,
0000
1000
0000
0000
0010
0000
0010
0000
,
0100
0001
0011
0100
1000
0100
0110
0010
,
0001
0100
0110
0010
,
1000
0100
0010
0011
,
2002
0000
3003
0110
,
2002
0000
3003
0001
,
0100
0010
1000
0100
,
0020
0000
0000
0031
0000
0000
0001
0000
,
0200
0000
0000
0010
0000
0310
0000
0000
,
0020
0000
0000
1000
0000
1030
0000
0000
,
2000
0000
0000
3100
0000
0000
0010
0000
,
0001
0000
0100
0000
0010
1000
0010
0000
,
2000
3020
0230
0302
,
2003
3020
0230
0302
,
2003
3020
0230
0302
,
2003
3020
0130
0101
,
1001
0000
0011
0000
,
1001
0000
0000
0000
1100
0000
0000
1001
,
0000
0001
0100
0010
,
1010
1000
0100
0010
,
0011
0001
0100
0010
,
1000
0000
0100
0000
0010
0001
0010
0000
,
0011
0000
0000
1001
0000
0000
0101
0000
,
0000
1001
0000
0000
1000
0000
0100
0000
,
0020
0000
0000
0001
0031
0000
0010
0000
,
0200
0000
0000
1000
1300
0000
0100
0000
,
0010
0001
0011
1000
,
1100
0000
1000
0000
1000
0100
0010
0001
,
2000
0000
3002
0000
,
0203
0000
0000
0000
0320
0000
0000
1000
,
0030
0000
1000
0000
0100
0000
0010
0010
,
0000
0000
0000
0000
0001
0001
0000
0101
,
0000
0100
0010
1000
,
0001
0100
0020
1030
,
1010
0000
0000
1001
0000
0000
0101
0000
,
0000
1001
0000
0000
1100
0000
1001
0000
,
1100
1000
0001
0100
,
0010
0000
1000
0000
1001
0000
0000
1001
,
0000
1000
0100
0010
,
0001
0000
0100
0000
0010
0010
0000
1010
,
0000
1000
0100
0010
,
0001
0000
0100
0000
0010
1000
0010
0000
,
1010
0000
0000
1001
0000
0000
0101
0000
,
0000
1001
0000
0000
0101
0000
1001
0000
,
1100
0000
0000
1001
0000
0000
0101
0000
,
0000
1001
0000
0000
1100
0000
0110
0000
,
0012
0000
0000
0000
,
0000
0000
0000
0000
0000
0000
0000
0000
0000
0000
1000
0000
0000
1000
0000
0000
,
1000
0000
0000
0000
0000
0000
1000
0000
0000
0000
0000
0000
1000
0000
0000
1000
,
0000
0000
0000
0000
0000
M000
1000
0000
,
0000
1000
0000
0000
1000
0000
1000
0000
,
0000
0000
1000
2000
,
0000
0000
0000
0000
,
3003
0000
0000
0000
;

//---------------dance-single - ----------------
#NOTES:
     dance-single:
     :
     Beginner:
     1:
     0.126,0.255,0.015,0.008,0.000:
0000
0000
0000
0000
,
0000
0000
0000
0000
,
0000
0000
0000
0000
,
1000
0000
0000
0000
,
0001
0000
0000
0000
,
0100
0000
0000
0000
,
0010
0000
0000
0000
,
1000
0000
0000
0000
,
0001
0000
0000
0000
,
0100
0000
0100
0000
,
0100
0000
0000
0000
,
0010
0010
0000
0000
,
1000
0000
0000
0000
,
0001
0001
0000
0000
,
0100
0000
0000
0000
,
0010
0000
0000
0000
,
1000
0000
0000
0000
,
0001
0000
0000
0000
,
1000
0000
0000
0000
,
0100
0000
0000
0000
,
0010
0000
0000
0000
,
0001
0000
0100
0000
,
0010
0000
1000
0000
,
1000
0000
1000
0000
,
1000
0000
1000
0000
,
1000
0000
0000
0000
,
0100
0000
0000
0000
,
0010
0000
0000
0000
,
0001
0000
0000
0000
,
0100
0000
0000
0000
,
0000
0100
0100
0100
,
0100
0010
0100
0010
,
0001
0001
0000
0000
,
0100
0000
0000
0000
,
1000
0000
0000
0000
,
0010
0000
0000
0000
,
0100
0000
0000
0000
,
0001
0000
0000
0000
,
0001
0000
0000
0000
,
1000
0000
0000
0000
,
1001
0000
0000
0000
,
1000
0000
0001
0000
,
0100
0000
0000
0000
,
0010
0000
0000
0000
,
1000
0000
0001
0000
,
0100
0000
0010
0000
,
0100
0000
0100
0000
,
0100
0000
0100
0000
,
0001
0000
0000
0000
,
1000
0000
0000
0000
,
0100
0000
0000
0000
,
0010
0000
0000
0000
,
0001
0000
0001
0001
,
0000
0000
1000
1000
,
1000
0000
0100
0000
,
0010
0000
0001
0000
,
0100
0000
0010
0000
,
1000
0000
0100
0000
,
1001
0000
0001
0000
,
1000
0000
0001
0000
,
0100
0000
0000
0000
,
0010
0000
0000
0000
,
1000
0000
0000
0000
,
0001
0000
0000
0000
,
0100
0000
0010
0000
,
1000
0000
0001
0000
,
0010
0000
0010
0000
,
0010
0000
0010
0000
,
0100
0000
0000
0000
,
1000
0000
0000
0000
,
0001
0000
0000
0000
,
0100
0000
0000
0000
,
0010
0000
1000
1000
,
0000
0001
0001
0001
,
0001
0000
0001
0000
,
0100
0000
0100
0100
,
0200
0000
0000
0000
,
0000
0000
0000
0000
,
0000
0000
0000
0000
,
0000
0000
0000
0000
,
0000
0000
0000
0000
,
0000
0000
0000
0000
,
0000
0000
0000
0000
,
0300
0000
0000
0000
;

//---------------dance-double - ----------------
#NOTES:
     dance-double:
     :
     Hard:
     9:
     0.732,1.000,0.639,0.331,0.169:
00000000
00000000
00000000
00000000
,
00000000
00000000
00000000
00000000
,
00000000
00000000
00000000
00000000
,
10000000
01000000
00010000
00001000
00000100
00000001
00000000
00000001
,
00000100
00001000
00000000
00011000
00000000
00001000
00101000
00100000
,
00010000
01000000
00100000
10000000
01000000
00100000
00000000
00100000
,
00001000
00010000
00000000
00011000
00000000
00010000
00000100
00000010
,
00000002
00000100
00000100
00000100
00000103
00000100
00000010
00001000
,
00001100
00010000
00001000
00010000
00001100
00000010
00000001
00000100
,
00000101
00000000
00000100
00000010
00001000
00010000
00100000
00010000
,
00001000
00000000
00000000
00000010
00000000
00000000
00000000
00000000
00000000
00000011
00000000
00000000
00000000
00000000
00000000
00000001
00000100
00000000
00000001
00000100
00000000
00000001
00000100
00000000
,
00001000
00010000
00100000
10000000
01000000
01100000
00000000
00100000
,
00001000
00010000
00000000
00011000
00000000
00010000
00000100
00001000
,
00000010
00000100
00000001
00000010
00000100
00001100
00000000
00000100
,
00010000
00001000
00010000
00000000
00000000
00000000
00001000
00010000
00001000
00000000
00000000
00000000
00011000
00000000
00001000
00000000
,
00100000
00010000
01000000
00100000
10100000
10000000
01000000
00100000
,
00110000
00100000
00001000
00010000
00011000
00010000
00000100
00001000
,
00001100
00001000
00000010
00000100
00000001
00000010
00000100
00001000
,
00000100
00000000
00000000
00000100
00000000
00000000
00000000
00000000
00000000
00011000
00000000
00000000
00000000
00000000
00000000
00010000
00100000
00000000
00010000
00100000
00000000
00010000
00100000
00000000
,
02000000
23000000
32000000
03020000
,
00032000
00003200
00000302
00000023
,
00000032
00000203
00002300
00023000
,
02030000
10000000
23000000
01000000
30200000
00010000
00310000
00001000
,
00011000
00000100
00001000
00000000
00001001
00000001
00000100
00000000
,
00001010
00010000
00001000
00000000
00110000
10000000
00100000
10010000
,
00000000
01000000
10000000
01000000
00100000
00001000
00010000
00000100
,
00001100
00000000
00001000
00000010
00000100
00000001
00000010
00000011
,
00000000
00000001
00000100
00001000
00010000
00100000
00010000
00011000
,
00010000
00000000
01000000
00000000
10000000
00000000
01000000
00000000
00010000
00000000
00001000
00000000
00010000
00001000
00010000
00000000
,
00010100
00000000
00001000
00001100
00000000
00000100
00000110
00000000
,
00000010
00000000
00000011
00000000
00000001
00000100
00000010
00000000
00001010
00000000
00010000
00000000
00011000
00000000
00000000
00000000
,
00110000
00010000
01000000
00100000
10100000
10000000
01000000
00100000
00110000
00100000
00001000
00010000
00011000
00010000
00000100
00001000
,
00001100
00001000
00000010
00000100
00000101
00000001
00000010
00000100
,
00010100
00010000
00001000
00101000
00000000
00001000
00011000
00010000
,
01000000
10000000
00100000
00010000
00001000
00000100
00000001
00000100
,
00001100
00001000
00010000
00100000
10000000
00100000
00010000
00001000
,
00011000
00000100
00001000
00000010
00000100
00000001
00000010
00000100
,
00001000
00010000
00100000
10000000
01000000
00010000
00001000
00000100
00000001
00000100
00001000
00010000
,
01000000
10000000
00100000
01000000
01010000
00100000
00001000
00000000
,
00011000
00000100
00001000
00000010
00000100
00000001
00000011
00000000
,
00000101
00000000
00000100
00000000
00000010
00000000
00000010
00000000
00001000
00000100
00010000
00000000
00001000
00000000
00100000
00000000
,
00010000
01000000
01010000
00000000
11000000
00010000
00100000
00001000
,
00021000
00030200
00000320
00000032
,
00000203
00002300
00023000
00230000
,
20300000
32000000
03200000
00302000
,
00013000
00010000
00000100
00000100
00001000
00001000
00000010
00000010
,
00001010
00001000
00000001
00000000
00000101
00000001
00001000
00000000
,
00010100
00000100
00010000
00000000
00101000
00001000
00100000
00110000
,
00000000
00010000
01000000
00100000
10000000
01000000
00010000
00022000
,
00000000
00033000
00000000
00000000
00001000
00000010
00000000
00000011
,
00000000
00000001
00000100
00001000
00000100
00000001
00000100
00000100
,
00001000
00010000
00100000
10000000
01000000
00100000
01100000
00000000
,
11000000
00000000
10000000
10010000
00000000
00010000
00011000
00000000
,
00001000
00000000
00001100
00000000
00001000
00000010
00000100
00000000
00000001
00000000
00000010
00000000
00000011
00000000
00000000
00000000
,
00000011
00000000
00000001
00000100
00000010
00000000
00001000
00000000
00000100
00000000
00010000
00000000
00011000
00000000
00100000
00000000
,
00010000
00000000
00100000
00001000
00010000
00000000
00001000
00000000
00000010
00000000
00000100
00000000
00000001
00000000
00000100
00000000
,
00001000
00000000
00010000
00100000
10000000
00000000
10000000
01000000
10000000
00010000
10000000
00000000
10010000
00000000
10000000
00010000
,
01000000
00001000
00010000
00000000
00011000
00000000
00010000
00000000
00001100
00000000
00001100
00000000
00000101
00000000
00000101
00000000
,
00001002
00000000
00020000
00000003
,
00002000
00000000
00030000
00000000
20003000
00000000
00000000
31000000
,
00100000
00010000
00100000
01000000
10000000
00100000
00010000
00001000
,
00010000
00000000
00000000
00000000
00010000
00001000
00000000
00011000
,
00000000
00010000
00000100
00000010
00000001
00000100
00001000
00010000
,
00000000
00010000
00100000
20000000
01000000
01000000
31000000
00000000
,
11000000
00010000
01000000
00010000
00001000
00010000
00011000
00000000
,
00010000
00001000
00000100
00000001
00000100
00001000
00000001
00001000
,
00001100
00000100
00010000
00000000
00011000
00100000
00010000
00000000
,
10010000
00010000
10000000
00000000
10010000
10000000
00010000
01010000
,
00000000
01000000
00001000
00010000
00000100
00000010
00000001
00000010
,
00000100
00001000
00000010
00000010
00000100
00000100
00000010
00000110
,
00000100
00001000
00010000
00100000
00010000
00001000
00010000
01000000
,
10000000
00100000
01000000
00020000
00001000
00031000
00001000
00000000
,
00011000
00100000
00010000
01000000
00100000
10000000
01000000
00000000
,
00101000
00000000
00010000
00000000
00000100
00001000
00000001
00000000
00000010
00000000
00000100
00000000
00001000
00000000
00000000
00000000
,
00000011
00000000
00000001
00000000
00000100
00000000
00000010
00000000
00001000
00000000
00000100
00000000
00010000
00000000
00001000
00100000
,
00010000
00000000
10000000
00000000
10000000
01000000
00100000
00000000
00100000
00000000
00001000
00000000
00010000
00000100
00010000
00000100
,
00020000
00000000
00000000
00000000
,
00000000
00000000
00000000
00000000
00000000
00000000
00000000
00000000
00000000
00000000
00031000
00000000
00000000
00001000
00000000
00000000
,
00002000
00000000
00000000
00000000
00000000
00000000
00000000
00000000
00000000
00000000
00000200
00000000
00000000
00000000
00000000
00000000
00003000
00000000
00000000
00000000
00000300
00000000
00000000
00000000
00000001
00000000
00000000
00000010
00000000
00000000
00000200
00000000
,
00000000
00000000
00000000
00000300
00000000
MMMMMMMM
00012000
00000000
,
00103000
00000000
00000000
00000000
00100000
00010000
02000000
00000000
,
00000000
00000000
00000000
03000000
00100000
10000000
02000000
00000000
,
00000000
00000000
00000000
00000000
,
03000000
00000000
00000000
00000000
;

//---------------dance-double - ----------------
#NOTES:
     dance-double:
     :
     Medium:
     7:
     0.589,0.734,0.362,0.508,0.058:
00000000
00000000
00000000
00000000
,
00000000
00000000
00000000
00000000
,
00000000
00000000
00000000
00000000
,
10000000
01000000
00100000
00001000
00010000
00001000
00000000
00010000
,
00000100
00001000
00000000
00001100
00000000
00000000
00001001
00000001
,
00000100
00000010
00001000
00000100
00001000
00000010
00000000
00000010
,
00010000
00001000
00000000
00011000
00000000
00000000
00110000
00010000
,
02000000
00000000
00000000
00000000
00000000
03100000
10000000
01000000
,
00200000
00000000
00000000
00000000
00301000
00010000
00000100
00000010
,
00000001
00000000
00000001
00000100
00000001
00000010
00000001
00001000
,
00000100
00001000
00000000
00001100
00000000
00000100
00010000
00001000
,
00100000
00010000
01000000
00100000
10000000
01000000
00000000
01000000
,
00100000
00010000
00000000
00110000
00000000
00100000
00001000
00010000
,
00000100
00001000
00000010
00000100
00000001
00000010
00000000
00000010
,
00000001
00000100
00000000
00000101
00000000
00000100
00000010
00001000
,
00000200
00000000
00000000
00000000
00000000
00000310
00000001
00001000
,
00000200
00000000
00000000
00000000
00001300
00000100
00010000
00001000
,
00100000
00000000
00100000
00010000
01000000
00100000
10000000
01000000
,
00100000
00010000
00000000
00010000
00000000
00100000
00002000
00000000
,
00003200
00000302
00000203
00002300
,
00023000
02030000
23000000
32000000
,
03020000
00032000
00003200
00000320
,
00000032
00000203
00000320
00001030
,
00001020
00010030
00012000
00103000
,
00120000
00000000
10030000
00000000
10100000
00000000
00000000
10010000
,
00000000
01000000
10000000
01000000
00100000
00001000
00010000
00000200
,
00000000
00000000
00000300
00000000
00001000
00000010
00000000
00001010
,
00000000
00001000
00000010
00000100
00000001
00000010
00000100
00001000
,
00000000
00001000
00000100
00020000
00001000
00001000
00031000
00000000
,
00011000
00000000
00001000
00100000
00000000
00100000
00010000
00000000
,
00010000
01000000
00100000
10000000
01000000
00100000
00010000
00000000
,
00011000
00010000
00000100
00001000
00000010
00000100
00000001
00000010
00000100
00001000
00000000
00001100
00000000
00000000
00011000
00000000
,
00010000
00001000
00010000
00001000
00100000
00010000
00100000
00010000
,
01000000
00100000
00000000
10100000
00000000
00000000
10010000
00000000
,
00022000
00000000
00000000
00000000
00033000
00010000
00000100
00000010
,
00000002
00000000
00000000
00000000
00000103
00000010
00010000
00001000
,
00010000
00000000
00100000
00010000
01000000
00100000
10000000
01000000
,
00100000
00010000
10000000
01000000
00100000
00010000
10000000
01000000
00100000
00010000
00000000
00000000
,
10000000
01000000
00100000
00010000
00000000
00110000
00000000
00000000
,
00100000
00001000
00010000
00000100
00000000
00001100
00000000
00001000
,
00000010
00000100
00000001
00000010
00000100
00001000
00000010
00010000
,
00001000
00100000
00020000
00000000
01030000
00100000
10000000
01000000
,
00200000
00302000
00003200
00000302
,
00000023
00000032
00000203
00002300
,
00023000
02030000
23000000
30200000
,
20300000
32000000
03020000
00031000
,
00021000
00030100
00002100
00003001
,
00000102
00000000
00001003
00000000
00001200
00000000
00000300
00011000
,
00000000
00000000
00001000
00100000
00010000
00100000
00001000
00020000
,
00000000
00000000
00030000
00000000
00010000
10000000
00000000
10010000
,
00000000
10000000
01000000
00100000
00010000
00100000
00001000
00010000
,
00000000
00010000
00000100
00002000
00000010
00000010
00003010
00000000
,
00001010
00000000
00000001
00000100
00000000
00000100
00010000
00000000
,
00010000
00001000
00100000
00010000
01000000
00100000
10000000
00000000
,
10010000
00000000
10000000
00000000
10000000
00010000
01010000
00000000
,
00011000
00000000
00010000
00000000
00000100
00001000
00001100
00000000
,
00001001
00000001
00000100
00000010
00001000
00001000
00000100
00010000
,
00001000
00001000
00100000
00010000
01000000
00100000
10000000
01000000
,
20000000
00000000
30020000
00000000
,
00032000
00000000
00000000
00000000
00003002
00000000
00000000
00001000
,
00000003
00000100
00010000
00001000
00010000
00100000
00010000
00002000
,
00000000
00003000
00000000
00001000
00010000
00000000
00010000
01000000
,
10000000
00100000
01000000
00010000
00100000
00001000
00100000
00010000
,
00000000
00010000
00000100
00001000
00000100
00010000
00000100
00000000
,
00001100
00000000
00000010
00000011
00000000
00000001
00000101
00000000
,
00001000
00011000
00000000
00010000
10010000
00000000
00011000
00000000
,
00001002
00000103
00002001
00003010
,
00021000
00000000
00031000
00000000
00101000
00000000
00000000
10010000
,
00000000
10000000
01000000
00100000
01000000
10000000
01000000
00020000
,
00000000
00030000
00000000
00000000
00010000
00001000
00000000
00011000
,
00000000
00010000
00000100
00000010
00000001
00000100
00000010
00001000
,
00000000
00001000
00000100
00010000
00001000
00100000
00010000
00000000
,
10100000
00000000
10000000
01000000
00000000
01000000
00100000
00000000
,
00100000
00001000
00010000
00000100
00001000
00000010
00000100
00000000
,
00000001
00000100
00000001
00001000
00000001
00000100
00000001
00000000
,
00001000
00000100
00010000
00001000
00100000
00010000
10000000
01000000
,
00200000
00000000
00000000
00000000
,
00000000
00000000
00000000
00000000
00000000
00000000
00000000
00000000
00000000
00000000
00010000
00000000
00000000
00010000
00000000
00000000
,
00302000
00000000
00000000
00000000
00000000
00000010
00000000
00000000
00003000
00000000
00000000
00000000
00010000
00000000
00000000
00020000
,
00000000
00000000
00000000
00030000
00000000
MMMMMMMM
00002000
00000000
,
00003000
02000000
00000000
00000000
00010000
00000000
03020000
00000000
,
00000000
00000000
00100000
00200000
,
00000000
00000000
00000000
00000000
,
00330000
00000000
00000000
00000000
;

//---------------dance-double - ----------------
#NOTES:
     dance-double:
     :
     Easy:
     5:
     0.420,0.575,0.446,0.323,0.019: // measure 1
00000000
00000000
00000000
00000000
,  // measure 2
00000000
00000000
00000000
00000000
,  // measure 3
00000000
00000000
00000000
00000000
,  // measure 4
10000000
01000000
00100000
00101000
,  // measure 5
00001000
00010000
00000100
00001100
,  // measure 6
00001000
00000010
00000100
00000110
,  // measure 7
00000100
00000001
00000010
00000011
,  // measure 8
00002002
00000000
00003003
00011000
,  // measure 9
20020000
00000000
30030000
00011000
,  // measure 10
00001001
00000001
00000100
00000010
,  // measure 11
00002000
00000000
00000000
00003100
00000000
00000000
00010000
00000000
,  // measure 12
00011000
00100000
10000000
01000000
,  // measure 13
00010000
00001000
00000100
00001001
,  // measure 14
00000001
00000010
00001000
00010000
,  // measure 15
00001000
00000000
00000000
00000010
00000000
00000000
00000011
00000000
,  // measure 16
00000220
00000000
00000330
00011000
,  // measure 17
02200000
00000000
03300000
00011000
,  // measure 18
00000110
00000001
00000100
00000010
,  // measure 19
00002000
00000000
00000000
00003100
00000000
00000000
00010000
00000000
,  // measure 20
00002000
00023000
00032000
00003200
,  // measure 21
00000302
00000203
00002300
00023000
,  // measure 22
02030000
23000000
32000000
03020000
,  // measure 23
00032000
00003200
00000302
00000203
,  // measure 24
00002300
00000000
00023000
00000000
,  // measure 25
00230000
00000000
00000000
00000000
20300000
00000000
00000000
01000000
,  // measure 26
30000000
00000000
01000000
00000000
00100000
00000000
00010000
00100000
,  // measure 27
00000000
00000000
00001000
00000000
00010000
00001000
00000000
00011000
,  // measure 28
00000000
00000100
00001000
00000010
,  // measure 29
00000100
00000000
00000001
00000000
00000010
00000100
00000100
00000000
,  // measure 30
00001100
00000000
00000000
00011000
00000000
00000000
01010000
00000000
,  // measure 31
00000000
00011000
00000000
00000000
00011000
00000000
00011000
00000000
,  // measure 32
00011000
00000000
00100000
00000000
00010000
01000000
00010000
00000000
10000000
00000000
00100000
00000000
01000000
00010000
01000000
00000000
,  // measure 33
00100000
00000000
00100000
00000000
00000000
00011000
00000000
00000000
,  // measure 34
00000010
00000010
00000001
00000101
,  // measure 35
00000200
00000000
00000300
00010000
,  // measure 36
02000000
00000000
03001000
00000100
,  // measure 37
00000001
00000100
00001000
00000100
,  // measure 38
00000001
00000000
00000000
00000001
00000000
00000000
00001001
00000000
,  // measure 39
00000002
00000000
00000000
00000100
00000000
00000103
00000000
00000000
,  // measure 40
00002000
00000000
00000000
00000100
00000000
00003100
00000000
00000000
,  // measure 41
00001000
00000100
00010000
00001000
,  // measure 42
00100000
00010000
01000000
00100000
,  // measure 43
10000000
10000000
01000000
01000000
,  // measure 44
00010000
00010000
00001000
00001000
,  // measure 45
00000100
00000100
00000001
00000001
,  // measure 46
00000010
00000010
00001000
00001000
,  // measure 47
00011000
00000000
00110000
00000000
,  // measure 48
00011000
00000000
00000000
00000000
00001010
00000000
00000000
00001001
,  // measure 49
00000000
00000000
00000001
00000000
00000100
00000000
00000010
00001000
,  // measure 50
00000000
00000000
00000100
00000000
00010000
00001000
00000000
00011000
,  // measure 51
00000000
00001000
00100000
00010000
,  // measure 52
01000000
00100000
10000000
10000000
,  // measure 53
11000000
00000000
00000000
01010000
00000000
00000000
00011000
00000000
,  // measure 54
00000000
00001100
00000000
00000000
00000101
00000000
00001001
00000000
,  // measure 55
00001100
00010000
00001000
00100000
,  // measure 56
00110000
00010000
10000000
01000000
,  // measure 57
00110000
00100000
00001000
00011000
,  // measure 58
00000100
00000000
00001100
00000000
00001000
00000100
00000010
00000001
,  // measure 59
00002000
00000000
00003200
00000000
,  // measure 60
00020300
00000000
00000000
00000000
00032000
00000000
00000000
00013000
,  // measure 61
00000000
00000000
00001000
00000000
00100000
00000000
00010000
01000000
,  // measure 62
00000000
00000000
00000000
00000000
01000000
00100000
00000000
00100000
,  // measure 63
00000000
00000000
01000000
00000000
00001000
00000000
00010000
00000100
,  // measure 64
00000000
00000000
00000100
00000000
00001000
00000100
00001000
00000000
,  // measure 65
00001100
00000000
00000000
00001001
00000000
00000000
00000101
00000000
,  // measure 66
00000000
00001001
00000000
00000000
00001100
00000000
00011000
00000000
,  // measure 67
01010000
10000000
11000000
00010000
,  // measure 68
01010000
00000000
00010000
00000000
00011000
00000000
00000000
00001100
,  // measure 69
00000000
00000000
00000010
00000000
00000001
00000000
00000100
00000010
,  // measure 70
00000000
00000000
00000010
00000000
00001000
00000100
00000000
00010000
,  // measure 71
00001000
00000000
00001000
00000000
00100000
00000000
00010000
01000000
,  // measure 72
00000000
00100000
10000000
00010000
,  // measure 73
11000000
00000000
00010000
00000000
01000000
00001000
00010000
00000000
,  // measure 74
00000100
00000000
00001100
00000000
00001000
00000010
00000100
00000000
,  // measure 75
00000100
00000000
00000001
00000000
00000010
00000100
00001000
00000000
,  // measure 76
00000100
00000000
00010000
00000000
00001000
00000000
00010000
00001000
,  // measure 77
00020000
00000000
00000000
00000000
,  // measure 78
00000000
00000000
00000000
00000000
00000000
00000000
00000000
00000000
00000000
00000000
00001000
00000000
00000000
00001000
00000000
00000000
,  // measure 79
00001000
00000000
00000000
00000000
00000000
00001000
00000000
00000000
00000000
00000000
00000000
00000000
00001000
00000000
00000000
00002000
,  // measure 80
00000000
00000000
00000000
00000000
00000000
00003000
00000000
00000000
00000000
00000000
0000M000
00000000
00001000
00000000
00000000
00000000
,  // measure 81
00000000
00001000
00000000
00000000
00001000
00000000
00002000
00000000
,  // measure 82
00000000
00003000
00001000
00002000
,  // measure 83
00000000
00000000
00000000
00000000
,  // measure 84
00033000
00000000
00000000
00000000
;
