#TITLE:リメンバーリメンバー;
#SUBTITLE:;
#ARTIST:rino & m@sumi from plastic penguin;
#TITLETRANSLIT:Remember Remember;
#SUBTITLETRANSLIT:;
#ARTISTTRANSLIT:;
#CREDIT:Lisek;
#BANNER:[ROUND H] - Remember Remember.png;
#BACKGROUND:[ROUND H] - Remember Remember-bg.png;
#LYRICSPATH:;
#CDTITLE:cdtitle.png;
#MUSIC:[ROUND H] - Remember Remember.ogg;
#OFFSET:0.618;
#SAMPLESTART:24.790;
#SAMPLELENGTH:14.860;
#SELECTABLE:YES;
#BPMS:0.000=182.000;
#STOPS:;
#BGCHANGES:;

//---------------dance-single - Lisek----------------
#NOTES:
     dance-single:
     Lisek:
     Beginner:
     1:
     0.038,0.069,0.000,0.050,0.000: // measure 1
0000
0000
0000
0000
,  // measure 2
0000
0000
0000
0000
,  // measure 3
0000
0000
0000
0000
,  // measure 4
0000
0000
0000
1000
,  // measure 5
0000
0000
0000
0000
,  // measure 6
0000
0001
0000
0000
,  // measure 7
0000
0000
0000
1000
,  // measure 8
0000
0000
0000
0000
,  // measure 9
0000
0000
0000
0000
,  // measure 10
0000
0000
0000
0001
,  // measure 11
0000
0000
0000
0000
,  // measure 12
0000
0000
0000
0000
,  // measure 13
0000
0000
0000
0100
,  // measure 14
0000
0000
0000
0000
,  // measure 15
0000
0000
0000
0000
,  // measure 16
0000
0000
0000
0010
,  // measure 17
0000
0000
0000
0000
,  // measure 18
0000
0000
0000
0000
,  // measure 19
0000
0000
0000
0000
,  // measure 20
0000
0000
1000
0000
,  // measure 21
0000
0000
0000
0000
,  // measure 22
0000
0000
0000
0000
,  // measure 23
0000
0000
0001
0000
,  // measure 24
0000
0000
0000
0000
,  // measure 25
0000
0000
0000
0000
,  // measure 26
0000
0000
0100
0000
,  // measure 27
0000
0000
0000
0000
,  // measure 28
0000
0000
0000
0000
,  // measure 29
0000
0000
0010
0000
,  // measure 30
0000
0000
0000
0000
,  // measure 31
0000
0000
0000
0000
,  // measure 32
0000
0000
2000
0000
,  // measure 33
0000
0000
0000
3000
,  // measure 34
0000
0000
0000
0000
,  // measure 35
0000
0000
0000
0000
,  // measure 36
0000
0000
0000
0000
,  // measure 37
0000
0000
0000
0000
,  // measure 38
0000
0000
0002
0000
,  // measure 39
0000
0000
0000
0003
,  // measure 40
0000
0000
0000
0000
,  // measure 41
0000
0000
0000
0000
,  // measure 42
0000
0000
0000
0000
,  // measure 43
0000
0000
0000
0000
,  // measure 44
0000
0000
0200
0000
,  // measure 45
0000
0000
0000
0300
,  // measure 46
0000
0000
0000
0000
,  // measure 47
0000
0000
0000
0000
,  // measure 48
0000
0000
0000
0000
,  // measure 49
0000
0000
0000
0000
,  // measure 50
0000
0000
0020
0000
,  // measure 51
0000
0000
0000
0030
,  // measure 52
0000
0000
0000
0000
,  // measure 53
0000
0000
0200
0000
,  // measure 54
0000
0000
0000
0300
,  // measure 55
0000
0000
0000
0000
,  // measure 56
0000
0000
0001
0000
,  // measure 57
0000
0000
0000
0000
,  // measure 58
0000
0000
0000
0000
,  // measure 59
0000
0000
1000
0000
,  // measure 60
0000
0000
0000
0000
,  // measure 61
0000
0000
0000
0000
,  // measure 62
0000
0000
0010
0000
,  // measure 63
0000
0000
0000
0000
,  // measure 64
0000
0000
0000
0000
,  // measure 65
0000
0000
0100
0000
,  // measure 66
0000
0000
0000
0000
,  // measure 67
0000
0000
0000
0000
,  // measure 68
0000
0000
0001
0000
,  // measure 69
0000
0000
0000
0000
,  // measure 70
0000
0000
0000
0000
,  // measure 71
0000
0000
1000
0000
,  // measure 72
0000
0000
0000
0000
,  // measure 73
0000
0000
0000
0000
,  // measure 74
0000
0000
0010
0000
,  // measure 75
0000
0000
0000
0000
,  // measure 76
0000
0000
0000
0000
,  // measure 77
0000
0000
0100
0000
,  // measure 78
0000
0000
0000
0000
,  // measure 79
0000
0000
0000
0000
,  // measure 80
0000
0000
0001
0000
,  // measure 81
0000
1000
0000
0000
,  // measure 82
0002
0000
0000
0000
,  // measure 83
0000
0000
0003
0000
;

//---------------dance-single - Lisek----------------
#NOTES:
     dance-single:
     Lisek:
     Hard:
     6:
     0.342,0.413,0.125,0.200,0.000:
0000
0000
0000
0000
,
0000
0000
0000
0000
,
0000
0000
0000
0000
,
0000
0000
0000
1000
,
0001
0010
0100
1000
,
0010
0100
0001
1000
,
1001
0000
1000
1100
,
0100
0010
0011
0001
,
0010
0001
0010
0100
0000
1000
0000
0100
,
0010
0000
0001
0101
,
0100
0010
1010
1000
,
0001
0100
0010
1000
0000
0001
0000
0010
,
0100
0000
1000
0001
,
0100
1000
0100
0001
,
1000
0000
0100
0010
0000
0001
0000
0100
,
0010
0000
0000
0000
1000
0100
0010
0000
,
0000
0001
0010
0100
,
1000
0020
0100
0000
,
0130
0000
0000
0MM0
,
0000
0001
0011
0010
,
0100
1100
1000
0001
,
0100
0010
0000
1000
0000
0001
1000
0000
,
0000
0001
0101
0100
,
0010
1010
1000
0010
,
0100
0010
0000
1000
0000
0001
0100
0000
,
0000
0001
1000
0100
,
0001
0100
1000
0001
,
1000
0010
0000
0100
0000
0010
1000
0000
,
0000
0000
0100
0010
0001
0000
0000
0000
,
0010
0100
1000
0001
,
0200
0010
0000
0310
,
0110
0000
0002
0000
,
0003
2000
0000
3000
,
0000
0010
0100
0001
,
1000
0100
0010
0001
,
1000
0100
1000
0001
,
0010
0000
0100
0000
0000
1000
0100
0000
,
0000
0000
2000
0000
,
3000
0002
0000
0003
,
0100
0010
1000
0100
,
0010
0100
1000
0001
,
0010
0100
1000
0000
,
0000
1000
0100
0010
,
0001
1000
0000
0000
0002
0000
0000
0000
,
0003
2000
0000
3000
,
0000
0010
0100
0001
,
1000
0100
0020
0000
,
0032
0000
1003
0010
,
0100
0001
0010
0100
,
0000
1000
0002
0000
,
0000
0003
0000
0100
,
2000
0000
3200
0000
,
0300
0001
2000
0000
,
0000
0000
3000
0100
,
0002
0000
0203
0000
,
0300
1000
0200
0000
,
0300
0020
0000
0030
,
0001
0000
0000
0010
0000
0000
0100
0000
,
0000
0000
2000
0000
,
3000
0002
0000
0003
,
1000
0000
0000
0100
0000
0010
0001
0000
,
0000
1000
0100
1000
,
0001
0010
0001
0100
,
0010
0100
0000
0010
0000
0100
0010
0000
,
0000
0000
1000
0100
1000
0000
0000
0000
,
0001
0100
0001
1000
,
0010
0000
1000
0001
,
0100
0000
0001
0000
1100
0000
0000
0110
,
0000
0011
0000
0000
,
0001
0100
0000
0010
0000
1000
0000
0100
,
0000
1000
1100
0100
,
0010
0011
0001
1000
,
0010
0100
0000
0001
0000
1000
0010
0000
,
0000
1000
0001
0100
,
1000
0100
0001
1000
,
0100
0010
0000
0001
0000
1000
0001
0000
,
0000
0000
0100
0010
1000
0000
0000
0000
,
0001
0010
0100
0010
,
0002
0000
0103
0010
,
1000
0001
0020
0000
,
0030
0200
0000
0300
,
2000
0000
0000
0000
,
0000
0000
3000
0000
;

//---------------dance-single - Lisek----------------
#NOTES:
     dance-single:
     Lisek:
     Medium:
     3:
     0.166,0.206,0.008,0.158,0.000:
0000
0000
0000
0000
,
0000
0000
0000
0000
,
0000
0000
0000
0000
,
0000
0000
0000
1000
,
0000
0000
0001
0000
,
0000
0100
0000
0000
,
1001
0000
0000
0001
,
0000
0000
1000
0000
,
0000
0000
0010
0000
0000
0100
0000
0000
,
0010
0000
0000
1000
,
0000
0000
0100
0000
,
0000
0000
1000
0000
0000
0001
0000
0000
,
1000
0000
0000
0001
,
0000
0000
0100
0000
,
0000
0010
0000
0000
,
1000
0000
0001
1000
,
0000
0010
0100
0000
,
0000
0002
0000
0000
,
1003
0000
0000
0000
,
0000
0000
1000
0000
,
0000
0010
0000
0000
,
0100
0000
0000
0001
0000
0000
0100
0000
,
0000
0000
0001
0000
,
0000
1000
0000
0000
,
0010
0000
0000
1000
0000
0000
0010
0000
,
0000
0000
1000
0000
,
0000
0100
0000
0000
,
0010
0000
0000
0001
,
0000
1000
0001
0000
,
0100
0010
0000
0000
,
2000
0000
0000
0000
,
3001
0000
0002
0000
,
0000
2003
0000
0000
,
3001
0000
0000
0100
,
0000
0000
0010
0000
,
0000
1000
0000
0000
,
0001
0000
0000
0000
0000
0100
0001
0000
,
0000
0000
2000
0000
,
0000
3020
0000
0000
,
0130
0000
0000
0001
,
0000
0000
0100
0000
,
0000
0010
0000
0000
,
1000
0000
0000
0001
,
0000
0000
0200
0000
,
0000
0302
0000
0000
,
1003
0000
0000
0001
,
0000
0000
0010
0000
,
0000
0100
0000
0000
,
1000
0001
1000
0001
,
0000
0001
2000
0000
,
0000
3000
0000
0010
,
0200
0000
0320
0000
,
0030
1000
0002
0000
,
0000
0000
0003
0100
,
0020
0000
2030
0000
,
3000
0000
0001
0000
,
0000
1000
0000
0000
,
0010
0000
0000
0100
0000
0000
0010
0000
,
0000
0000
1000
0000
,
0000
0001
0000
0000
,
0100
0000
0000
0010
0000
0000
0100
0000
,
0000
0000
0001
0000
,
0000
0010
0000
0000
,
0100
0000
0000
1000
,
0000
0000
0010
0000
,
0000
0100
0000
0000
,
0001
0000
0000
1000
,
0000
0000
0000
0000
0001
0000
0000
1000
,
0000
0001
0000
0000
,
0200
0000
0000
0000
,
0300
0000
0010
0000
,
0000
1000
0000
0000
,
0002
0000
0000
0000
,
0003
0000
1000
0000
,
0000
0010
0000
0000
,
0100
0000
0000
0001
,
0000
1000
0001
0000
,
0100
0010
0000
0000
,
1000
0000
0000
0001
,
0000
0000
0200
0000
,
0300
0020
0000
0030
,
2000
0000
0000
0000
,
0000
0000
3000
0000
;

//---------------dance-single - Lisek----------------
#NOTES:
     dance-single:
     Lisek:
     Easy:
     2:
     0.118,0.138,0.008,0.133,0.000: // measure 1
0000
0000
0000
0000
,  // measure 2
0000
0000
0000
0000
,  // measure 3
0000
0000
0000
0000
,  // measure 4
0000
0000
0000
2000
,  // measure 5
0000
0000
0000
0000
,  // measure 6
3000
0002
0000
0000
,  // measure 7
0003
0000
0000
1000
,  // measure 8
0000
0000
0001
0000
,  // measure 9
0000
1000
0000
0000
,  // measure 10
0000
0000
0000
0001
,  // measure 11
0000
0000
0100
0000
,  // measure 12
0000
0001
0000
0000
,  // measure 13
0000
0000
0000
1000
,  // measure 14
0000
0000
0010
0000
,  // measure 15
0000
1000
0000
0000
,  // measure 16
0000
0000
0000
0001
,  // measure 17
0000
0000
1000
0000
,  // measure 18
0000
0001
0000
0000
,  // measure 19
0000
0000
0000
0000
,  // measure 20
0000
0000
1000
0000
,  // measure 21
0000
0010
0000
0000
,  // measure 22
0100
0000
0000
0000
,  // measure 23
0000
0000
0001
0000
,  // measure 24
0000
1000
0000
0000
,  // measure 25
0010
0000
0000
0000
,  // measure 26
0000
0000
1000
0000
,  // measure 27
0000
0001
0000
0000
,  // measure 28
0100
0000
0000
0001
,  // measure 29
0000
0000
1000
0000
,  // measure 30
0000
0010
0000
0000
,  // measure 31
1000
0000
0000
0001
,  // measure 32
0000
0000
0200
0000
,  // measure 33
0000
0000
0000
0300
,  // measure 34
0001
0000
0000
0100
,  // measure 35
0000
0000
0001
0000
,  // measure 36
0000
0100
0000
0000
,  // measure 37
0010
0000
0000
1000
,  // measure 38
0000
0000
0020
0000
,  // measure 39
0000
0000
0000
0030
,  // measure 40
1000
0000
0000
0010
,  // measure 41
0000
0000
1000
0000
,  // measure 42
0000
0010
0000
0000
,  // measure 43
0100
0000
0000
0001
,  // measure 44
0000
0000
0200
0000
,  // measure 45
0000
0000
0000
0300
,  // measure 46
0001
0000
0000
0100
,  // measure 47
0000
0000
0001
0000
,  // measure 48
0000
0100
0000
0000
,  // measure 49
0010
0000
0000
1000
,  // measure 50
0000
0000
0002
0000
,  // measure 51
0000
0003
0000
0000
,  // measure 52
2000
0000
0000
3000
,  // measure 53
0000
0000
0020
0000
,  // measure 54
0000
0030
0000
0000
,  // measure 55
0200
0000
0000
0300
,  // measure 56
0000
0000
0001
0000
,  // measure 57
0000
1000
0000
0000
,  // measure 58
0001
0000
0000
0000
,  // measure 59
0000
0000
0100
0000
,  // measure 60
0000
0010
0000
0000
,  // measure 61
0100
0000
0000
0000
,  // measure 62
0000
0000
0001
0000
,  // measure 63
0000
0010
0000
0000
,  // measure 64
0001
0000
0000
0100
,  // measure 65
0000
0000
0001
0000
,  // measure 66
0000
1000
0000
0000
,  // measure 67
0001
0000
0000
0000
,  // measure 68
0000
0000
2002
0000
,  // measure 69
0000
3003
0000
0000
,  // measure 70
2000
0000
0000
0000
,  // measure 71
3000
0000
0001
0000
,  // measure 72
0000
1000
0000
0000
,  // measure 73
0002
0000
0000
0000
,  // measure 74
0003
0000
0100
0000
,  // measure 75
0000
0001
0000
0000
,  // measure 76
1000
0000
0000
0001
,  // measure 77
0000
0000
1000
0000
,  // measure 78
0000
0010
0000
0000
,  // measure 79
1000
0000
0000
0001
,  // measure 80
0000
0000
2000
0000
,  // measure 81
3000
0200
0000
0300
,  // measure 82
0020
0000
0000
0000
,  // measure 83
0000
0000
0030
0000
;
