#TITLE:Porta Vista;
#SUBTITLE:;
#ARTIST:Hyper Potions;
#TITLETRANSLIT:;
#SUBTITLETRANSLIT:;
#ARTISTTRANSLIT:;
#GENRE:;
#CREDIT:;
#BANNER:[ROUND H] - Porta Vista.png;
#BACKGROUND:[ROUND H] - Porta Vista-bg.png;
#LYRICSPATH:;
#CDTITLE:cdtitle.png;
#MUSIC:[ROUND H] - Porta Vista.ogg;
#OFFSET:-0.010000;
#SAMPLESTART:76.824028;
#SAMPLELENGTH:12.800003;
#SELECTABLE:YES;
#BPMS:0.000000=150.000000
,87.000000=75.000000
,104.000000=150.000000
;
#STOPS:29.500000=0.800001,
58.000000=1.200001,
87.000000=0.800000,
164.000000=1.200005,
193.000000=1.200005
;
#BGCHANGES:;
#KEYSOUNDS:;
#ATTACKS:;

//---------------dance-single - ----------------
#NOTES:
     dance-single:
     :
     Challenge:
     8:
     0.443008,0.779169,0.156224,0.273393,0.187469,397.000000,377.000000,20.000000,35.000000,0.000000,0.000000,0.443008,0.779169,0.156224,0.273393,0.187469,397.000000,377.000000,20.000000,35.000000,0.000000,0.000000:
0000
0000
0000
0000
,
0000
0000
0000
0000
,
0000
0000
0000
0000
,
0000
0000
0000
0000
,
0001
0010
0001
1000
0010
1000
0001
0100
,
0001
0000
1000
0000
0100
0000
1000
0000
0001
0000
0100
0000
0001
0000
1000
0100
,
0010
0001
0100
0010
1000
0100
0010
0001
,
0100
0000
1000
0000
0100
0000
0001
0000
1001
0000
0000
0000
0000
0000
1000
0100
,
0020
0000
0000
0000
1000
0000
0000
0000
0031
0000
0000
0000
0000
0000
0001
0100
,
0020
0000
0000
0000
0001
0000
0000
0000
1030
0000
0000
0000
0000
0000
1000
0100
,
0020
0000
1000
0000
0031
0100
1000
0000
,
1100
0000
0000
0000
0101
0000
0000
0000
1001
0000
0000
0000
0000
0000
1000
0010
,
0200
0000
0000
0000
1000
0000
0000
0000
0301
0000
0000
0000
0000
0000
0001
0010
,
0200
0000
0000
0000
0001
0000
0000
0000
1300
0000
0000
0000
0000
0000
1000
0010
,
0200
0000
0000
0000
1000
0000
0000
0000
0301
0000
0000
0000
1000
0000
0010
1000
,
0100
0010
2000
0000
3010
0000
1000
0010
,
0001
0000
0010
0000
2000
0000
0000
0000
3010
0000
0000
0000
0001
0000
0010
0001
,
0100
0010
0002
0000
0013
0000
0001
0010
,
1000
0000
0100
0000
0001
0000
1000
0000
0010
0000
0001
0000
1000
0000
0100
1000
,
0010
0100
2000
0000
3100
0000
1000
0100
,
0001
0000
0100
0000
2000
0000
0000
0000
3100
0000
0000
0000
0001
0000
0100
0001
,
0010
0100
0002
0000
0103
0000
1000
0000
,
0000
1000
0100
0010
0001
0010
0100
1000
0000
0100
1000
0010
0001
0010
1000
0100
,
0000
0010
0001
0100
0010
1000
0001
0010
1000
0010
0001
0100
0010
1000
0001
0010
,
0000
0100
1000
0010
0000
0100
0001
0010
0000
0001
0100
0010
0000
1000
0100
0010
,
0000
0000
0010
0000
1000
0010
0001
0100
0010
0000
0100
0001
1000
0100
1000
0010
,
0002
0000
0013
0000
1000
0010
0002
0000
,
0013
0000
0000
0000
0010
1000
0001
0010
,
2000
0000
3010
0000
0001
0010
2000
0000
,
3010
0000
0000
0000
1000
0010
0001
0100
,
2000
0000
3100
0000
0001
0100
2000
0000
,
3100
0000
0000
0000
0100
0001
1000
0100
,
0002
0000
0103
0000
1000
0100
0002
0000
,
0103
0000
0000
0000
1000
0100
0010
0001
,
1000
0000
0010
1000
0100
0000
0001
0000
,
0100
0000
0000
0000
1000
0000
0010
0000
0100
0000
0000
0000
0100
0000
0001
1000
,
0001
0000
0010
0001
0100
0000
1000
0000
,
0100
0000
0000
0000
0001
0000
0010
0000
0100
0000
1000
0001
0000
1000
0001
1000
,
0001
0100
0100
1000
0100
0100
0001
1000
,
0001
0000
0010
0000
0010
0000
1000
0000
0010
0000
0010
0000
0001
0000
1000
0001
,
1000
0010
0001
0010
1000
0100
0001
0100
,
1000
1001
1000
1020
,
0001
0000
0130
0000
0010
1000
0100
0001
,
0100
0010
0001
0000
0010
0000
0021
0000
,
1000
0000
0000
0000
0130
0000
0000
0000
0010
0000
0001
0100
0010
0000
0002
0000
,
0000
0013
1000
0000
0100
0000
0210
0000
,
0001
0000
1300
0000
0100
1000
0010
0001
,
0010
0100
0001
0000
0100
0000
1000
0100
,
0010
0100
0001
0000
1001
0000
0001
0000
,
0021
0000
1000
0000
0130
0000
0010
0001
,
0100
1000
0100
0010
1000
0000
0010
0000
,
1020
0000
0000
0000
0001
0000
0000
0000
0130
0000
0000
0000
0010
0000
1000
0100
,
0010
2000
0000
3010
0001
0000
0100
0000
,
0210
0000
1000
0000
0301
0000
1000
0100
,
0001
0100
0010
0001
1000
0000
0100
0000
,
0001
0000
0100
0000
0010
0000
0100
0000
1000
0000
0000
0000
0001
0000
0100
0010
,
2000
0000
3010
1000
0100
0000
1000
0000
,
2010
0000
0001
0000
3100
0000
1000
0100
,
0000
0110
0000
1001
0000
0000
0001
0000
,
0012
0000
1000
0000
0103
0000
0001
0010
,
0000
1020
0000
0031
0000
0000
0001
0000
,
0201
0000
0010
0000
1300
0000
1000
0100
,
0000
0110
0000
1001
0000
0000
0000
0000
,
1000
0100
0010
0001
0000
0000
2000
0000
,
0000
3001
0000
0000
0200
0000
0000
0000
,
0000
0000
0000
0000
,
0000
0000
0300
0000
;

//---------------dance-single - ----------------
#NOTES:
     dance-single:
     :
     Hard:
     7:
     0.388329,0.467501,0.164036,0.312449,0.062490,348.000000,327.000000,21.000000,40.000000,0.000000,0.000000,0.388329,0.467501,0.164036,0.312449,0.062490,348.000000,327.000000,21.000000,40.000000,0.000000,0.000000:
// measure 0
0000
0000
0000
0000
,  // measure 1
0000
0000
0000
0000
,  // measure 2
0000
0000
0000
0000
,  // measure 3
0000
0000
0000
0000
,  // measure 4
0001
0000
0010
0001
0100
0000
0010
0000
,  // measure 5
1000
0000
0100
1000
0010
0000
0100
0001
,  // measure 6
1000
0100
0010
0001
0010
0100
1000
0001
,  // measure 7
0100
0000
1000
0000
0100
0000
0001
0000
1001
0000
0000
0000
0000
0000
0001
0010
,  // measure 8
0001
0000
0000
0000
0011
0000
0000
0000
0000
0000
0000
0000
0000
0000
1000
0010
,  // measure 9
1000
0000
0000
0000
1010
0000
0000
0000
0101
0000
0000
0000
0000
0000
0001
1000
,  // measure 10
0001
0000
1001
0000
0001
1000
0100
0000
,  // measure 11
0101
0000
0000
0000
1100
0000
0000
0000
1001
0000
0000
0000
0000
0000
1000
0100
,  // measure 12
1000
0000
0000
0000
1100
0000
0000
0000
0000
0000
0000
0000
0000
0000
0001
0100
,  // measure 13
0001
0000
0000
0000
0101
0000
0000
0000
1010
0000
0000
0000
0000
0000
1000
0001
,  // measure 14
1000
0000
0000
0000
1001
0000
0000
0000
0000
0000
0000
0000
0000
0000
0001
0100
,  // measure 15
0001
1000
0200
0000
0310
0000
0001
0100
,  // measure 16
0010
0000
1000
0000
0200
0000
0000
0000
0310
0000
0000
0000
0000
0000
0001
0100
,  // measure 17
0001
1000
0200
0000
0310
0000
0010
0100
,  // measure 18
1000
0000
0100
0000
0001
0000
0100
0000
1000
0000
0010
0000
0000
0000
1000
0010
,  // measure 19
1000
0001
0020
0000
0130
0000
1000
0010
,  // measure 20
0100
0000
0001
0000
0020
0000
0000
0000
0031
0000
0000
0000
0000
0000
1000
0010
,  // measure 21
1000
0001
0020
0000
0031
0000
1000
0000
,  // measure 22
2000
0000
3001
0200
0000
0300
0002
0000
,  // measure 23
0023
0000
0000
0130
1000
0000
0002
0000
0000
0000
0003
0000
0200
0000
0310
0000
,  // measure 24
2000
0000
3001
0020
0000
0030
0200
0000
,  // measure 25
0320
0000
0000
0000
0031
0000
2000
0000
0000
0000
3000
0000
0010
1000
0010
0100
,  // measure 26
0002
0000
0013
0000
0100
0010
0002
0000
,  // measure 27
0103
0000
0000
0000
0100
0001
1000
0010
,  // measure 28
0200
0000
0310
0000
1000
0100
0020
0000
,  // measure 29
0130
0000
0000
0000
0010
0001
0100
0010
,  // measure 30
2000
0000
3001
0000
0100
0001
0020
0000
,  // measure 31
0130
0000
0000
0000
0100
1000
0100
0010
,  // measure 32
0002
0000
1003
0000
0100
1000
0020
0000
,  // measure 33
0130
0000
0000
0000
0001
0100
0010
1000
,  // measure 34
0001
0000
0010
0001
1000
0000
0001
0000
,  // measure 35
0100
0000
0000
0000
0010
0000
1000
0000
0001
0000
0000
0000
1000
0000
0001
1000
,  // measure 36
0001
0000
0010
0001
0100
0000
0010
0000
,  // measure 37
1000
0000
0000
0000
0100
0000
0010
0000
0001
0000
0010
0001
0000
0010
0001
0000
,  // measure 38
1000
0010
0100
0001
0100
0010
1000
0010
,  // measure 39
1000
0100
0010
0001
0010
0100
1000
0001
,  // measure 40
1000
0010
0100
0001
1000
0100
0001
0100
,  // measure 41
1000
1001
1000
2010
,  // measure 42
0001
0000
3100
0000
1000
0100
0010
0001
,  // measure 43
0100
0010
1000
0000
0001
0000
0012
0000
,  // measure 44
1000
0000
0103
0000
0010
1000
0010
0002
,  // measure 45
0000
0013
1000
0000
0100
0000
0120
0000
,  // measure 46
0001
0000
0130
0000
1000
0010
1000
0100
,  // measure 47
0010
0001
0100
0000
0001
0000
1000
0100
,  // measure 48
0001
0100
1000
0000
1001
0000
0001
0000
,  // measure 49
0012
0000
1000
0000
0103
0000
0010
1000
,  // measure 50
0100
0010
0001
0100
0010
0000
1000
0000
,  // measure 51
2010
0000
0001
0000
3100
0000
0010
0001
,  // measure 52
0010
2000
0000
3010
0001
0000
0100
0000
,  // measure 53
0120
0000
1000
0000
0130
0000
0001
0010
,  // measure 54
0001
0100
0010
1000
0100
0000
1000
0000
,  // measure 55
0001
0100
1000
0100
0001
0000
0020
0000
,  // measure 56
0031
0010
1000
0010
0001
0000
1000
0000
,  // measure 57
0020
0000
0001
0000
1030
0000
1000
0100
,  // measure 58
0000
0010
0000
0001
0000
0000
0001
0000
,  // measure 59
0020
0000
1000
0000
0031
0000
0100
0010
,  // measure 60
0000
2001
0000
3100
0000
0000
1000
0000
,  // measure 61
0200
0000
0001
0000
1300
0000
1000
0001
,  // measure 62
0000
0100
0000
0010
0000
0000
0000
0000
,  // measure 63
0100
0010
1000
0100
0000
0000
0020
0000
,  // measure 64
0000
0031
0000
0000
2000
0000
0000
0000
,  // measure 65
0000
0000
0000
0000
,  // measure 66
0000
0000
3000
0000
;

//---------------dance-single - ----------------
#NOTES:
     dance-single:
     :
     Medium:
     5:
     0.321376,0.389585,0.218714,0.226525,0.003906,288.000000,260.000000,28.000000,29.000000,0.000000,0.000000,0.321376,0.389585,0.218714,0.226525,0.003906,288.000000,260.000000,28.000000,29.000000,0.000000,0.000000:
0000
0000
0000
0000
,
0000
0000
0000
0000
,
0000
0000
0000
0000
,
0000
0000
0000
0000
,
0001
0010
0001
0100
,
0010
1000
0100
1000
,
0001
0100
1000
0010
,
0001
0100
0010
1000
1001
0000
0000
0001
,
0010
0000
1100
0000
0000
0000
0000
1000
,
0010
0000
0101
0000
1100
0000
0000
0010
,
0001
0000
1001
0000
1000
0010
0100
0000
,
0110
0000
0101
0000
1001
0000
0000
1000
,
0100
0000
0011
0000
0000
0000
0000
0001
,
0100
0000
1010
0000
0011
0000
0000
0001
,
0100
0110
0000
0001
,
1000
0010
2000
0000
3001
0000
1000
0010
,
1000
0002
0013
0000
,
0001
0010
0002
0000
1003
0000
0010
0100
,
0001
0000
0010
0100
1000
0000
0000
0000
,
0001
0100
0002
0000
1003
0000
0001
0100
,
0001
2000
3100
0000
,
0100
1000
0002
0000
1003
0000
0100
0000
,
1000
0000
0010
0100
0000
0000
0001
0000
,
0010
0000
0000
0001
0000
0000
1000
0000
0000
0000
0000
0000
0010
0000
0100
0000
,
0001
0000
1000
0100
0000
0000
0010
0000
,
0001
0000
1000
0010
0000
0000
1000
0001
,
0020
0031
1000
0020
,
1030
0000
0000
0000
1000
0001
1000
0000
,
0020
1030
0001
0020
,
0031
0000
0000
0000
1000
0010
1000
0000
,
0002
0013
0100
2000
,
3010
0000
0000
0000
0010
0100
0010
0000
,
2000
3100
0010
0002
,
0103
0000
0000
0001
1000
0000
0000
0000
,
1000
0000
0010
0000
0100
0001
0010
0000
,
0001
0000
1000
0000
0001
0010
0001
0010
,
0100
0000
1000
0000
0010
1000
0100
0000
,
0010
0000
0001
0000
1000
0010
1000
0010
,
0100
0100
0001
0001
,
1000
1000
0100
0100
,
1000
0001
1000
0001
1000
0001
1000
0001
,
1000
1001
1000
1020
,
0130
0000
0101
0000
0001
1000
0000
0100
,
0000
0010
0000
0000
0001
0000
0021
0000
,
0130
0000
1100
0000
1000
0001
0000
0201
,
0000
0310
0000
0000
0100
0000
0120
0000
,
1030
0000
1001
0000
1000
0100
0000
0010
,
0000
0001
0000
0000
1000
0000
0001
0100
,
0001
0100
0000
0000
1001
0000
0001
0000
,
0201
0000
0310
0000
1010
0000
1000
0001
,
0000
0010
0000
0100
0000
0000
1000
0000
,
1200
0000
0310
0000
0011
0000
0001
1000
,
0000
1020
0000
0130
0000
0000
0001
0000
,
1002
0000
0013
0000
0110
0000
0010
0001
,
0000
1000
0000
0010
0000
0000
0100
0000
,
0001
1000
0001
1000
0000
0000
0200
0000
,
0000
0310
0000
0001
1000
0000
0001
0000
,
0200
0000
0310
0000
1000
0000
0001
0100
,
0000
0010
0000
1000
0000
0000
1000
0000
,
0200
0000
0310
0000
0001
0000
0100
0010
,
0000
2000
0000
3001
0000
0000
0001
0000
,
0020
0000
0130
0000
1000
0000
0001
0010
,
0000
0100
0000
1000
0000
0000
0000
0000
,
0010
0100
0010
0100
0000
0000
0002
0000
,
0000
1003
0000
0000
0200
0000
0000
0000
,
0000
0000
0000
0000
,
0000
0000
0300
0000
;

//---------------dance-single - ----------------
#NOTES:
     dance-single:
     :
     Easy:
     2:
     0.171847,0.233751,0.023434,0.179658,0.000000,154.000000,151.000000,3.000000,23.000000,0.000000,0.000000,0.171847,0.233751,0.023434,0.179658,0.000000,154.000000,151.000000,3.000000,23.000000,0.000000,0.000000:
0000
0000
0000
0000
,
0000
0000
0000
0000
,
0000
0000
0000
0000
,
0000
0000
0000
0000
,
0001
0000
0001
0000
,
1000
0000
1000
0000
,
0001
1000
0001
1000
,
0002
0000
2000
3003
1001
0000
0000
0000
,
1000
1000
0000
0000
,
0001
0001
0100
0000
,
0001
0001
0010
0000
,
0100
0000
1000
0000
,
0001
0001
0000
0000
,
1000
1000
0100
0000
,
1000
1000
0000
0001
,
0000
0020
0030
0001
,
0100
0020
0030
1000
,
0000
0200
0300
0010
,
0001
0010
0001
1000
,
0000
0020
0030
1000
,
0100
0020
0030
0001
,
0000
2000
3000
0001
,
0000
1000
0000
0100
,
0000
0010
0000
0001
,
0000
0100
0000
0010
,
0000
1000
0000
0001
,
0020
0030
0001
0010
,
0001
0000
1000
0000
,
0020
0030
1000
0010
,
1000
0000
0100
0000
,
0020
0030
0100
0010
,
0100
0000
1000
0000
,
0002
0003
1000
0001
,
1000
0000
0010
0000
,
1000
1000
0010
0010
,
0100
0000
0100
0000
,
0001
0001
0010
0010
,
0100
0000
0010
0000
,
0001
0000
1000
0000
,
0001
0000
1000
0000
,
0001
1000
0001
1000
,
0001
1001
0000
2000
,
0000
3100
0000
0010
,
0001
1000
0000
0002
,
0000
0103
0000
0010
,
1000
0100
0000
0020
,
0000
0031
0000
1000
,
1000
0100
0000
0001
,
0001
0100
1001
0000
,
0002
0000
0013
0000
,
0100
0010
0001
0000
,
2000
0000
3010
0000
,
0100
0001
0010
0000
,
0002
0000
1003
0000
,
0001
0001
0010
0000
,
0100
0000
1000
0002
,
0000
1003
0000
0000
,
2000
0000
3100
0000
,
1000
0000
0001
0000
,
0002
0000
0103
0000
,
0010
0000
1000
0000
,
0002
0000
0013
0000
,
0001
0000
1000
0000
,
0010
0000
0100
0000
,
0001
0000
2000
0000
,
0000
0000
0000
0000
,
0000
0000
3000
0000
;

//---------------dance-single - ----------------
#NOTES:
     dance-single:
     :
     Beginner:
     1:
     0.089271,0.124979,0.000000,0.078112,0.000000,80.000000,80.000000,0.000000,10.000000,0.000000,0.000000,0.089271,0.124979,0.000000,0.078112,0.000000,80.000000,80.000000,0.000000,10.000000,0.000000,0.000000:
0000
0000
0000
0000
,
0000
0000
0000
0000
,
0000
0000
0000
0000
,
0000
0000
0000
0000
,
0001
0000
0000
0000
,
1000
0000
0000
0000
,
0001
0000
1000
0000
,
0002
0000
0000
0003
1000
0000
0000
0000
,
0000
0000
1000
0000
,
0000
0000
0001
0000
,
0000
0000
0100
0000
,
0100
0000
0100
0000
,
0000
0000
0010
0000
,
0000
0000
0100
0000
,
0000
0000
0010
0010
,
0000
0000
0000
1000
,
0000
0000
0000
0001
,
0000
0000
0000
0010
,
0000
0000
0000
0100
,
0000
0000
0000
1000
,
0000
0000
0000
0001
,
0000
0000
0000
0100
,
0100
0000
0000
0000
,
0010
0000
0000
0000
,
1000
0000
0000
0000
,
0001
0000
0000
0000
,
1000
0000
1000
0000
,
1000
0000
0000
0000
,
0100
0000
0100
0000
,
0100
0000
0000
0000
,
0010
0000
0010
0000
,
0010
0000
0000
0000
,
0001
0000
0001
0000
,
0001
0000
0000
0000
,
1000
0000
0001
0000
,
1000
0000
0000
0000
,
0001
0000
1000
0000
,
0001
0000
0000
0000
,
1000
0000
0000
0000
,
0001
0000
0000
0000
,
1000
0000
0001
0000
,
1000
1000
0000
2000
,
3000
1000
0000
0000
,
0000
0001
0000
0002
,
0003
0001
0000
0000
,
0000
1000
0000
2000
,
3000
1000
0000
0000
,
0000
0100
0000
0000
,
0000
1000
0001
0000
,
0002
0003
0001
0000
,
0000
0000
1000
0000
,
2000
3000
1000
0000
,
0000
0000
0001
0000
,
0002
0003
0001
0000
,
0000
0000
0010
0000
,
0000
0000
0100
0000
,
0100
0000
0000
0000
,
2000
0000
3000
0000
,
0010
0000
0000
0000
,
0200
0000
0300
0000
,
0001
0000
0000
0000
,
0020
0000
0030
0000
,
0100
0000
0000
0000
,
1000
0000
0000
0000
,
0001
0000
0000
0000
;
