#TITLE:Mario Kart 8;
#SUBTITLE:Main Theme;
#ARTIST:Kenta Nagata;
#TITLETRANSLIT:;
#SUBTITLETRANSLIT:;
#ARTISTTRANSLIT:;
#GENRE:;
#CREDIT:;
#BANNER:;
#BACKGROUND:[ROUND H] - Mario Kart 8 Main Theme-bg.png;
#LYRICSPATH:;
#CDTITLE:;
#MUSIC:[ROUND H] - Mario Kart 8 Main Theme.ogg;
#OFFSET:0.000000;
#SAMPLESTART:63.400002;
#SAMPLELENGTH:12.000000;
#SELECTABLE:YES;
#BPMS:0.000000=140.000000
;
#STOPS:144.000000=1.286000
;
#BGCHANGES:0.000=Mario Kart 8 Main Theme.mpg=1.000=0=0=1=====,
99999=-nosongbg-=1.000=0=0=0 // don't automatically add -songbackground-
;
#KEYSOUNDS:;
#ATTACKS:;

//---------------dance-single - ----------------
#NOTES:
     dance-single:
     :
     Beginner:
     1:
     0.115052,0.139434,0.037028,0.009257,0.000000,82.000000,4.000000,1.000000,0.000000,0.000000,0.000000,0.115052,0.139434,0.037028,0.009257,0.000000,82.000000,4.000000,1.000000,0.000000,0.000000,0.000000:
0000
0000
0000
0000
,
0000
0000
0000
0000
,
0000
0000
0000
0000
,
1001
0000
0000
0000
,
1000
0000
1000
0000
,
0000
0000
0000
0000
,
0001
0001
0001
0000
,
0010
0000
0000
0000
,
0001
0000
0001
0000
,
0000
0000
0000
0000
,
1000
1000
1000
0000
,
1000
0000
0000
0000
,
0001
0000
0001
0000
,
0001
0000
0000
0000
,
1000
0000
0000
0000
,
0100
0100
0100
0000
,
1000
0000
1000
0000
,
0000
0000
0000
0000
,
0001
0001
0001
0000
,
0010
0000
0000
0000
,
0100
0000
0000
0000
,
1000
0000
0000
0000
,
0001
0000
0000
0000
,
0100
0000
0000
0000
,
0010
0000
0000
0000
,
1000
0000
0000
0000
,
0001
0000
0000
0000
,
0000
0000
0000
0000
,
1000
0000
0000
0000
,
1000
0000
0000
0000
,
0001
0000
0000
0000
,
0010
0000
0000
0000
,
0100
0000
0000
0000
,
0100
0000
0000
0000
,
0010
0000
0000
0000
,
0010
0000
0100
0000
,
1001
0000
1000
0000
,
1000
0000
1000
0000
,
1000
0000
0001
0000
,
0001
0000
0001
0000
,
0001
0001
0000
0000
,
0000
1000
0000
0000
,
0000
0100
0000
0000
,
0000
0010
0010
0010
,
0000
0000
1001
0000
,
0001
0000
0001
0000
,
0001
0000
1000
0000
,
1000
0000
1000
0000
,
1000
0000
0000
0000
,
0000
0020
0030
0000
,
0000
1000
0000
1000
,
0000
0000
0000
0000
,
0000
0001
0001
0001
,
0000
0010
0000
0000
,
0000
0001
0000
0001
,
0000
0000
0000
0000
,
0000
1000
1000
1000
,
0000
1000
0000
0000
,
0000
0001
0000
0001
,
0000
0001
0000
0000
,
0000
1001
0000
0000
;

//---------------dance-single - ----------------
#NOTES:
     dance-single:
     :
     Easy:
     3:
     0.290935,0.278868,0.129598,0.351767,0.000000,168.000000,14.000000,38.000000,0.000000,0.000000,0.000000,0.290935,0.278868,0.129598,0.351767,0.000000,168.000000,14.000000,38.000000,0.000000,0.000000,0.000000:
0000
0000
0000
0000
,
0000
0000
0000
0000
,
0000
0000
0000
0000
,
2002
0000
0000
3003
,
1000
0100
0020
0030
,
0001
1000
0001
0000
,
0100
0010
2000
0000
,
3100
0010
0002
0000
,
1003
0001
0200
0300
,
0010
1000
0001
0000
,
0020
0000
0230
0000
,
1300
0001
1001
0000
,
0001
1000
1001
0000
,
0110
0000
1001
0000
,
0001
0100
0010
0100
,
0001
1000
0100
0100
,
1000
0100
0010
0000
,
0001
1000
0001
0000
,
0100
0100
0010
0010
,
1000
1000
0001
0001
,
0020
0000
0230
0000
,
1300
0001
0100
0000
,
0020
0000
2030
0000
,
3001
1000
0100
0000
,
0020
0000
0032
0000
,
1003
0010
0100
0001
,
0020
0000
1000
0000
,
0001
0000
0100
0030
,
0002
0000
0103
0010
,
2000
0000
3100
0010
,
0200
0000
1300
0001
,
0100
0100
0010
0010
,
2000
0000
0100
3000
,
2002
0000
0000
3003
,
0001
0010
1000
0100
,
0001
1000
0010
0100
,
1001
0002
0010
1003
,
0010
0100
0001
1000
,
0000
2000
0010
3001
,
1000
0010
0100
0110
,
0000
0002
0010
0103
,
0000
2000
0010
3100
,
0000
0020
0001
0130
,
0000
2000
0001
3020
,
0030
0200
0010
0301
,
1000
0001
0010
0100
,
0000
0200
0010
1300
,
0001
0100
0010
0110
,
0000
2000
0000
3002
,
0000
1003
0000
0000
,
0000
1000
0100
0020
,
0030
0001
1000
0001
,
0000
0100
0010
2000
,
0000
3100
0010
0002
,
0000
1003
0001
0200
,
0300
0010
1000
0001
,
0000
0020
0000
0230
,
0000
1300
0001
1001
,
0000
0001
1000
1001
,
0000
0110
0000
1001
,
0000
0110
0000
0000
;

//---------------dance-single - ----------------
#NOTES:
     dance-single:
     :
     Medium:
     6:
     0.485333,0.501962,0.101827,0.490623,0.078685,303.000000,11.000000,53.000000,0.000000,0.000000,0.000000,0.485333,0.501962,0.101827,0.490623,0.078685,303.000000,11.000000,53.000000,0.000000,0.000000,0.000000:
// measure 0
0000
0000
0000
0000
,  // measure 1
0000
0000
0000
0000
,  // measure 2
0000
0000
0000
0000
,  // measure 3
2002
0000
0000
3003
,  // measure 4
1000
0100
0010
0100
2000
0000
0010
0000
,  // measure 5
3001
0100
0010
1000
0002
0000
0010
0000
,  // measure 6
0103
0010
0100
0000
0002
0000
0010
0000
,  // measure 7
0103
0010
2000
0000
0100
0000
0100
0000
,  // measure 8
3001
0100
0010
0100
0002
0000
0010
0000
,  // measure 9
1003
0000
0001
0000
0100
0000
0000
0001
0000
1000
0000
0100
0000
0000
0000
0000
,  // measure 10
0010
0100
1000
0000
2000
0000
0010
0000
,  // measure 11
3100
0010
0002
0000
0100
0000
0103
0000
,  // measure 12
0010
0000
1000
0000
0001
0000
0000
1000
0100
0000
0000
0000
0010
0000
0000
0001
,  // measure 13
0010
0100
1000
0000
0010
1000
0001
0000
,  // measure 14
0100
0001
1000
0001
,  // measure 15
0010
0000
0100
0000
1000
0001
1000
0000
,  // measure 16
0010
1000
0100
0010
0200
0000
0010
0000
,  // measure 17
1300
0000
0001
0000
0100
0000
0000
0001
0000
1000
0000
0100
0000
0000
0000
0000
,  // measure 18
0010
0000
0010
0000
0001
1000
0001
0000
,  // measure 19
0100
0010
1000
0000
0001
0000
0011
0000
,  // measure 20
0002
0000
0013
0100
2000
0000
3020
0000
,  // measure 21
0230
0000
0301
2000
0100
3000
0020
0000
,  // measure 22
0032
0000
0103
0020
1000
0000
0001
0000
,  // measure 23
0100
0000
0001
0000
1000
0000
0130
0001
,  // measure 24
2000
0000
3100
0010
0002
0000
2003
0000
,  // measure 25
3020
0000
0130
0002
1000
0003
0200
0000
,  // measure 26
0320
0001
1000
0001
,  // measure 27
1000
0001
0100
0130
,  // measure 28
2000
0000
3010
0200
0010
0000
0310
0000
,  // measure 29
2000
0000
3100
0020
0100
0000
0130
1000
,  // measure 30
0002
0000
0103
0010
0200
0000
0310
0000
,  // measure 31
2000
3002
0023
0230
,  // measure 32
1300
0000
0100
1000
0100
0000
1100
0000
,  // measure 33
0011
0000
0010
0001
0010
0000
0011
0000
,  // measure 34
1001
0000
0001
1000
0001
0000
1001
0000
,  // measure 35
0101
0000
0000
0000
0010
0000
1000
0000
0002
0000
0000
1003
0000
0000
2002
0000
,  // measure 36
3003
0000
1000
0010
0100
0010
2000
0000
,  // measure 37
0100
0000
3001
0010
0100
1000
0001
0000
,  // measure 38
1000
0000
0001
0100
0010
0100
0002
0000
,  // measure 39
0010
0000
1003
0010
0100
0001
1000
0000
,  // measure 40
0001
0000
0010
0100
1000
0100
0010
0001
,  // measure 41
1000
0000
0001
0100
0010
1000
0010
0100
,  // measure 42
0001
0000
1000
0001
0100
0001
1000
0001
,  // measure 43
0100
0000
0000
0000
0001
0000
1000
0000
0100
0000
0000
0000
0010
0000
0000
0010
,  // measure 44
0000
0000
0001
0100
0010
0100
0002
0000
,  // measure 45
0010
0000
1003
0100
0010
0001
1000
0000
,  // measure 46
0001
0000
1000
0010
0100
0010
2000
0000
,  // measure 47
3100
0000
0010
0000
0002
0000
0000
0000
2003
0000
0000
0000
3010
0000
0000
0100
,  // measure 48
0000
0000
1001
0000
0000
0000
0000
0000
0001
0000
0000
2000
0000
0000
0000
0000
,  // measure 49
0000
3002
0000
0000
,  // measure 50
0003
0000
1000
0100
0010
0100
2000
0000
,  // measure 51
0010
0000
3001
0100
0010
1000
0002
0000
,  // measure 52
0010
0000
0103
0010
0100
0000
0002
0000
,  // measure 53
0010
0000
0103
0010
2000
0000
0100
0000
,  // measure 54
0100
0000
3001
0100
0010
0100
0002
0000
,  // measure 55
0010
0000
0000
0000
1003
0000
0001
0000
0100
0000
0000
0001
0000
1000
0000
0100
,  // measure 56
0000
0000
0010
0100
1000
0000
2000
0000
,  // measure 57
0010
0000
3100
0010
0002
0000
0100
0000
,  // measure 58
0103
0000
0000
0000
0010
0000
1000
0000
0001
0000
0000
1000
0100
0000
0000
0000
,  // measure 59
0010
0000
0000
0001
0010
0000
0100
0000
1000
0000
0000
0000
0010
0000
1000
0000
,  // measure 60
0001
1001
0000
0000
;

//---------------dance-single - ----------------
#NOTES:
     dance-single:
     First Draft (if you're interested):
     Edit:
     9:
     0.708824,0.836604,0.157370,0.647992,0.726677,449.000000,17.000000,70.000000,0.000000,0.000000,0.000000,0.708824,0.836604,0.157370,0.647992,0.726677,449.000000,17.000000,70.000000,0.000000,0.000000,0.000000:
// measure 0
0000
0000
0000
0000
,  // measure 1
0000
0000
0000
0000
,  // measure 2
0000
0000
0000
0000
,  // measure 3
2002
0000
0000
3003
,  // measure 4
0000
0000
0001
0100
0000
0000
1000
0000
0000
0100
0000
0000
0002
0000
0000
0000
0013
0000
0000
0000
0000
0000
0000
0100
,  // measure 5
1000
0000
0001
0000
0100
0010
0100
0000
0010
1000
0001
1000
0000
0000
0000
0000
,  // measure 6
0100
0010
0100
0010
0001
0000
1000
0000
0020
0000
0200
0000
0030
0000
0300
0001
,  // measure 7
1000
0100
0000
1000
0002
0000
0203
0000
1000
0000
0300
0000
0110
0000
0000
0000
,  // measure 8
1000
0100
0010
0000
0001
0000
1000
0000
0010
0000
0000
0110
0000
0000
0000
0000
,  // measure 9
0100
0000
0100
0001
0000
1000
0000
0001
0000
0011
0000
1001
0000
0000
0001
0000
,  // measure 10
0100
0000
0010
1000
0000
1000
0001
0000
0020
0000
0000
0000
0100
0000
0000
0000
,  // measure 11
1030
0010
0000
0010
0001
1000
0001
0100
0010
1000
0010
2000
0000
0000
3001
0000
,  // measure 12
1000
0000
0100
0000
0010
0001
0000
1000
0002
0000
0203
0000
0310
0000
0000
1000
,  // measure 13
0002
0000
0013
0000
0100
0000
1000
0000
0001
0100
0010
1000
0001
0010
0000
0010
,  // measure 14
1000
0000
1000
0010
0000
0010
0002
0000
0000
0000
0103
0010
1000
0000
0001
0000
,  // measure 15
1000
0000
0100
0000
1000
0000
0100
0000
0000
0010
0000
0000
0001
0000
0000
1000
0000
0000
0001
0000
0000
1000
0000
0000
0001
0000
0000
0100
0000
0000
0010
0000
0000
2000
0000
0000
0000
0000
0000
0000
0000
0000
3001
0000
0000
0000
0000
0000
,  // measure 16
1000
0100
1000
0000
0001
0000
0100
0000
0020
0000
0000
0130
0000
0000
0000
0100
,  // measure 17
0001
0000
1000
0000
0010
0000
1000
0100
0000
0010
0000
1001
0000
1000
0001
0100
,  // measure 18
0010
1000
0010
1000
0001
1000
0001
1000
0100
0010
0100
0010
0001
0010
0001
0010
,  // measure 19
0001
1000
0001
1000
0010
1000
0010
1000
0020
0000
0000
0000
0130
0010
1000
0001
,  // measure 20
0200
0000
0000
0000
0310
0000
1000
0001
0020
0000
0000
0000
0230
0000
0000
0000
,  // measure 21
2300
0000
3010
0200
0001
0000
0310
0000
,  // measure 22
2000
0000
3100
0020
0001
0000
0230
0000
,  // measure 23
2300
0000
0000
0000
3001
0000
2000
0000
0100
0000
0000
0000
3010
0001
0010
1000
,  // measure 24
0020
0000
0000
0000
0130
0000
0010
1000
0002
0000
0000
0000
0023
0000
0000
0000
,  // measure 25
0230
0000
1300
0020
0100
0000
2030
0000
,  // measure 26
3200
0000
0000
1300
0001
0000
0000
0000
0100
0000
0000
0000
0110
0000
0000
0000
,  // measure 27
0020
0000
0000
1030
0001
0000
0000
0000
0010
0000
0000
0000
0110
0000
0000
0000
,  // measure 28
0002
0000
1003
0002
0100
0000
0010
0000
,  // measure 29
2003
0000
0000
0000
3001
0000
2000
0000
0100
0000
0000
0000
3010
0000
0100
0001
,  // measure 30
0200
0000
0000
0000
0310
0000
1000
0100
2000
0000
0000
0000
3020
0000
0000
0000
,  // measure 31
0130
0001
0000
0000
1000
0000
0001
0010
0001
0000
0010
0000
0100
1000
0000
0000
,  // measure 32
0001
0100
0000
0000
0010
0000
1000
0001
0000
0000
1000
0000
0100
1000
0000
0000
,  // measure 33
1000
0010
0000
0000
1000
0000
0100
0010
0000
0000
0001
0000
0100
0010
0000
0000
,  // measure 34
1000
0010
0000
0000
0100
0000
0001
0100
0000
0000
0010
0000
1000
0001
0000
0000
,  // measure 35
0100
0000
0000
0000
1000
0000
0100
0000
0001
0000
0000
1000
0000
0000
1002
0000
,  // measure 36
0103
0000
0000
0000
0001
0000
0100
0010
0000
1000
0000
0002
0000
0000
0013
0000
,  // measure 37
0100
0000
1000
0000
0001
0000
1000
0000
0010
0100
0000
0002
0000
0000
1003
0000
,  // measure 38
0100
0000
0010
0000
0001
0000
1000
0001
0000
0100
0000
0020
0000
0000
1030
0000
,  // measure 39
0001
0000
1000
0000
0100
0000
0010
0000
0001
1000
0000
0010
0000
0020
0000
0000
,  // measure 40
0030
1000
0100
0000
0010
0000
0010
0001
0000
1000
0000
0002
0000
0000
0103
0000
,  // measure 41
1000
0000
0100
0000
0001
0000
0001
0000
0010
0100
0000
1000
0000
0010
0000
0101
,  // measure 42
0000
0000
0000
0000
1000
0000
1000
0100
0000
0010
0000
0002
0000
0000
1003
0000
,  // measure 43
0010
0000
0100
0000
0001
0000
2000
0000
3200
0000
0300
0000
0012
0000
0000
2000
,  // measure 44
0000
0000
3003
0000
0001
0000
0100
0010
0000
1000
0000
0002
0000
0000
0013
0000
,  // measure 45
1000
0000
0010
0000
0001
0000
0100
0000
0010
1000
0000
0002
0000
0000
0013
0000
,  // measure 46
0100
0000
0000
0000
1000
0000
0010
0100
0000
0001
0000
2000
0000
0000
3100
0000
,  // measure 47
0010
0000
0001
0100
0020
0000
0000
0000
2030
0000
0000
0000
3100
0000
0000
0010
,  // measure 48
0000
0000
1002
0000
0000
0000
0000
0000
0103
0010
0100
0020
0000
0000
0000
0000
,  // measure 49
2000
0030
0000
0000
3001
0000
0000
1000
0000
0000
0001
0000
0000
0010
0010
0001
,  // measure 50
0010
0000
0000
0100
0000
0000
1000
0000
0000
0001
0000
0000
0000
0000
0000
0000
0001
0000
0100
0000
0000
0000
0000
0000
1000
0000
0000
0000
0000
0000
0100
0000
0000
0000
0000
0000
0002
0000
0000
0000
0000
0000
0000
0000
0013
0000
0000
0000
,  // measure 51
0000
0000
0000
0000
0000
0000
0000
0000
0000
0000
0100
0000
1000
0000
0000
0000
0000
0000
0001
0000
0000
0000
0000
0000
0100
0000
0000
0010
0000
0000
0100
0000
0000
0000
0000
0000
0010
0000
0000
1000
0000
0000
0001
0000
0000
1000
0000
0000
,  // measure 52
0000
0000
0000
0000
0100
0010
0100
0010
0001
0000
1000
0000
0020
0000
0200
0000
,  // measure 53
0030
0000
0300
0001
1000
0100
0000
1000
0002
0000
0203
0000
1000
0000
0300
0000
,  // measure 54
0110
0000
0000
0000
1000
0100
0010
0000
0001
0000
1000
0000
0010
0000
0000
0110
,  // measure 55
0000
0000
0000
0000
0100
0000
0100
0001
0000
1000
0000
0001
0000
0011
0000
1001
,  // measure 56
0000
0000
0001
0000
0100
0000
0010
1000
0000
1000
0001
0000
0020
0000
0000
0000
,  // measure 57
0100
0000
0000
0000
1030
0010
0000
0010
0001
1000
0001
0100
0010
1000
0010
2000
,  // measure 58
0000
0000
3001
0000
1000
0000
0100
0000
0010
0001
0000
1000
0002
0000
0203
0000
,  // measure 59
0310
0000
0000
1000
0002
0000
0013
0000
0100
0000
1000
0000
0001
0100
0010
1000
,  // measure 60
0001
1001
0000
0000
;

//---------------dance-single - ----------------
#NOTES:
     dance-single:
     :
     Hard:
     9:
     0.665184,0.613510,0.138855,0.518394,0.685020,432.000000,15.000000,56.000000,0.000000,0.000000,0.000000,0.665184,0.613510,0.138855,0.518394,0.685020,432.000000,15.000000,56.000000,0.000000,0.000000,0.000000:
// measure 0
0000
0000
0000
0000
,  // measure 1
0000
0000
0000
0000
,  // measure 2
0000
0000
0000
0000
,  // measure 3
2002
0000
0000
3003
,  // measure 4
0000
0001
1000
0000
0100
0000
0001
0000
0100
0000
0000
0110
0000
0000
0000
0010
,  // measure 5
0001
0000
1000
0000
0001
0100
0001
0000
0100
0010
1000
0001
0000
0000
0000
0000
,  // measure 6
1000
0100
0010
0001
1000
0000
0010
0000
0002
0000
0020
0000
0003
0000
1030
0000
,  // measure 7
0001
0010
0000
0100
2000
0000
0002
0000
0000
0000
0000
0000
3003
0000
0000
0000
,  // measure 8
0000
1000
0010
0000
0001
0000
0010
0000
0100
0000
0000
0110
0000
0000
0000
0000
,  // measure 9
0001
0000
1000
0100
0000
0010
0000
0001
0000
0100
0000
1000
0000
0000
0100
0000
,  // measure 10
0010
0000
1000
0001
0000
1000
0001
0000
0020
0000
0000
0000
0130
0000
0000
0000
,  // measure 11
1000
0010
0000
0100
0001
0100
0010
0000
1000
0100
1000
0200
0000
0000
0310
0000
,  // measure 12
0001
0000
1000
0000
0100
0010
0000
0010
0002
0000
1003
0000
0010
0000
0000
1000
,  // measure 13
0002
0000
0103
0000
0010
0000
1000
0000
0001
0010
0100
1000
0002
0000
0000
0000
,  // measure 14
0103
0000
0010
1000
0000
1000
0002
0000
0000
0000
0013
0100
0010
0000
0100
0000
,  // measure 15
0020
0000
0031
0000
1000
0001
0100
0000
0010
1000
0010
2000
0000
0000
3000
0000
,  // measure 16
0000
0001
1000
0000
0010
0000
0001
0000
0010
0000
0000
0110
0000
0000
0000
1000
,  // measure 17
0001
0000
1000
0000
0100
0000
0010
0001
0000
0100
0000
1000
0000
0000
0100
0000
,  // measure 18
0001
1000
0001
0000
1000
0000
0100
0000
0010
0000
0100
0000
1000
0000
0010
0000
,  // measure 19
0100
0010
0100
0010
1000
0001
1000
0001
2000
0000
0000
0000
3100
0000
0010
0000
,  // measure 20
0001
0000
0000
1000
0000
0001
0100
0000
0010
0000
0000
0000
1001
0000
0000
0000
,  // measure 21
0001
0000
0000
1000
0000
0100
0010
0000
0001
0000
0000
0000
1001
0000
0000
0000
,  // measure 22
1000
0000
0000
0001
0000
0100
0010
0000
1000
0000
0000
0000
1100
0000
0000
0000
,  // measure 23
0012
0000
1003
0002
0100
0003
1002
0000
,  // measure 24
1003
0000
0000
0001
0000
1000
0100
0000
0010
0000
0000
0000
0110
0000
0000
0000
,  // measure 25
1000
0000
0000
0001
0000
1000
0010
0000
0100
0000
0001
0100
0001
0100
0010
1000
,  // measure 26
0001
0000
0000
1000
0100
0000
0000
0100
0010
0000
0000
0010
0001
0000
0000
1000
,  // measure 27
0010
0000
0000
0010
0100
0000
0000
0100
0001
0000
0000
0001
1000
0000
0000
0001
,  // measure 28
0020
0000
0130
2000
0001
3000
0200
0000
,  // measure 29
0320
0000
0000
0000
1030
0000
0002
0000
0010
0000
0003
0000
0100
0000
1000
0001
,  // measure 30
2000
0000
0000
0000
3010
0000
0100
0001
0200
0000
0000
0000
0310
0000
0000
0000
,  // measure 31
2000
3200
0320
0032
,  // measure 32
1003
0010
0000
0000
1000
0000
0001
0010
0000
0000
0100
0000
1000
0001
0000
0000
,  // measure 33
1000
0100
0000
0000
1000
0000
0010
1000
0000
0000
0001
0000
0010
0001
0000
0000
,  // measure 34
0100
0001
0100
0000
0010
0000
1000
0001
1000
0000
0100
0000
0010
0100
0010
0000
,  // measure 35
0001
0000
0000
0000
1000
0000
0001
0000
0100
0000
0000
0010
0000
0000
2002
0000
,  // measure 36
0000
3003
0000
0000
0000
0000
0000
0000
0000
0000
0000
0000
0000
0000
0000
0000
0001
0000
0000
0000
0000
0000
0000
0000
0100
0000
0000
0000
0010
0000
0000
0000
0000
0000
0000
0000
1000
0000
0000
0000
0000
0000
0000
0000
0002
0000
0000
0000
0000
0000
0000
0000
1003
0000
0000
0000
0100
0000
0000
0000
0000
0000
0000
0000
,  // measure 37
0010
0000
0001
0000
0100
0000
1000
0000
0100
0010
0000
1000
0000
0001
1000
0000
,  // measure 38
0100
0000
0001
0000
0100
0000
1000
0100
0000
0010
0000
0002
0000
1003
0001
0000
,  // measure 39
0100
0000
1000
0000
0100
0000
0001
0000
1000
0100
0000
0010
0000
0001
1000
0000
,  // measure 40
0001
0000
0100
0000
1000
0000
0100
0010
0000
1000
0000
0002
0000
0000
0013
0000
,  // measure 41
0100
0000
1000
0000
0001
0000
0100
0000
0010
1000
0000
0001
0000
0010
0000
1000
,  // measure 42
0000
0000
0010
0000
0100
0000
0010
0001
0000
1000
0000
0020
0000
0000
0130
0000
,  // measure 43
1000
0000
0100
0000
0001
0000
2000
0000
0200
0000
3000
0000
0320
0000
0000
0002
,  // measure 44
0000
0000
0033
0000
1000
0000
0010
0100
0000
0001
0000
2000
0000
3001
0010
0000
,  // measure 45
0100
0000
1000
0000
0010
0000
0001
0000
0010
0100
0000
0001
0000
1000
0001
0000
,  // measure 46
0010
0000
1000
0000
0010
0000
0001
0010
0000
0100
0000
2000
0000
3001
1000
0000
,  // measure 47
0010
0000
0100
0001
2000
0000
3100
0000
0002
0000
0103
0000
2000
0000
0000
3010
,  // measure 48
0000
0000
1002
0000
0000
0000
0000
0000
0103
0010
1000
0002
0000
0000
0000
0000
,  // measure 49
0020
0003
0230
0000
0000
0000
0000
0000
,  // measure 50
0000
0000
0300
0000
0000
1000
0001
0000
0010
0000
1000
0000
0010
0000
0000
0110
,  // measure 51
0000
0000
0000
0100
1000
0000
0001
0000
1000
0010
1000
0000
0010
0100
0001
1000
,  // measure 52
0000
0000
0000
0000
0001
0010
0100
1000
0001
0000
0100
0000
2000
0000
0200
0000
,  // measure 53
3000
0000
0301
0000
1000
0100
0000
0010
0002
0000
2000
0000
0000
0000
0000
0000
,  // measure 54
3003
0000
0000
0000
0000
0001
0100
0000
1000
0000
0100
0000
0010
0000
0000
0110
,  // measure 55
0000
0000
0000
0000
1000
0000
0001
0010
0000
0100
0000
1000
0000
0010
0000
0001
,  // measure 56
0000
0000
0010
0000
0100
0000
0001
1000
0000
0001
1000
0000
0200
0000
0000
0000
,  // measure 57
0310
0000
0000
0000
0001
0100
0000
0010
1000
0010
0100
0000
0001
0010
0001
0020
,  // measure 58
0000
0000
0130
0000
1000
0000
0001
0000
0010
0100
0000
0100
2000
0000
3001
0000
,  // measure 59
0100
0000
0000
0001
2000
0000
3010
0000
0100
0000
0001
0000
1000
0100
0010
0001
,  // measure 60
1000
1001
0000
0000
;
