#TITLE:Cake House;
#SUBTITLE:;
#ARTIST:TENSI LOVE;
#TITLETRANSLIT:;
#SUBTITLETRANSLIT:;
#ARTISTTRANSLIT:;
#GENRE:;
#CREDIT:;
#BANNER:;
#BACKGROUND:;
#LYRICSPATH:;
#CDTITLE:;
#MUSIC:[ROUND H] - Cake House.ogg;
#OFFSET:-0.904000;
#SAMPLESTART:81.672997;
#SAMPLELENGTH:14.769000;
#SELECTABLE:YES;
#BPMS:0.000000=130.000000
;
#STOPS:
;
#BGCHANGES:;
#KEYSOUNDS:;
#ATTACKS:;

//---------------dance-single - ----------------
#NOTES:
     dance-single:
     :
     Beginner:
     1:
     0.116386,0.129441,0.000000,0.094334,0.000000,95.000000,95.000000,0.000000,11.000000,0.000000,0.000000,0.116386,0.129441,0.000000,0.094334,0.000000,95.000000,95.000000,0.000000,11.000000,0.000000,0.000000:
// measure 0
0000
0000
0000
0000
,  // measure 1
0000
0000
0000
0000
,  // measure 2
0000
0000
0000
0000
,  // measure 3
0000
0000
0000
0000
,  // measure 4
1000
0000
0000
0000
,  // measure 5
1000
0000
0000
0000
,  // measure 6
0001
0000
0100
0000
,  // measure 7
0020
0000
0030
0000
,  // measure 8
0100
0000
0100
0000
,  // measure 9
0010
0000
0010
0000
,  // measure 10
1000
0000
0001
0000
,  // measure 11
0100
0000
0010
0000
,  // measure 12
1000
0000
1000
0000
,  // measure 13
0001
0000
0001
0000
,  // measure 14
0100
0000
0001
0000
,  // measure 15
1000
0000
0020
0000
,  // measure 16
1030
0000
0000
0000
,  // measure 17
0001
0000
0000
0000
,  // measure 18
0100
0000
0010
0000
,  // measure 19
1000
0000
0100
0000
,  // measure 20
0010
0000
0100
0000
,  // measure 21
1000
0000
0001
0000
,  // measure 22
0100
0000
0010
0000
,  // measure 23
0100
0000
0001
0000
,  // measure 24
1000
0000
0100
0000
,  // measure 25
0010
0000
0001
0000
,  // measure 26
0000
1000
0000
0100
,  // measure 27
0000
0010
0000
0100
,  // measure 28
0000
1000
0000
0001
,  // measure 29
0000
0100
0000
0010
,  // measure 30
0000
0100
0000
0001
,  // measure 31
0000
1000
0000
0100
,  // measure 32
0000
0010
0000
0000
,  // measure 33
0001
0000
1000
0000
,  // measure 34
0002
0000
0000
0000
,  // measure 35
2003
0000
0000
0000
,  // measure 36
3020
0000
0000
0000
,  // measure 37
0230
0000
0000
0000
,  // measure 38
0320
0000
0000
0000
,  // measure 39
2030
0000
0000
0000
,  // measure 40
3002
0000
0000
0000
,  // measure 41
2003
0000
0000
0000
,  // measure 42
3001
0000
0010
0000
,  // measure 43
1000
0000
0100
0000
,  // measure 44
0001
0000
0010
0000
,  // measure 45
0001
0000
0010
0000
,  // measure 46
0100
0000
0010
0000
,  // measure 47
0001
0000
0100
0000
,  // measure 48
0010
0000
1000
0000
,  // measure 49
0010
0000
1000
0000
,  // measure 50
0100
0000
0010
0000
,  // measure 51
0100
0000
1000
0000
,  // measure 52
0001
0000
0000
0000
,  // measure 53
0100
0000
0000
0000
,  // measure 54
0010
0000
1000
0000
,  // measure 55
0001
0000
0100
0000
,  // measure 56
0010
0000
0000
0000
,  // measure 57
0100
0000
0000
0000
,  // measure 58
0001
0000
1000
0000
,  // measure 59
0100
0000
0020
0000
,  // measure 60
0100
0000
0000
0030
0000
0000
0000
0000
;

//---------------dance-single - ----------------
#NOTES:
     dance-single:
     :
     Medium:
     4:
     0.260950,0.284771,0.042879,0.300153,0.000000,213.000000,208.000000,5.000000,35.000000,0.000000,0.000000,0.260950,0.284771,0.042879,0.300153,0.000000,213.000000,208.000000,5.000000,35.000000,0.000000,0.000000:
// measure 0
0000
0000
0000
0000
,  // measure 1
0000
0000
0000
0000
,  // measure 2
0000
0000
0000
0000
,  // measure 3
0000
0000
0000
0000
,  // measure 4
1000
0100
0010
0000
,  // measure 5
0001
0100
0010
0000
,  // measure 6
1000
0001
0100
0010
,  // measure 7
0200
0000
0310
0010
,  // measure 8
0100
0001
1000
0100
,  // measure 9
0010
0100
1000
0001
,  // measure 10
0100
0010
0100
0001
,  // measure 11
0010
0100
0010
0001
,  // measure 12
1000
0010
0100
0001
,  // measure 13
1000
0010
0100
0010
,  // measure 14
1000
0001
0010
0100
,  // measure 15
0010
0001
0200
0010
,  // measure 16
0301
1000
0001
1000
,  // measure 17
0001
1000
0001
0010
,  // measure 18
0100
0010
0001
0100
,  // measure 19
0010
0100
0001
0001
,  // measure 20
0001
0100
0001
0001
,  // measure 21
0001
0010
0200
2300
,  // measure 22
3001
0100
0010
1000
,  // measure 23
0010
0100
0001
0100
,  // measure 24
0020
2030
3100
0010
,  // measure 25
0002
2003
3100
0100
,  // measure 26
0110
0002
2003
3020
,  // measure 27
0230
0320
2030
3002
,  // measure 28
0003
2000
3002
0023
,  // measure 29
0230
0320
0032
0203
,  // measure 30
0310
0001
0010
0100
,  // measure 31
0001
1000
0100
0010
,  // measure 32
0100
1000
0002
0000
,  // measure 33
0100
0010
1000
1000
,  // measure 34
0203
0000
0000
0320
,  // measure 35
2030
0000
0000
3002
0000
0000
0000
0000
,  // measure 36
0203
0000
0000
0000
0320
0000
0000
0230
,  // measure 37
0000
0000
0302
0000
,  // measure 38
1003
0000
0000
0001
0000
0010
0000
1000
,  // measure 39
0000
0100
0000
0001
0000
0010
0000
1000
,  // measure 40
0100
0010
1000
0001
,  // measure 41
2000
0000
0000
0000
,  // measure 42
0001
0001
0010
0010
,  // measure 43
0001
0001
0100
0100
,  // measure 44
3001
0100
1000
0100
,  // measure 45
0001
0100
1000
0100
,  // measure 46
0001
0010
0100
0010
,  // measure 47
0001
1000
0001
0001
,  // measure 48
1000
0010
0001
0010
,  // measure 49
0100
0010
0001
0010
,  // measure 50
1000
0100
0010
0100
,  // measure 51
2000
0000
3001
0001
,  // measure 52
1000
0010
0100
0110
,  // measure 53
0001
0010
0100
0110
,  // measure 54
0010
0001
1000
0010
,  // measure 55
0100
0010
1000
1000
,  // measure 56
0001
0100
0010
0110
,  // measure 57
1000
0100
0010
0110
,  // measure 58
0100
1000
0001
0100
,  // measure 59
0010
1000
0002
0100
,  // measure 60
0020
0000
0000
0033
0000
0000
0000
0000
;

//---------------dance-single - ----------------
#NOTES:
     dance-single:
     :
     Easy:
     3:
     0.160490,0.232994,0.000000,0.274426,0.000000,131.000000,131.000000,0.000000,32.000000,0.000000,0.000000,0.160490,0.232994,0.000000,0.274426,0.000000,131.000000,131.000000,0.000000,32.000000,0.000000,0.000000:
// measure 0
0000
0000
0000
0000
,  // measure 1
0000
0000
0000
0000
,  // measure 2
0000
0000
0000
0000
,  // measure 3
0000
0000
0000
0000
,  // measure 4
0010
0000
0000
0000
,  // measure 5
0010
0000
0000
0000
,  // measure 6
0100
0000
0001
0000
,  // measure 7
2000
0000
3000
0000
,  // measure 8
0001
0000
0010
0000
,  // measure 9
1000
0000
0100
0000
,  // measure 10
0001
0000
0010
0000
,  // measure 11
1000
0000
0010
0000
,  // measure 12
0001
0000
0100
0000
,  // measure 13
1000
0000
0010
0000
,  // measure 14
0001
0000
0100
0000
,  // measure 15
0010
0000
2000
0000
,  // measure 16
0000
0000
0000
3000
0000
0000
0000
0000
,  // measure 17
0000
0000
0000
0000
,  // measure 18
0001
0000
1000
0000
,  // measure 19
0010
0000
0100
0100
,  // measure 20
0100
0000
0100
0100
,  // measure 21
0100
0000
0002
2003
,  // measure 22
3002
0003
0010
0000
,  // measure 23
0100
0000
1000
1000
,  // measure 24
0001
1000
0001
0001
,  // measure 25
1000
0001
0000
0000
,  // measure 26
0000
2000
3020
0230
,  // measure 27
0302
2003
3020
0230
,  // measure 28
0300
0020
2030
3002
,  // measure 29
0203
0320
2030
3002
,  // measure 30
1003
0000
0010
0000
,  // measure 31
0001
0000
0010
0000
,  // measure 32
1000
0000
0200
0000
,  // measure 33
0010
0000
1300
0000
,  // measure 34
0002
0000
0000
0000
,  // measure 35
0200
0000
0000
0003
,  // measure 36
0020
0000
0000
0300
,  // measure 37
2000
0000
0030
0000
0002
0000
0000
3003
,  // measure 38
2000
0000
0000
0000
,  // measure 39
0020
0000
0000
3000
,  // measure 40
0200
0000
0000
0030
,  // measure 41
0302
0000
0000
0000
,  // measure 42
1000
1000
1000
1000
,  // measure 43
1000
1000
1000
0100
,  // measure 44
1003
0000
0100
0000
,  // measure 45
0001
0000
0100
0000
,  // measure 46
0010
0000
0100
0000
,  // measure 47
1000
0000
0001
0000
,  // measure 48
1000
0000
0010
0000
,  // measure 49
0001
0000
0010
0000
,  // measure 50
1000
0000
0100
0000
,  // measure 51
0020
0000
0130
0100
,  // measure 52
1000
0001
1000
1000
,  // measure 53
0100
0010
0100
0100
,  // measure 54
1000
0010
0100
0001
,  // measure 55
1000
0010
0100
0100
,  // measure 56
0010
0100
0010
0010
,  // measure 57
1000
0001
1000
1000
,  // measure 58
0001
0010
0100
1000
,  // measure 59
0001
1000
0020
0000
,  // measure 60
0200
0000
0000
0330
0000
0000
0000
0000
;

//---------------dance-single - ----------------
#NOTES:
     dance-single:
     :
     Hard:
     7:
     0.399388,0.465988,0.214395,0.257274,0.012864,326.000000,301.000000,25.000000,30.000000,0.000000,0.000000,0.399388,0.465988,0.214395,0.257274,0.012864,326.000000,301.000000,25.000000,30.000000,0.000000,0.000000:
// measure 0
0000
0000
0000
0000
,  // measure 1
0000
0000
0000
0000
,  // measure 2
0000
0000
0000
0000
,  // measure 3
0000
0000
0000
0000
,  // measure 4
0001
0100
0110
0000
,  // measure 5
1000
0100
0110
0000
,  // measure 6
0001
0000
0100
0000
0010
1000
0010
2000
,  // measure 7
0002
0000
3003
1001
,  // measure 8
0001
0000
0100
0010
0100
0001
0000
1000
,  // measure 9
0000
0100
0010
0100
1000
0001
1000
0000
,  // measure 10
0001
0101
0010
1010
,  // measure 11
1000
0000
1100
0000
0010
0000
0011
0100
,  // measure 12
1000
0000
0010
0100
0010
1000
0000
0001
,  // measure 13
0000
0010
0100
0010
0001
1000
0001
0000
,  // measure 14
0100
0001
1000
0010
0000
0001
0010
1000
,  // measure 15
0000
0001
0010
0100
2000
0000
0001
0000
,  // measure 16
3010
1000
0010
0100
0010
1000
0010
0100
,  // measure 17
0001
0000
0100
0000
0010
0000
0100
0000
0001
0000
0100
0000
0010
0100
0010
0000
,  // measure 18
0100
0000
0001
0010
0100
0010
0001
0100
,  // measure 19
0010
0001
0010
0100
0002
1000
0010
0013
,  // measure 20
0000
0001
0010
0100
2000
0001
0010
3010
,  // measure 21
1000
0001
0100
0000
0101
0000
0110
0000
,  // measure 22
1010
0000
1000
0100
0010
0100
1000
0010
,  // measure 23
0100
1000
0100
0010
1000
1000
0100
0010
,  // measure 24
0011
0000
1100
0000
0001
0100
0010
1000
,  // measure 25
1010
0101
1000
0100
,  // measure 26
0110
0002
0203
2300
,  // measure 27
3020
0032
0100
0200
,  // measure 28
0303
2000
3200
0302
,  // measure 29
0023
2030
0100
3100
,  // measure 30
1000
0000
0001
0010
0000
0100
0010
0001
,  // measure 31
1000
0001
1000
0010
0001
0010
1000
0000
,  // measure 32
0001
0000
1000
0100
0020
0000
0000
0000
,  // measure 33
0001
0001
0100
0100
,  // measure 34
0032
0000
0000
0000
0000
0000
2003
3020
,  // measure 35
0230
0000
0000
2000
0000
0000
0300
0000
,  // measure 36
0200
0000
3000
0000
0302
0000
0000
0023
,  // measure 37
0000
0000
0000
1000
2000
0000
0030
0000
,  // measure 38
0020
0000
0000
3000
,  // measure 39
0032
0000
0000
0200
0000
0000
0003
0000
,  // measure 40
0310
0000
1000
0000
0001
0000
0100
0010
,  // measure 41
0000
0001
0000
0010
0000
1000
0100
0010
,  // measure 42
0000
1000
0000
0010
0000
0001
0100
0010
,  // measure 43
0000
0001
0000
0010
0000
1000
0100
0010
,  // measure 44
0001
0000
0100
0010
0100
0001
0000
1000
,  // measure 45
0000
0100
0010
0100
1000
0001
1000
0000
,  // measure 46
0001
0101
0010
1010
,  // measure 47
1000
0000
1100
0000
0010
0000
0011
0100
,  // measure 48
1000
0000
0010
0100
0010
1000
0000
0001
,  // measure 49
0000
0010
0100
0010
0001
1000
0001
0000
,  // measure 50
1000
0000
0001
0100
0010
0001
0000
0010
,  // measure 51
0100
0001
1000
0100
0010
0000
0110
0000
,  // measure 52
0001
0100
1000
0100
0001
1000
1001
0000
,  // measure 53
1000
0100
0001
0100
1000
0001
1001
0000
,  // measure 54
0001
0100
1000
0100
0001
1000
0100
0001
,  // measure 55
1000
0010
0001
0100
0001
1000
1001
0000
,  // measure 56
1000
0010
0001
0010
1000
0001
1001
0000
,  // measure 57
0001
0010
1000
0010
0001
1000
1001
0000
,  // measure 58
0001
1000
0010
0001
0000
0010
1000
0100
,  // measure 59
0000
0000
0001
0000
0100
0000
1000
0000
0001
0000
0100
0000
0010
1000
0000
1000
,  // measure 60
0002
0000
0000
0003
0000
0000
0000
0000
;
