#TITLE:Beautiful Beachfront Properties;
#SUBTITLE:;
#ARTIST:Nero's Day At Disneyland;
#TITLETRANSLIT:;
#SUBTITLETRANSLIT:;
#ARTISTTRANSLIT:;
#GENRE:WHAT THE FUCK IS THIS?;
#CREDIT:;
#BANNER:;
#BACKGROUND:;
#LYRICSPATH:;
#CDTITLE:cd.png;
#MUSIC:[ROUND H] - Beautiful Beachfront Properties.ogg;
#OFFSET:-1.110000;
#SAMPLESTART:23.927999;
#SAMPLELENGTH:13.100000;
#SELECTABLE:YES;
#DISPLAYBPM:292.000000;
#BPMS:0.000000=292.000000
,110.000000=584.000000
,112.000000=292.000000
,124.000000=290.999939
,232.000000=291.999878
,286.000000=292.019989
;
#STOPS:
;
#BGCHANGES:;
#KEYSOUNDS:;
#ATTACKS:;

//---------------dance-single - ----------------
#NOTES:
     dance-single:
     :
     Challenge:
     13:
     1.000000,1.000000,1.000000,0.563614,0.289223,473.000000,76.000000,38.000000,0.000000,0.000000,0.000000,1.000000,1.000000,1.000000,0.563614,0.289223,473.000000,76.000000,38.000000,0.000000,0.000000,0.000000:
1000
1100
1001
0001
,
0101
1001
1000
1010
,
1001
0001
0011
1001
,
0100
0110
1001
0001
,
0101
1010
0020
0230
,
0302
2003
3020
0230
,
0301
0100
0010
0010
0100
1000
0100
0100
,
0001
1000
1100
0000
0010
0010
0001
0010
,
0100
0000
1100
1100
1000
0001
0100
0010
,
2000
3020
0230
0302
,
0023
0031
0101
1010
,
1100
0000
1001
0100
0101
0000
0110
0000
,
0010
0000
1000
0000
0100
0000
1000
0000
0001
0000
0010
0000
0100
1000
0100
1000
,
0001
0000
0000
0000
0000
0000
0000
0000
0001
0000
0000
0000
0000
0000
0000
0000
0001
0000
0000
0000
0000
0000
0000
0000
0100
0000
0000
0000
0000
0000
0010
0000
0000
0000
0000
0000
0220
0000
0000
0000
0000
0000
0000
0000
0000
0330
0000
0000
,
0100
1000
0001
1000
0100
0001
0010
0000
,
0100
1001
0010
1001
,
1001
0100
1010
1010
,
0001
0000
0101
0000
1001
0000
1000
0100
,
0001
1000
1010
0110
,
0011
0000
0101
0100
0110
1000
0002
0000
,
0013
0000
0100
1000
0001
0000
0000
0000
0101
0000
0000
0202
0000
0000
0303
0000
,
0001
0010
0100
2000
0000
0000
0000
0000
3000
0000
0000
0000
2020
0000
0000
0000
,
0000
0000
0000
0000
,
0000
0000
0000
0000
,
3030
2002
0000
0000
0000
0000
3003
0202
,
0000
0000
0000
0000
0000
0000
0303
0220
,
0000
0000
0330
2020
0000
0000
0000
0000
,
0000
3030
0000
0000
,
1000
0000
0100
1000
0010
0000
0100
0000
0001
0000
0010
0000
0100
0000
0100
0000
,
0001
0100
1000
0100
0001
0010
1100
0000
,
1010
1010
1001
1001
,
0001
0010
1000
0010
0100
0001
0100
1000
,
0010
0000
0100
0001
1000
0000
0100
0000
0010
0000
0001
0000
0202
0000
0303
0000
,
0010
0000
1000
0001
0010
0100
1000
0000
1001
0000
0000
0000
0100
0000
1000
0000
,
0020
0100
0000
0000
0130
0000
1001
0000
,
0001
0010
0100
1000
0001
0000
0100
0000
,
0010
1000
0010
0100
0000
0000
0101
0000
0000
1001
0000
0000
,
1000
0100
0010
0001
1000
0010
0100
0001
,
1000
0100
0001
0000
0101
0000
0110
0000
,
1100
0100
1000
0010
0100
0001
0010
0010
,
1000
0010
0001
0010
1000
0100
0001
0000
,
0100
1000
0100
1000
0010
0000
0100
0000
0001
0000
0000
0000
1001
0000
1000
0000
,
2200
0000
0000
3300
0012
0000
1003
0000
,
0010
1000
0100
1000
0001
0100
0010
0010
,
0001
0100
1000
0100
0001
0010
0100
0010
,
0001
1000
0100
1000
0001
0100
0010
0100
,
0001
0100
1000
0100
0001
0010
0100
0010
,
0001
1000
0100
1000
0001
1000
0010
0100
,
0001
0100
0101
0100
0010
1000
0200
0000
,
1300
0000
0000
0000
0100
0000
0000
0000
1000
0000
0000
0000
0001
0000
0000
0000
0000
0000
0100
0000
0000
0000
0000
0000
0001
0000
0000
0000
0000
0000
0000
0000
0000
0000
0000
0000
0010
0000
0000
0000
0000
0000
0100
0000
0000
1000
0000
0000
,
0100
1000
0010
1000
0001
0100
0001
0010
,
0100
0100
0010
0001
1100
0000
1001
0001
,
0201
0000
0000
0000
0310
1000
0100
0000
1000
0000
0010
0000
0100
0000
0001
0000
,
0010
0000
0010
0000
1000
0100
1000
0100
1000
0000
0001
0000
0100
0010
0100
0010
,
1000
0001
0010
0100
1000
0100
0010
0010
,
0001
0100
0010
1000
0001
0100
0010
1000
,
0100
0100
0001
0010
0100
1000
0001
0100
,
0010
0000
0110
0100
0001
1000
0100
0000
,
0010
0001
0101
0000
0100
0010
1000
1000
,
0100
1000
0001
0000
0100
0000
0000
0000
0010
0000
0100
0001
1000
0000
0000
0000
,
0010
0110
0101
0001
,
0011
1100
1000
0110
,
1001
0000
0001
0100
1000
0000
0001
0000
,
0010
0010
1000
0100
0001
0100
1000
0010
,
0100
0001
0100
1000
0100
0001
0010
0100
,
1000
0010
0100
0001
1000
0100
1100
0000
,
1000
0001
0010
0110
,
1001
0000
1100
0000
1000
1000
0100
0001
,
0100
1000
0010
0100
0001
0000
0010
0000
,
0100
0100
1000
0001
0100
0000
0001
0010
,
0100
1000
1010
0000
0010
0100
0010
1000
,
0001
0010
0001
1000
0100
0010
0000
0000
,
1001
0000
0000
0000
0001
0000
0100
0000
0010
0000
1000
0000
,
0200
0000
0000
0320
0000
0000
0031
0010
0100
1000
0000
0000
,
0010
0000
0000
0000
0100
0000
0000
0000
0010
0000
0000
0000
0100
0000
0000
0000
0000
0000
0001
0000
0000
0000
0000
0000
1000
0000
0000
0100
0000
0000
1000
0000
0000
0000
0000
0000
0001
0000
0000
0000
0000
0000
0000
0000
0000
0100
0000
0000
,
0000
0000
0000
0000
0000
0000
0000
0000
0000
0110
0000
0000
0000
0000
0000
0000
0000
0000
0000
0000
0000
0000
0000
0000
0010
0000
0000
0000
0100
0000
0000
0000
0001
0000
0000
0000
2000
0000
0000
0000
0000
0000
0000
0000
0000
0000
0000
0000
,
3100
0100
0100
0100
0010
0001
1000
0010
,
0100
0000
0001
0000
0100
0000
1000
0100
0001
0000
0000
0000
0000
0000
0000
0000
,
0001
0000
0000
0001
,
0000
0000
0001
0000
,
0000
0001
0000
0000
;

//---------------dance-single - ----------------
#NOTES:
     dance-single:
     :
     Hard:
     10:
     0.972552,0.919581,0.548782,0.237311,0.066744,406.000000,37.000000,16.000000,0.000000,0.000000,0.000000,0.972552,0.919581,0.548782,0.237311,0.066744,406.000000,37.000000,16.000000,0.000000,0.000000,0.000000:
1000
0010
0010
0100
,
0001
0001
0010
0100
,
0100
1000
1100
0011
,
0001
0100
0100
0010
,
1000
1000
0010
0100
,
0100
0001
0010
0100
,
1000
0100
0010
0001
1000
0000
0010
0100
,
0001
0100
0010
0000
1000
0001
0010
0100
,
1000
0000
0100
0010
0001
0000
1000
0000
,
0010
0100
0001
0100
,
0010
1000
1001
0011
,
0110
0000
0100
1000
0001
0000
1001
0000
,
0001
1000
0010
0100
0001
1000
0100
0000
,
0010
0000
0000
0000
0001
0000
0000
0000
0010
0000
0000
0000
0001
0000
0000
0100
0000
0000
0010
0000
0000
0000
0000
0000
,
1000
0100
1000
0001
0100
0010
1000
0000
,
0001
0110
0100
1000
,
1100
1000
0001
1001
,
0001
0000
0100
0000
0101
0000
0001
0100
,
0010
0100
0110
1010
,
1001
0000
0001
0100
0001
1000
0100
0000
,
0010
0000
0001
0000
1000
0000
0000
0000
0010
0000
0000
0100
0000
0000
0000
0000
,
0010
1000
0002
0000
0003
0000
2002
0000
,
0000
0000
0000
0000
,
0000
0000
0000
0000
0000
0000
0000
3003
,
0000
0200
0000
0000
0000
0000
0000
0320
,
0000
0000
0000
0000
0000
0000
0000
2030
,
0000
0000
0000
0002
0000
0000
0000
0000
,
0000
0000
3003
0000
,
1000
0010
0100
0001
1000
0100
0010
0000
,
0001
0010
0100
1000
0001
0100
0010
0000
,
1010
0101
1001
1100
,
0001
0010
0100
1000
0001
1000
0010
0100
,
0001
0100
0010
0000
0100
0001
1000
0000
,
0100
1000
0010
1000
0001
0100
0010
0100
,
0002
0000
0013
0100
,
1000
0010
0100
0000
0101
0000
0001
1000
,
0100
0110
0011
0110
,
0100
1000
0010
1000
0001
0100
0010
0100
,
0001
0000
0101
1001
,
1000
0100
0010
0001
0010
0100
1000
0001
,
0100
0001
0000
0001
1000
0100
1000
0001
,
0100
0010
0100
0001
0010
0000
0010
0100
,
2000
0000
3100
0100
,
1000
0100
1000
0001
0100
0001
0010
0000
,
0100
1000
0100
1000
0100
1000
0100
1000
,
0100
1000
0100
1000
0100
1000
0100
1000
,
0001
0100
0001
0100
0001
0100
0001
0100
,
0010
0100
0010
0100
0010
0100
0010
0100
,
0001
0000
0100
0001
1000
0100
1000
0000
,
0010
0010
0100
0000
0101
0000
0001
1000
,
0010
0100
0010
0100
0001
1000
0001
1000
,
0010
0100
0001
0000
1001
0000
0100
0000
,
2010
0000
0001
0000
3100
1000
0010
0010
,
0100
0001
0100
0010
1000
0001
1000
0100
,
0010
0000
0100
0000
1000
0000
0010
0100
,
0001
0100
0010
1000
,
0001
0010
0001
1000
0100
0000
1000
1000
,
0010
0000
0100
0001
0010
0000
0001
1000
,
0100
1000
0010
0000
0110
0000
0100
0001
,
0010
0010
0100
0000
1000
0001
0100
0000
,
0010
1000
0100
0011
,
1100
1001
0001
0100
,
0010
0000
1000
0001
0100
0000
0010
0000
,
0100
0001
1000
0100
,
0010
0001
0010
0001
1000
0100
1000
0100
,
1000
0001
0100
0010
0100
0001
0000
0000
,
0100
0010
1000
1010
,
0101
1001
1000
0100
,
0010
0000
0001
0010
0100
0000
1000
0000
,
0001
0101
1000
0010
,
0110
0000
0001
0000
1000
0100
0010
0001
,
1000
0100
1000
0001
0100
0010
0000
0000
,
0110
0000
0000
0000
0100
0000
0010
0000
0100
0000
0001
0000
,
1000
0100
0020
0031
,
0020
0000
0000
0000
0130
0000
0100
0000
2000
0000
0000
0000
3002
0000
0000
0203
,
0000
0000
0000
0320
0000
0000
0030
0000
1000
0000
0001
0000
0010
0000
0000
0000
,
0100
1000
0100
1000
0001
0100
0001
0100
,
0010
0000
0100
0000
0010
0000
0100
0001
1000
0000
0000
0000
0000
0000
0000
0000
;

//---------------dance-single - ----------------
#NOTES:
     dance-single:
     :
     Medium:
     8:
     0.701340,0.690798,0.459791,0.207647,0.022248,286.000000,31.000000,14.000000,0.000000,0.000000,0.000000,0.701340,0.690798,0.459791,0.207647,0.022248,286.000000,31.000000,14.000000,0.000000,0.000000,0.000000:
1000
0010
0100
0001
,
1000
0100
0010
0001
,
1000
0100
0010
0110
,
0100
1000
0001
0100
,
0010
1000
0001
0010
,
0100
1000
0001
0100
,
0010
1000
0100
0010
,
0001
0100
0001
1000
,
0100
0010
0001
1000
,
0010
1000
0100
0010
,
0001
0100
0001
1000
,
0100
1000
0010
0100
,
0001
0010
0001
1000
,
0100
1000
0001
0100
,
0001
1000
0010
1000
,
0001
0010
0100
1000
,
1100
1000
0001
1001
,
0001
0100
0101
0001
,
0100
0010
1000
0010
,
1010
1000
0001
1001
,
0001
0010
0001
0010
,
0100
1000
0000
2002
,
0000
0000
0000
0000
,
3003
0000
0000
0000
,
0000
2000
0000
0000
0000
0000
0000
3020
,
0000
0000
0000
0000
0000
0000
0000
0230
,
0000
0000
0000
0002
0000
0000
0000
0000
,
0303
0000
0000
0000
,
0001
0100
0010
1000
,
0100
0010
0100
1000
,
0010
1000
0001
0100
,
0010
1000
0001
0010
,
0100
0100
0010
0001
,
0001
1000
0010
0100
,
0001
1000
0010
1000
,
0100
0010
0001
0000
,
0001
0010
0100
0010
,
0001
1000
0100
0100
,
1000
0010
0100
0001
,
0100
0100
0010
0010
,
1000
0100
1000
0001
,
0100
0001
0010
0100
,
1000
0010
0100
0001
,
0010
0010
0100
0000
,
0010
0001
1000
0100
,
1000
0001
0100
0001
,
0010
0100
0010
0001
,
1000
0010
0100
0010
,
1000
0010
1000
1010
,
1000
0001
1000
1001
,
0001
0010
0001
0011
,
0010
0100
0010
0110
,
0100
1000
0010
1000
,
0001
0100
0010
0100
,
0001
0010
0100
1000
,
0010
0100
0001
1000
,
1100
1000
0100
0010
,
0100
1000
0010
0100
,
0001
0100
0010
0100
,
0001
1000
0001
0010
,
0100
1000
1100
1000
,
0001
1001
0001
0100
,
0101
0100
0010
0110
,
0100
0010
0110
0100
,
0001
0101
0001
1000
,
1001
0000
1000
0000
0100
1000
0001
0000
,
0010
0100
1000
1100
,
1001
0101
0001
0100
,
0010
1010
0110
0101
,
0001
1000
0100
0110
,
0011
0110
0100
1000
,
0001
0000
1001
0000
0010
0100
0000
0000
,
2001
0000
3002
0000
,
0103
0010
2000
3000
,
0002
0000
0000
0000
0003
0000
0001
0000
0010
0000
0000
0100
0000
0000
0000
1000
,
0000
0000
0000
0001
0000
0000
0000
0000
0200
0000
0000
0000
0320
0000
0000
0000
,
1030
1000
0001
0001
,
0100
0000
0010
0000
2002
3003
0000
0000
;

//---------------dance-single - ----------------
#NOTES:
     dance-single:
     :
     Easy:
     5:
     0.400463,0.575665,0.088992,0.148320,0.000000,173.000000,6.000000,10.000000,0.000000,0.000000,0.000000,0.400463,0.575665,0.088992,0.148320,0.000000,173.000000,6.000000,10.000000,0.000000,0.000000,0.000000:
// measure 0
1000
0000
0000
0001
,  // measure 1
0000
0000
0100
0000
,  // measure 2
0000
0010
0000
0000
,  // measure 3
1000
0000
0000
0010
,  // measure 4
0000
0000
0100
0000
,  // measure 5
0001
0000
1000
0000
,  // measure 6
0001
0000
0010
0000
,  // measure 7
0100
0000
1000
0000
,  // measure 8
0010
0000
0100
0001
,  // measure 9
1000
0000
0100
0000
,  // measure 10
0010
0000
0001
0000
,  // measure 11
0010
0000
0100
1000
,  // measure 12
0001
0000
0100
0000
,  // measure 13
0010
0000
1000
0000
,  // measure 14
0010
0000
0100
0001
,  // measure 15
0010
0000
0100
0000
,  // measure 16
1000
0000
0001
0000
,  // measure 17
0100
0000
0010
1000
,  // measure 18
0010
0100
0001
0000
,  // measure 19
0010
0000
0100
0000
,  // measure 20
1000
0000
0100
0000
,  // measure 21
0010
0010
0000
2002
,  // measure 22
0000
0000
0000
3003
,  // measure 23
0000
0000
0000
0000
,  // measure 24
0000
0200
0000
0000
0000
0300
0000
0020
,  // measure 25
0000
0000
0000
0030
0000
0000
0000
2000
,  // measure 26
0000
0000
0000
0002
0000
0000
0000
0000
,  // measure 27
3003
0000
0000
0000
,  // measure 28
1000
0000
0001
0000
,  // measure 29
0100
0000
0010
0000
,  // measure 30
1000
0010
0100
0001
,  // measure 31
1000
0000
0100
0000
,  // measure 32
0010
0000
0001
0000
,  // measure 33
0010
0000
0100
0000
,  // measure 34
1000
0010
0100
0001
,  // measure 35
0010
0000
0100
0000
,  // measure 36
1000
0000
0100
0000
,  // measure 37
0010
0000
0001
0000
,  // measure 38
0100
0010
1000
0001
,  // measure 39
0010
0000
0100
0000
,  // measure 40
0010
0000
0001
0000
,  // measure 41
1000
0000
0010
0000
,  // measure 42
0100
0001
0010
0000
,  // measure 43
0100
1000
0001
0000
,  // measure 44
0100
0000
0010
0000
,  // measure 45
0100
0001
0010
0000
,  // measure 46
0100
0000
0110
0000
,  // measure 47
0100
1000
0010
0000
,  // measure 48
0100
0000
1001
0000
,  // measure 49
0001
0010
0100
0000
,  // measure 50
1000
0000
1001
0000
,  // measure 51
0001
0100
0010
0000
,  // measure 52
1000
0000
0010
0000
,  // measure 53
0100
0001
0010
0000
,  // measure 54
0100
0000
0010
0000
,  // measure 55
0001
1000
0010
0100
,  // measure 56
0001
0000
0010
0000
,  // measure 57
0001
1000
0010
0000
,  // measure 58
0100
0000
0010
0000
,  // measure 59
1000
0001
0010
0000
,  // measure 60
0100
0000
0100
0000
,  // measure 61
1000
0000
1000
0000
,  // measure 62
0001
0100
0010
1000
,  // measure 63
0010
0000
0010
0000
,  // measure 64
0100
0000
0100
0000
,  // measure 65
0001
0010
0100
1000
,  // measure 66
0001
0000
1000
0001
,  // measure 67
0000
0100
0010
0000
,  // measure 68
1000
0010
0100
0001
,  // measure 69
1000
0000
0100
1000
,  // measure 70
0000
0001
0010
0000
,  // measure 71
0001
0100
0010
0000
,  // measure 72
0220
0000
0000
0000
,  // measure 73
0000
0000
0000
0000
,  // measure 74
0000
0000
0000
0000
,  // measure 75
0000
0000
0000
0330
,  // measure 76
1000
0001
1000
0001
,  // measure 77
0010
0000
0100
0000
2002
3003
0000
0000
;
