#VERSION:0.83;
#TITLE:sister's noise;
#SUBTITLE:;
#ARTIST:fripSide;
#TITLETRANSLIT:;
#SUBTITLETRANSLIT:;
#ARTISTTRANSLIT:;
#GENRE:;
#ORIGIN:;
#CREDIT:;
#BANNER:[ROUND G] - sister's noise.png;
#BACKGROUND:[ROUND G] - sister's noise-bg.png;
#PREVIEWVID:;
#JACKET:;
#CDIMAGE:;
#DISCIMAGE:;
#LYRICSPATH:;
#CDTITLE:;
#MUSIC:[ROUND G] - sister's noise.ogg;
#OFFSET:1.543000;
#SAMPLESTART:58.433998;
#SAMPLELENGTH:15.000000;
#SELECTABLE:YES;
#BPMS:0.000=144.000;
#STOPS:;
#DELAYS:;
#WARPS:;
#TIMESIGNATURES:0.000=4=4;
#TICKCOUNTS:0.000=4;
#COMBOS:0.000=1;
#SPEEDS:0.000=1.000=0.000=0;
#SCROLLS:0.000=1.000;
#FAKES:;
#LABELS:0.000=Song Start;
#BGCHANGES:;
#KEYSOUNDS:;
#ATTACKS:
;

//---------------dance-single - ----------------
#NOTEDATA:;
#CHARTNAME:;
#STEPSTYPE:dance-single;
#DESCRIPTION:;
#CHARTSTYLE:;
#DIFFICULTY:Beginner;
#METER:2;
#RADARVALUES:0.130961,0.141035,0.000000,0.161183,0.000000,91.000000,91.000000,0.000000,16.000000,0.000000,0.000000,0.000000,0.000000,0.000000,0.130961,0.141035,0.000000,0.161183,0.000000,91.000000,91.000000,0.000000,16.000000,0.000000,0.000000,0.000000,0.000000,0.000000;
#CREDIT:;
#NOTES:
0000
0000
0000
0000
,
0000
0000
0000
0000
,
0000
0000
0000
0000
,
0000
0000
0000
0000
,
0000
0000
0000
0000
,
0010
0000
0000
0000
,
0010
0000
0000
0000
,
1000
0000
0001
0000
,
1000
0000
0002
0000
,
1003
0000
0010
0000
,
0100
0000
0100
0000
,
0001
0000
0010
0000
,
0100
0000
0100
0000
,
2000
0000
3002
0000
,
0103
0000
0010
0000
,
0100
0000
0001
0000
,
0020
0000
0000
0000
,
0130
0000
0100
0000
,
1000
0000
1000
0000
,
0001
0000
0100
0000
,
0010
0000
0010
0000
,
0100
0000
0001
0000
,
0010
0000
0010
0000
,
0100
0000
1000
0000
,
0001
0000
0100
0000
,
0010
0000
0020
0000
,
0030
0000
0000
0000
,
0100
0000
0010
0000
,
1000
0000
0200
0000
,
0310
0000
0001
0000
,
0100
0000
0020
0000
,
1030
0000
0001
0000
,
0100
0000
0002
0000
,
1003
0000
0010
0000
,
0100
0000
0020
0000
,
1030
0000
0000
0000
,
0001
0000
0010
0000
,
0100
0000
0010
0000
,
0001
0000
1000
0000
,
0010
0000
1000
0000
,
0100
0000
0010
0000
,
0001
0000
1000
0000
,
0010
0000
0100
0000
,
0010
0000
2000
0000
,
3001
0000
0100
0000
,
0010
0000
0100
0000
,
0001
0000
1000
0000
,
0100
0000
0010
0000
,
0002
0003
0020
0030
,
0200
0300
1000
0000
,
0001
0000
0100
0000
,
0020
0000
0030
0000
,
1000
0000
0001
0000
,
0200
0000
0000
0000
,
0320
0000
0000
0000
,
0000
0000
0000
0000
,
0030
0000
0000
0000
;

//---------------dance-single - ----------------
#NOTEDATA:;
#CHARTNAME:;
#STEPSTYPE:dance-single;
#DESCRIPTION:;
#CHARTSTYLE:;
#DIFFICULTY:Easy;
#METER:4;
#RADARVALUES:0.256166,0.366692,0.040296,0.130961,0.000000,178.000000,174.000000,4.000000,13.000000,0.000000,0.000000,0.000000,0.000000,0.000000,0.256166,0.366692,0.040296,0.130961,0.000000,178.000000,174.000000,4.000000,13.000000,0.000000,0.000000,0.000000,0.000000,0.000000;
#CREDIT:;
#NOTES:
0000
0000
0000
0000
,
0000
0000
0000
0000
,
0000
0000
0000
0000
,
0000
0000
0000
0000
,
0000
0000
0000
0000
,
0010
0100
0010
0010
,
1000
0001
0010
1000
,
0010
0100
0010
0001
,
1000
0001
0200
0000
,
0301
0100
0010
0001
,
0010
0100
0010
1000
,
0001
0010
0100
0010
,
1000
0010
0100
1000
,
0002
0000
0203
0000
,
1300
0000
0100
0010
,
1000
0100
0010
0001
,
2000
0000
0000
0000
,
3001
0010
1000
0010
,
0001
0100
1000
0100
,
0001
0010
0100
0010
,
0001
0100
0010
0000
,
1000
0010
1000
0001
,
0100
0010
1000
0000
,
0010
1000
0001
0100
,
0010
0100
0001
0010
,
0100
1000
0100
0010
,
0100
1000
0001
1000
,
0001
0100
1000
0100
,
0010
1000
0001
0000
,
1000
0100
0001
0100
,
0010
0001
1000
0000
,
0001
0101
0100
0110
,
0010
1010
1000
1001
,
0001
0100
1000
0010
,
0001
0100
0020
0000
,
0030
0000
0200
0000
,
0301
0010
1000
0010
,
0001
1000
0001
0000
,
1000
0010
0001
0010
,
1000
0100
0010
0001
,
0100
0010
1000
0010
,
0100
0001
1000
0010
,
1000
0100
0010
0100
,
1000
0001
2000
0000
,
3001
0100
1000
0100
,
0010
1000
0001
0000
,
1000
0100
0001
0100
,
0010
0001
1000
0000
,
0002
0003
0200
0320
,
2030
3001
0100
0010
,
0100
0001
0010
1000
,
0010
0100
1000
0001
,
0100
0001
1000
0010
,
2000
0000
0000
0000
,
3002
0000
0000
0000
,
0000
0000
0000
0000
,
0003
0000
0000
0000
;

//---------------dance-single - ----------------
#NOTEDATA:;
#CHARTNAME:;
#STEPSTYPE:dance-single;
#DESCRIPTION:;
#CHARTSTYLE:;
#DIFFICULTY:Medium;
#METER:5;
#RADARVALUES:0.270557,0.310277,0.000000,0.151109,0.000000,188.000000,188.000000,0.000000,15.000000,0.000000,0.000000,0.000000,0.000000,0.000000,0.270557,0.310277,0.000000,0.151109,0.000000,188.000000,188.000000,0.000000,15.000000,0.000000,0.000000,0.000000,0.000000,0.000000;
#CREDIT:;
#NOTES:
0000
0000
0000
0000
,
0000
0000
0000
0000
,
0000
0000
0000
0000
,
0000
0000
0000
0000
,
0000
0000
0000
0000
,
1000
0000
0001
0000
0100
0000
0010
0100
,
0010
0000
0100
0000
0001
0000
1000
0001
,
1000
0100
0010
0001
,
1000
1000
2000
0000
,
3001
0000
0100
0000
0010
0000
1000
0010
,
1000
0100
0010
0100
,
1000
0000
0001
0000
0100
0000
0010
0100
,
0010
0100
0001
0000
,
2000
0000
0000
0000
3200
0000
0310
0100
,
1000
0001
0100
0010
,
1000
1000
0001
0001
,
0100
0020
0000
0000
0000
0000
0000
0000
,
0130
0100
0100
0100
,
0001
0001
0001
0001
,
1000
0100
0010
0100
,
1000
1000
1000
0000
,
0001
0100
0010
0100
,
0001
0000
0010
0000
0100
0000
1000
0100
,
1000
0100
0010
0100
,
1000
0001
0100
0010
,
0100
0001
0020
0000
,
0130
0000
1000
0000
0001
1000
0001
0000
,
1000
0010
0001
0100
,
1000
1000
1000
0000
,
0001
0100
1000
0010
,
0001
0001
0001
0000
,
0100
0010
1000
0010
,
0001
0010
0100
0001
,
1000
0100
0010
0100
,
1000
0001
2000
0000
,
3001
0001
0200
0000
,
0301
0000
0100
0000
0010
0000
1000
0100
,
1000
0100
0020
0030
,
0100
0000
1000
0000
0001
0000
0100
0010
,
0100
0010
1000
0000
,
0100
0000
0010
0000
0100
0000
1000
0100
,
1000
0000
0001
0000
0100
0000
0010
0100
,
0020
0030
0100
0001
,
1000
0100
0010
0000
,
0001
0000
0010
0000
0100
0000
1000
0100
,
1000
0001
0200
0300
,
0001
0000
0100
0000
0010
0000
1000
0100
,
1000
0001
0010
0000
,
0200
0000
0000
0000
0320
0000
0031
0010
,
0100
0010
0001
1000
,
0010
0010
0100
0100
,
0001
1000
0002
0000
0000
0000
0000
0000
,
1003
0000
0001
0000
,
0100
0020
0000
0000
0000
0000
0000
0000
,
0230
0000
0000
0000
,
0000
0000
0000
0000
,
0300
0000
0000
0000
;

//---------------dance-single - HealingDMax300----------------
#NOTEDATA:;
#CHARTNAME:;
#STEPSTYPE:dance-single;
#DESCRIPTION:HealingDMax300;
#CHARTSTYLE:;
#DIFFICULTY:Hard;
#METER:7;
#RADARVALUES:0.405836,0.451313,0.100739,0.151109,0.176294,282.000000,272.000000,10.000000,15.000000,0.000000,0.000000,0.000000,0.000000,0.000000,0.405836,0.451313,0.100739,0.151109,0.176294,282.000000,272.000000,10.000000,15.000000,0.000000,0.000000,0.000000,0.000000,0.000000;
#CREDIT:HealingDMax300;
#NOTES:
// measure 0
0000
0000
0000
0000
,  // measure 1
0000
0000
0000
0000
,  // measure 2
0000
0000
0000
0000
,  // measure 3
0000
0000
0000
0000
,  // measure 4
0000
0000
0000
0000
,  // measure 5
0001
0000
0001
0000
0001
0000
0001
0100
,  // measure 6
0010
0000
0010
0000
0010
0000
0010
1000
,  // measure 7
0100
0000
0010
0000
0100
0000
1000
0001
,  // measure 8
1000
0000
0000
0001
0000
0000
1001
0000
0000
0000
0000
0000
0000
0000
0000
0000
,  // measure 9
0001
0000
0100
0000
0010
0100
0001
0010
,  // measure 10
0100
0000
0000
0100
0000
0000
0010
0000
0001
0000
0000
0000
0000
0000
0000
0000
,  // measure 11
0100
0000
0001
1000
0010
0000
0100
0010
,  // measure 12
1000
0000
0000
1000
0000
0000
0100
0000
0010
0000
0000
0000
0000
0000
0000
0000
,  // measure 13
0002
0000
0010
0000
2003
0000
3010
1000
,  // measure 14
0001
0000
0100
0001
0100
0010
1000
0010
,  // measure 15
0100
0010
1000
0100
0010
0100
1000
0001
,  // measure 16
0200
0020
0000
0000
0000
0000
0330
0000
,  // measure 17
1000
0000
0001
0000
0010
0000
0000
0100
0000
0000
0001
0000
0100
0000
1000
0000
,  // measure 18
0001
0000
1000
0000
0010
0000
0000
0100
0000
0000
1000
0000
0100
0000
0001
0000
,  // measure 19
1000
0000
0000
0100
0000
0000
0010
0000
0100
0000
0000
0000
0100
0000
1000
0000
,  // measure 20
0001
0000
0000
0100
0000
0000
0010
0000
0100
0000
0000
0000
0110
0000
0000
0000
,  // measure 21
0100
0000
0000
0001
0000
0000
1000
0000
0100
0000
0000
0000
0100
0000
0010
0000
,  // measure 22
0100
0000
0000
1000
0000
0000
0001
0000
1000
0000
0000
0000
1001
0000
0000
0000
,  // measure 23
1000
0000
0000
0001
0000
0000
0100
0000
0010
0000
0000
0000
0010
0000
0100
0000
,  // measure 24
0001
0000
0000
0010
0000
0000
0100
0000
0000
0000
1000
0000
0010
0000
0100
0000
,  // measure 25
0010
0000
0000
1000
0000
0000
0001
0000
0200
0000
0000
0000
0000
0000
0000
0000
,  // measure 26
0310
0000
0000
0010
0000
0000
0010
0000
1000
0000
0010
0000
0001
0000
0010
0000
,  // measure 27
1000
0000
0000
0100
0000
0000
0001
0000
1000
0000
0000
0010
0000
0000
0001
0000
,  // measure 28
0100
0000
0000
0001
0000
0000
1000
0000
0020
0000
0000
0100
0000
0000
0130
0000
,  // measure 29
0001
0000
0000
0010
0000
0000
1000
0000
0010
0000
0000
0100
0000
0000
1000
0000
,  // measure 30
0010
0000
0000
0001
0000
0000
0010
0000
2000
0000
0000
0001
0000
0000
3001
0000
,  // measure 31
1000
0100
0010
0000
0100
1000
0001
0000
,  // measure 32
1000
0010
0100
0000
0010
1000
0001
0000
,  // measure 33
1000
0100
0010
0100
1000
0001
1000
0010
,  // measure 34
0100
0000
0000
0001
0000
0000
0100
0000
0020
0000
0000
0000
0000
0000
0000
0000
,  // measure 35
0130
0000
0000
0010
0000
0000
0110
0000
0000
0000
0000
0000
0000
0000
0000
0000
,  // measure 36
0001
0000
0000
0000
0010
0000
0000
0100
0000
0000
0010
0000
0001
0000
0100
0000
,  // measure 37
0010
0000
0000
1000
0000
0000
0010
0000
0100
0000
0000
0000
0110
0000
0000
0000
,  // measure 38
0100
0000
0000
0000
0001
0000
0000
1000
0000
0000
0100
0000
0010
0000
0100
0000
,  // measure 39
1000
0000
0000
0100
0000
0000
0010
0000
0001
0000
0000
0000
0011
0000
0000
0000
,  // measure 40
0010
0000
0000
0000
0100
0000
0000
1000
0000
0000
0001
0000
0100
0000
0010
0000
,  // measure 41
0100
0000
0000
0000
0010
0000
0000
1000
0000
0000
0001
0000
0010
0000
0100
0000
,  // measure 42
0010
0000
0000
0100
0010
0100
1000
0010
,  // measure 43
0100
0000
0000
0010
0000
0000
1000
0000
0001
0000
0000
0000
1001
0000
0000
0000
,  // measure 44
0001
0000
0000
0000
0100
0000
0000
0010
0000
0000
0100
0000
0001
0000
0010
0000
,  // measure 45
0100
0000
0000
0010
0000
0000
0001
0000
0100
0000
0000
0000
0101
0000
0000
0000
,  // measure 46
0001
0000
0000
0000
0100
0000
0000
0010
0000
0000
0100
0000
0010
0000
1000
0000
,  // measure 47
0100
0000
0000
0010
0000
0000
0100
0000
1000
0000
0000
0000
1100
0000
0000
0000
,  // measure 48
0002
0000
0100
0000
2003
0000
3100
1000
,  // measure 49
0001
0000
0010
0100
1000
0010
0100
0001
,  // measure 50
0100
0010
1000
0100
0010
0001
0010
0100
,  // measure 51
0010
0000
0000
0002
0000
0000
0000
0000
0000
0000
0000
0000
1000
0000
1003
0000
,  // measure 52
0010
0100
0001
0100
0010
0100
0001
1000
,  // measure 53
0200
0020
0000
0000
0000
0000
0330
0000
,  // measure 54
2002
0000
0000
0000
,  // measure 55
0000
0000
0000
0000
,  // measure 56
3003
0000
0000
0000
;
