#TITLE:Veo Lu Sluice;
#SUBTITLE:;
#ARTIST:Ryo Yamazaki;
#TITLETRANSLIT:;
#SUBTITLETRANSLIT:;
#ARTISTTRANSLIT:;
#GENRE:;
#CREDIT:usaminseijin;
#BANNER:[ROUND G] - Veo Lu Sluice.png;
#BACKGROUND:[ROUND G] - Veo Lu Sluice-bg.png;
#LYRICSPATH:;
#CDTITLE:cdtitle.png;
#MUSIC:[ROUND G] - Veo Lu Sluice.ogg;
#OFFSET:-3.962000;
#SAMPLESTART:52.671001;
#SAMPLELENGTH:12.620000;
#SELECTABLE:YES;
#BPMS:0.000000=122.000000
;
#STOPS:
;
#BGCHANGES:;
#KEYSOUNDS:;
#ATTACKS:;

//---------------dance-single - ----------------
#NOTES:
     dance-single:
     :
     Hard:
     9:
     0.599149,0.650460,0.175208,0.700832,0.399693,383.000000,367.000000,16.000000,64.000000,0.000000,0.000000,0.599149,0.650460,0.175208,0.700832,0.399693,383.000000,367.000000,16.000000,64.000000,0.000000,0.000000:
0000
0000
0000
0000
,
0000
0000
0000
0000
,
0000
0000
0000
0000
,
0000
0000
0000
0000
,
1000
0100
0010
0001
1001
0000
0110
0000
,
0001
0010
0100
1000
0110
0000
1001
0000
,
0020
0000
1030
0001
2000
0000
3010
0100
0010
0000
1000
0000
0000
0000
0001
0000
,
0200
0000
0301
0010
0002
0000
1003
0100
1000
0000
0010
0000
0000
0000
1000
0000
,
0002
0000
0103
0001
0200
0000
0301
1000
0001
0000
1000
0000
0010
0000
1000
0000
,
0001
0000
0100
0000
0010
0000
1000
0000
0020
0000
1030
0001
1000
0000
0010
0000
,
2000
3010
0100
0001
1001
0000
0110
0000
,
0002
0103
0010
1000
0110
0000
1001
0000
,
1000
0000
0010
1000
0010
0000
0100
0001
0100
0000
0010
0100
0001
0100
0010
0100
,
0001
0000
0010
0001
0010
0000
0100
1000
0100
0000
1000
0001
0100
0001
1000
0001
,
2000
3010
0020
0130
0200
0301
0002
1003
,
0010
1000
0010
1000
0001
0100
0001
0100
0020
0000
0000
0000
0130
0000
0000
0000
,
0100
0000
0001
0010
0001
0000
1000
0100
1000
0000
0001
0010
0001
0100
0001
0010
,
0100
0000
1000
0100
1000
0000
0001
0010
0001
0000
1000
0001
1000
0010
1000
0001
,
0200
0000
0000
0310
0000
0000
0020
0000
0000
1030
0000
0000
2000
0000
3000
0001
0000
0000
0002
0000
0000
0013
0000
0000
,
0001
0010
0001
0010
0100
1000
0100
1000
0002
0000
0000
0000
1003
0000
0000
0000
,
2000
3010
0020
0130
0200
0301
0002
0013
,
0020
0130
0200
1300
2000
3001
0002
0103
,
0200
0310
0020
1030
2000
3001
0002
0013
,
0001
0010
0001
0100
0001
1000
0001
0100
0010
1000
0001
1000
0100
1000
0001
1000
,
0010
0100
0001
1000
0110
0000
1001
0000
,
0200
0000
0301
1000
0002
0000
0103
0010
0100
0000
0001
0000
0000
0000
1000
0000
,
0020
0000
1030
0100
2000
0000
3001
0010
0001
0000
0100
0000
0000
0000
0001
0000
,
2000
0000
3010
1000
0020
0000
1030
0001
1000
0000
0001
0000
0100
0000
0001
0000
,
1000
0000
0010
0000
0100
0000
0001
0000
0200
0000
0301
1000
0001
0000
0100
0000
,
0002
0103
0010
1000
1001
0000
0110
0000
,
2000
3010
0100
0001
0110
0000
1001
0000
,
1000
0100
0010
0001
1000
0000
0001
0000
0200
0000
0320
0000
1030
0000
0001
0000
,
0200
0000
0302
0000
1003
0000
0010
0000
1000
0010
0100
0001
1000
0000
0010
0000
,
0100
0000
0010
0000
1000
0000
0001
0010
0001
0000
0010
0000
0001
0000
0100
0000
,
0020
0000
1030
0000
0001
0000
0100
0000
0001
1000
0010
1000
0001
0000
0100
0000
,
0001
0010
0100
1000
0001
0000
1000
0000
0020
0000
0230
0000
0301
0000
1000
0000
,
0002
0000
0023
0000
0031
0000
1000
0000
0001
0100
0010
1000
0010
0000
0100
0000
,
0010
0000
1000
0000
0001
0000
0010
0001
0010
0000
0100
0000
1000
0000
0001
0000
,
0200
0000
0301
0000
0010
0000
0100
0000
0001
1000
0010
1000
0001
0000
1000
0000
,
2000
3010
0020
0130
0200
0301
0002
0013
,
0020
0130
0200
1300
2000
3001
0002
0103
,
0200
0310
0020
1030
2000
3001
0002
0013
,
0001
0010
0001
0100
0001
1000
0001
0100
0010
1000
0001
1000
0100
1000
0001
1000
,
0000
0000
0220
0000
0000
0000
0000
0000
0000
0000
0330
0000
1001
0000
1000
0001
,
1000
0000
0000
0000
;

//---------------dance-single - ----------------
#NOTES:
     dance-single:
     :
     Medium:
     8:
     0.475565,0.409549,0.098555,0.043802,0.005475,304.000000,295.000000,9.000000,4.000000,0.000000,0.000000,0.475565,0.409549,0.098555,0.043802,0.005475,304.000000,295.000000,9.000000,4.000000,0.000000,0.000000:
0000
0000
0000
0000
,
0000
0000
0000
0000
,
0000
0000
0000
0000
,
0000
0000
0000
0000
,
1000
0100
0010
0001
1000
0000
0110
0000
,
0001
0010
0100
1000
0010
0000
1001
0000
,
0010
1000
0001
0100
0010
1000
0000
0001
,
0100
0001
0010
0100
1000
0010
0000
1000
,
0001
0100
0001
1000
0001
0100
0010
1000
,
0001
0100
0010
1000
0010
0100
0001
1000
,
0001
0010
0100
1000
0001
0000
0110
0000
,
0001
0100
0010
1000
0100
0000
1001
0000
,
1000
0010
1000
0001
0100
0010
0100
1000
,
0100
0001
0010
0001
0100
0001
1000
0010
,
1000
0010
0010
0100
0100
0001
0001
1000
,
0010
1000
0001
0100
0020
0000
0130
0000
,
0100
0001
0010
0100
1000
0001
0010
0001
,
0100
0010
1000
0001
0010
0001
1000
0010
,
0100
0010
0010
1000
1000
0001
0001
0010
,
0001
0010
0100
1000
0002
0000
1003
0000
,
1000
0010
0010
0100
0100
0001
0001
0010
,
0010
0100
0100
1000
1000
0001
0001
0100
,
0100
0010
0010
1000
1000
0001
0001
0010
,
0001
0010
0100
1000
0001
0100
0010
1000
,
0010
0100
0001
1000
0010
0000
1001
0000
,
0100
0001
1000
0010
0100
0001
0000
1000
,
0010
1000
0100
0010
0001
0100
0000
0001
,
1000
0010
1000
0001
1000
0001
0100
0010
,
1000
0010
0100
0001
0100
0010
1000
0010
,
1000
0100
0010
0001
1000
0000
0110
0000
,
1000
0010
0100
0001
0100
0000
1001
0000
,
1000
0010
1000
0001
0100
0010
1000
0001
,
0100
0001
1000
0010
0100
0010
0001
0010
,
0100
0010
1000
0001
0010
0001
0100
0001
,
1000
0001
0100
0001
1000
0010
1000
0001
,
0100
0010
1000
0001
0100
0010
1000
0001
,
0010
0001
0100
0010
1000
0010
0100
0010
,
1000
0001
0010
0001
0010
0100
1000
0001
,
0100
0001
0010
0100
1000
0001
1000
0100
,
1000
0010
0010
0100
0100
0001
0001
0010
,
0010
0100
0100
1000
1000
0001
0001
0100
,
0100
0010
0010
1000
1000
0001
0001
0010
,
0001
0010
0100
1000
0010
1000
0001
1000
,
0000
0000
0220
0000
0000
0000
0000
0000
0000
0000
0330
0000
1001
0000
1000
0001
,
1000
0000
0000
0000
;

//---------------dance-single - ----------------
#NOTES:
     dance-single:
     :
     Challenge:
     8:
     0.353545,0.433640,0.766535,0.240911,0.016426,226.000000,156.000000,70.000000,22.000000,92.000000,0.000000,0.353545,0.433640,0.766535,0.240911,0.016426,226.000000,156.000000,70.000000,22.000000,92.000000,0.000000:
// measure 0
0000
0000
0000
0000
,  // measure 1
0000
0000
0000
0000
,  // measure 2
0000
0000
0000
0000
,  // measure 3
0000
0000
0000
0000
,  // measure 4
1000
0100
0010
0001
1001
0000
0110
MMMM
,  // measure 5
1000
0010
0100
0001
0110
0000
1001
MMMM
,  // measure 6
1001
0000
1001
0000
0110
MMMM
0000
0100
,  // measure 7
0010
0000
0110
0000
1001
MMMM
0000
0001
,  // measure 8
1000
0000
1001
0000
0110
0000
0100
0001
,  // measure 9
0110
0000
0110
0000
1001
0000
0010
0100
,  // measure 10
0001
0010
0100
1000
1001
0000
0110
MMMM
,  // measure 11
0001
0100
0010
1000
0110
0000
1001
MMMM
,  // measure 12
0110
0000
0110
0000
1010
0000
1000
0001
,  // measure 13
1001
0000
1001
0000
0011
0000
0010
0100
,  // measure 14
0011
0000
1001
0000
1100
MMMM
0000
0001
,  // measure 15
1000
0000
1010
0000
0110
0000
1001
MMMM
,  // measure 16
0110
0000
0110
0000
1100
0000
0001
1000
,  // measure 17
1001
0000
1001
0000
0101
0000
0100
0010
,  // measure 18
1010
0000
0110
0000
0101
MMMM
0000
0001
,  // measure 19
1000
0000
0110
0000
0110
0000
1001
MMMM
,  // measure 20
2000
0000
3200
0000
,  // measure 21
0320
0000
0032
0000
,  // measure 22
2003
0000
3002
0000
,  // measure 23
0003
MMMM
MMMM
MMMM
,  // measure 24
MMMM
MMMM
MMMM
1001
,  // measure 25
1001
0000
1001
0000
0110
MMMM
0000
0010
,  // measure 26
0100
0000
0110
0000
1001
MMMM
0000
1000
,  // measure 27
0001
0000
1001
0000
0110
0000
0010
1000
,  // measure 28
0110
0000
0110
0000
1001
0000
0100
0010
,  // measure 29
1000
0100
0010
0001
1001
0000
0110
MMMM
,  // measure 30
1000
0010
0100
0001
0110
0000
1001
MMMM
,  // measure 31
2000
0000
3020
0000
,  // measure 32
0230
0000
0000
0000
0000
0000
0000
0000
0302
0000
0000
0000
0000
0000
0000
0013
,  // measure 33
0002
0000
0023
0000
,  // measure 34
0230
0000
0000
0000
0000
0000
0000
1300
0020
0000
0000
0000
0000
0000
0000
0000
,  // measure 35
1030
0000
1001
0000
0110
0000
0100
0001
,  // measure 36
1010
0000
0110
0000
0101
0000
1000
0010
,  // measure 37
1001
0000
0110
0000
0011
0000
1000
0100
,  // measure 38
0110
0000
1100
0000
0011
0000
1000
0001
,  // measure 39
2000
0000
3002
0000
,  // measure 40
0203
0000
0320
0000
,  // measure 41
2030
0000
3002
0000
,  // measure 42
0003
MMMM
MMMM
MMMM
,  // measure 43
0000
0000
0220
0000
0000
0000
0000
0000
0000
0000
0330
0000
1001
0000
1000
0001
,  // measure 44
1000
0000
0000
0000
;

//---------------dance-single - ----------------
#NOTES:
     dance-single:
     :
     Easy:
     5:
     0.283149,0.361367,0.262812,0.284713,0.000000,181.000000,157.000000,24.000000,26.000000,0.000000,0.000000,0.283149,0.361367,0.262812,0.284713,0.000000,181.000000,157.000000,24.000000,26.000000,0.000000,0.000000:
0000
0000
0000
0000
,
0000
0000
0000
0000
,
0000
0000
0000
0000
,
0000
0000
0000
0000
,
1000
0100
0010
0001
1000
0000
0010
0000
,
1000
0010
0100
0001
0010
0000
0001
0000
,
1000
0000
0001
0000
0110
0000
0000
0100
,
0010
0000
0100
0000
1001
0000
0000
0001
,
1000
0000
0001
0000
0110
0000
0100
0001
,
0010
0000
0100
0000
1001
0000
0010
0100
,
0001
0010
0100
1000
0001
0000
0010
0000
,
0001
0100
0010
1000
0010
0000
1000
0000
,
0010
0000
0100
0000
1010
0000
1000
0001
,
1000
0000
0001
0000
0011
0000
0010
0100
,
0010
0000
1000
0000
1100
0000
0000
0001
,
1000
0010
0110
1001
,
0100
0000
0010
0000
1100
0000
0001
1000
,
0001
0000
1000
0000
0101
0000
0100
0010
,
1000
0000
0010
0000
0101
0000
0000
0001
,
1000
0100
0010
1001
,
2000
0000
3200
0000
,
0320
0000
0032
0000
,
2003
0000
3002
0000
,
2003
0000
0002
0000
,
3003
0000
0000
1001
,
1000
0000
0001
0000
0110
0000
0000
0010
,
0100
0000
0010
0000
1001
0000
0000
1000
,
0001
0000
1000
0000
0110
0000
0010
1000
,
0100
0000
0010
0000
1001
0000
0100
0010
,
1000
0100
0010
0001
1000
0000
0010
0000
,
1000
0010
0100
0001
0100
0000
0001
0000
,
2000
0000
3020
0000
,
0230
0000
0302
0000
,
0023
0000
0230
0000
,
2300
0000
3020
0000
,
1030
0000
0001
0000
0110
0000
0100
0001
,
1000
0000
0010
0000
0101
0000
1000
0010
,
1000
0000
0010
0000
0011
0000
1000
0100
,
0010
0000
1000
0000
0011
0000
1000
0001
,
2000
0000
3002
0000
,
0203
0000
0320
0000
,
2030
0000
3002
0000
,
2003
0000
0002
0000
,
3003
0220
0000
0000
0000
0330
1001
0001
,
1000
0000
0000
0000
;

//---------------dance-single - ----------------
#NOTES:
     dance-single:
     :
     Beginner:
     3:
     0.173644,0.216820,0.032852,0.000000,0.000000,111.000000,108.000000,3.000000,0.000000,0.000000,0.000000,0.173644,0.216820,0.032852,0.000000,0.000000,111.000000,108.000000,3.000000,0.000000,0.000000,0.000000:
0000
0000
0000
0000
,
0000
0000
0000
0000
,
0000
0000
0000
0000
,
0000
0000
0000
0000
,
1000
1000
1000
0000
,
0001
0001
0001
0000
,
1000
0001
1000
0000
,
0010
0100
0010
0000
,
1000
0001
1000
0010
,
0100
0001
0100
0010
,
1000
1000
1000
0000
,
0001
0001
0001
0000
,
0010
0100
0010
0000
,
0100
0001
0100
0000
,
0010
1000
0010
0000
,
1000
0100
1000
0001
,
0100
0010
0100
0000
,
0001
0010
0001
0000
,
1000
0010
1000
0000
,
1000
0100
1000
0001
,
1000
0000
0100
0000
,
0010
0000
0001
0000
,
1000
0000
0001
0000
,
0000
0000
0000
0000
,
0000
0000
0000
1001
,
1000
0001
1000
0000
,
0010
0100
0010
0000
,
0001
1000
0001
0010
,
0100
0010
0001
0100
,
0001
0001
0001
0000
,
1000
1000
1000
0000
,
1000
0000
0010
0000
,
0100
0000
0001
0000
,
0010
0000
0100
0000
,
1000
0000
0010
0000
,
0100
0001
0100
0000
,
1000
0010
1000
0000
,
1000
0001
1000
0000
,
0010
0100
0010
0000
,
1000
0000
0001
0000
,
0100
0000
0010
0000
,
1000
0000
0001
0000
,
0000
0000
0000
0000
,
0000
0110
0000
0000
0000
0000
1000
0000
,
1001
0000
0000
0000
;
