#TITLE:VIP;
#SUBTITLE:;
#ARTIST:SID;
#TITLETRANSLIT:;
#SUBTITLETRANSLIT:;
#ARTISTTRANSLIT:;
#CREDIT:;
#BANNER:[ROUND G] - VIP.png;
#BACKGROUND:[ROUND G] - VIP-bg.png;
#LYRICSPATH:;
#CDTITLE:;
#MUSIC:[ROUND G] - VIP.ogg;
#OFFSET:-0.746;
#SAMPLESTART:81.800;
#SAMPLELENGTH:12.000;
#SELECTABLE:YES;
#BPMS:0.000=195.700,20.000=97.850,34.000=195.700,122.000=97.900,142.000=190.000,147.000=97.900,149.000=195.700,268.000=97.900,282.000=195.800,294.500=160.000,295.000=140.000,295.500=120.000,296.000=72.220,296.500=145.000,297.000=160.000,297.500=175.000,298.000=190.000,298.500=195.800,299.000=210.000;
#STOPS:;
#BGCHANGES:;

//---------------dance-single - ----------------
#NOTES:
     dance-single:
     :
     Hard:
     9:
     0.840,1.000,0.694,0.137,0.521:
0000
0000
0000
0000
,
0000
0000
0000
0000
,
0000
0000
0000
0000
0000
0000
0000
1001
,
0001
1000
0001
1000
0001
1000
0001
1000
0001
1000
0001
1000
0001
1000
0002
0000
,
0000
0103
0000
0000
0100
0010
0000
0000
,
1010
0000
0000
0000
0010
0000
0000
0000
1000
0000
0000
0000
0100
0000
0000
0000
0000
0000
0010
0000
0000
0001
0000
0000
0000
0000
0000
0001
0000
0000
0100
0000
0000
0000
0000
0000
2002
0000
0000
0000
0000
0000
3003
0000
0000
0000
0000
0000
,
1000
0000
0100
0000
1000
0000
0100
0000
0010
0000
0001
0000
0010
0000
0001
0000
0010
0000
0100
0000
0000
1000
0000
0000
0000
0000
0000
1010
0000
0000
0000
0000
0000
0101
0000
0000
0000
0000
0000
0001
0000
0000
0010
0000
0000
0001
0000
0000
,
0000
0100
0000
0110
0000
0000
0010
1000
0000
1000
0100
0010
0000
0010
0001
0100
,
0000
0101
0000
2200
0000
0000
3300
0000
1000
0000
0100
0000
0001
0000
0100
0000
,
1000
0100
0001
0100
1000
0010
0001
0010
,
1000
0001
1000
0000
1001
0000
1001
0000
0001
0000
0100
0000
0010
0000
0100
0000
,
0001
1000
0100
0010
0100
1000
0010
0100
,
0001
0100
0010
1000
0010
0100
0001
0010
,
0100
1000
0010
0100
0001
1000
0001
0010
,
0100
1000
0010
0100
0101
0000
1100
0000
,
0010
1000
0000
1000
0010
0001
0010
1000
,
0100
0001
0100
1000
0000
0000
1001
0000
,
0001
0100
0000
0010
1000
0010
0100
0010
,
1000
0010
0100
0010
1010
0000
0000
0101
,
0000
0001
0100
0010
1000
0010
0100
0001
,
0010
0100
0010
0001
0100
0010
1000
0010
,
0100
0001
0010
0001
0000
0001
0100
1000
,
0100
0001
0100
1000
0100
0000
0101
0000
,
0001
0010
0100
1000
0100
0010
0001
0001
,
0100
0010
0100
0100
0000
0000
1010
0000
,
1000
0100
0000
0100
0010
0001
0010
0100
,
1000
0100
0010
0100
0110
0000
0000
1001
,
0000
0000
0001
0100
0010
1000
1000
0010
,
0100
0001
0001
0000
2002
0000
0000
0000
,
3003
0001
0100
0010
1010
0000
1000
0010
,
0100
0000
0001
0000
0100
0000
0010
0000
1010
0000
1000
0100
0010
0100
0010
0001
,
0000
0101
0000
0110
0000
1000
0010
1000
0100
0000
0100
0010
0001
0010
0100
1000
,
0100
0010
0000
0010
0001
0010
0000
0010
0100
0000
0100
1000
0010
0100
0001
0011
,
0000
0110
0000
1100
0000
1001
0000
0101
0001
0100
0001
0100
0001
0100
0010
0100
,
0010
1000
0010
1000
0100
1000
0100
1000
0100
0000
0100
0010
0001
0010
0100
1000
,
0000
1100
0000
0101
0000
0001
0100
0000
0101
0000
0100
0000
0010
0000
1000
0000
,
0010
0100
0001
0011
0000
0010
0100
0000
,
0000
0000
0000
0000
1000
0100
1000
0000
0000
0100
0000
0000
1000
0000
0000
0001
0000
0000
1000
0000
0000
1001
0000
0000
,
0001
0100
0000
1001
1000
0100
0000
1001
,
0001
0010
1000
0010
0001
1000
0001
0100
,
0010
0110
0000
0000
0001
0101
0000
1001
,
0000
0100
1000
0001
1000
0100
1000
0001
,
1000
0010
1000
0001
0100
0010
1000
0100
,
0010
0001
0010
0100
1000
0100
0010
0001
,
0010
0100
1000
0010
0100
0001
1000
1010
,
0000
0000
1001
0000
0000
0000
0001
0000
0100
0000
0001
1000
0100
0000
1100
0000
,
1000
0100
0000
0101
0001
0100
0000
1001
,
0000
0001
0100
0010
1000
0001
1000
0010
,
0100
0101
0000
0000
0001
0010
0000
0011
,
0000
0001
0010
0001
1000
0001
0100
0101
,
0000
0010
1000
1001
0000
0010
0001
1001
,
0000
0110
0000
1001
0000
0001
0100
0101
,
0000
0001
1000
1001
0000
0010
1000
1010
,
0000
1001
0000
1100
1000
0001
0010
0001
,
0100
0010
0100
0010
0100
0010
0100
0010
0100
0010
0100
0010
0100
0010
0100
0010
,
0100
0001
1000
0001
1000
0001
1000
0001
1000
0001
1000
0000
1001
0000
0000
0000
,
0001
0100
1000
0100
0001
1000
0001
0100
,
1000
0000
0010
0000
0001
0000
0010
0000
1000
0010
1000
0010
1000
0000
1001
0000
,
0000
0001
0100
0010
0100
0001
1000
0001
,
0100
0010
0100
0001
1000
0100
0010
0110
,
0000
0000
0000
0000
0012
0000
0000
0000
0010
0000
0000
0010
0000
0000
0010
0000
,
0013
0100
1000
0010
0100
0001
1000
1001
,
0000
0000
1000
0100
0000
0100
0010
0001
,
0000
0022
0000
0033
0000
0000
0001
0100
,
0000
0000
0000
0000
0100
0000
0010
0000
0000
0000
1000
0100
1000
0100
0010
0000
,
0001
0100
1000
0100
0001
0010
1000
0020
,
0001
0031
0000
0000
0101
0101
0000
0000
,
2002
0000
0000
0000
3003
0000
1000
0001
0000
0001
0010
0000
0100
1000
0100
0000
,
0100
0000
0010
0000
0001
0000
1000
0000
0100
0000
0010
0000
0001
0000
0010
0000
0100
0000
1000
0000
0000
0100
0000
0000
0000
0000
0000
0100
0000
0000
0010
0000
0000
0011
0000
0000
0000
0000
0000
0001
0000
0000
0100
0000
0000
0110
0000
0000
,
0000
1010
0000
1100
0000
1000
0001
0101
0000
0001
1000
1100
0000
1000
0010
0101
,
0000
1001
0000
1100
0000
0000
0000
0000
1100
0000
0100
0000
0010
0000
0100
0000
,
1000
0100
0010
0100
1100
0000
0000
0100
,
1000
0000
0001
0100
0000
0100
0001
0010
,
0100
0000
1000
0001
1000
0001
2000
0000
0000
0000
0000
0000
0000
0000
0000
0000
,
0000
0002
0000
0000
0000
0000
0000
0000
,
3003
0000
0000
0000
;

//---------------dance-single - ----------------
#NOTES:
     dance-single:
     :
     Medium:
     7:
     0.603,0.719,0.384,0.274,0.265:
0000
0000
0000
0000
,
0000
0000
0000
0000
,
0000
0000
0000
0000
,
0001
0100
0010
1000
0001
0100
0020
1000
,
1030
0000
0000
0000
0100
0001
0000
0000
,
1001
0000
0000
0000
0000
0000
0100
0010
0000
0000
2000
0000
0100
0000
0000
0000
,
0200
0000
0000
0000
3300
0000
1000
0100
0000
0010
0000
0001
0000
0100
0010
1000
,
0000
0100
0000
0010
0000
0000
0010
0001
0000
0001
0100
0010
0000
0010
1000
0100
,
0000
0010
0000
0011
0000
0000
0000
0000
2002
0000
0000
0000
0000
0000
0000
0000
,
0000
0000
0000
0000
0000
0000
3003
1000
,
0001
0000
0001
0100
0000
0101
0000
0000
,
0100
0010
0000
0000
0100
0001
0000
0001
,
0010
0001
0000
0000
0001
0100
0010
0000
,
0010
1000
0000
1100
0000
0101
0000
1100
,
0000
2002
0000
0000
3003
0000
0001
0000
,
0100
0010
0000
0010
1000
0001
1000
0001
,
1000
0100
1000
0100
0000
0000
1100
0000
,
0100
0010
0000
0010
0001
0100
0001
0100
,
0001
1000
0001
1000
0001
0000
0000
0101
,
0000
0000
0100
0010
0100
0000
0110
0000
,
1010
1001
0022
0000
,
0033
0001
0100
0010
0100
0001
0100
0010
,
0100
0001
0100
0010
0100
0000
0100
0000
,
0100
0001
0000
0001
0010
0001
1000
0001
,
0010
0001
1000
0001
0000
0000
0001
0000
,
0001
1000
0000
1000
0100
1000
0001
1000
,
0100
1000
0001
1000
0100
0000
0000
0200
,
0000
0000
0300
0101
,
1001
1100
2002
0000
,
3003
1000
0100
0010
0001
0000
0001
0100
,
0000
0000
0100
0000
0010
0000
0000
0000
1010
0000
1000
0000
0001
1000
0001
1000
,
0000
0100
0000
0010
0000
0001
0000
0200
0000
0300
0010
1000
0000
0100
0000
0010
,
0001
0000
0001
0100
0001
0100
0000
0101
0000
0000
0100
0010
1000
0010
0100
0010
,
0000
1000
0000
0100
0000
0010
0001
2000
0000
0000
0000
3000
0000
0000
0000
1000
,
0001
0000
0101
0000
1000
0000
1100
0000
0000
0000
1000
0010
1000
0010
0100
0010
,
0000
0100
0000
0001
0000
0101
0000
1000
0100
0000
0000
0000
0010
0000
0001
0000
,
0000
0000
0001
1000
0000
1000
0200
0000
,
0000
0000
0000
0300
1000
0000
0100
0000
0000
0001
0000
0000
0100
0000
0000
0010
0000
0000
1000
0000
0000
0010
0000
0000
,
0100
0100
0000
0000
0001
0001
0000
2001
,
0000
0000
0100
3000
0010
0000
0100
0001
,
0000
0101
0000
0000
0100
0010
0000
1010
,
0000
0000
1000
0000
0100
0000
0010
0001
,
0000
0000
0001
0100
0000
0000
0100
0010
,
0000
0220
0000
0000
0000
0330
0010
1000
,
0000
0000
1000
0100
0000
0000
0100
0010
,
0000
0011
0010
0001
0100
0010
2000
0100
,
0100
0000
0000
0000
0010
3010
0000
0102
,
0000
0000
1000
0000
0013
0000
0001
0100
,
0000
0100
0020
0000
1000
1000
0030
1010
,
0000
0000
1000
0100
0010
0100
1000
0100
,
0000
0100
0010
0001
0000
0001
0100
0010
,
0000
1010
0000
1001
0000
0000
1000
0001
,
0000
0001
0100
0010
0000
0010
1000
0001
,
0000
1001
0000
1000
0100
0010
0001
0010
,
0200
1000
0010
0001
,
0020
0000
0330
0010
0001
0000
0001
0100
,
0000
0010
1000
0010
0100
0001
0010
0000
,
0010
0100
1000
0001
0010
0001
0100
0020
,
1000
1000
0000
0000
0100
0100
0000
0130
,
0000
0100
0001
1000
0001
1000
0001
0010
,
0000
0010
0100
0000
0100
1000
0000
1100
,
0000
1000
0100
1000
0001
1000
0100
1000
,
0000
0000
1000
0010
0000
1000
0010
0100
,
0000
0101
0000
0000
0000
0000
0001
0100
,
0000
0000
0100
0010
0000
0010
1000
0001
,
0000
0101
0000
0100
0010
1000
0010
0200
,
0001
0001
0000
0000
1000
1300
0000
0000
,
0101
0000
0000
0000
0000
0000
0100
0010
0000
0000
0010
0000
1010
0000
0000
0000
,
2002
0000
0000
0000
3003
0000
1000
0100
0000
0001
0000
0100
0000
1000
0010
0100
,
0000
0001
0000
0010
0000
0000
0010
0001
0000
0001
0100
0010
0000
0010
1000
0001
,
0000
0101
0000
1100
0000
0000
0000
0000
2000
0000
0000
0000
0100
0000
0000
0000
,
0001
0000
0010
0000
0001
0000
3100
1000
,
0001
0000
0001
0010
0100
0010
0001
0100
,
0010
1000
0001
2002
0000
0000
0000
0000
,
0000
0000
0000
0000
,
3003
0000
0000
0000
;

//---------------dance-single - ----------------
#NOTES:
     dance-single:
     :
     Easy:
     6:
     0.449,0.719,0.274,0.256,0.210:
0000
0000
0000
0000
,
0000
0000
0000
0000
,
0000
0000
0000
0000
,
2002
0000
0000
0000
0000
0000
0000
3003
,
1000
0001
0000
0000
0001
1000
0000
0000
,
1001
0000
0000
0000
0000
0000
1000
0100
0000
0000
0200
0000
0010
0000
0000
0000
,
0020
0000
0000
0000
0330
0000
0010
0001
0000
0001
0000
0001
0000
0000
0001
0010
,
0000
0010
0000
0010
0000
0000
0100
1000
0000
1000
0000
1000
0000
0000
1000
0100
,
0000
0100
0000
0100
0000
0000
0000
0000
2002
0000
0000
0000
0000
0000
0000
0000
,
0000
0000
0000
0000
0000
0000
3003
0001
,
1000
0000
1000
0100
0000
0100
0000
0000
,
0010
0001
0100
0010
,
1000
0010
0100
0001
,
0010
0100
1000
0010
,
0100
0001
0101
0100
,
0100
0001
0000
0001
0100
0000
0010
0000
,
0100
0001
1000
1100
,
1000
0001
0000
0001
1000
0000
0100
0000
,
0010
0000
0001
0000
1001
0000
0000
0202
,
0000
0303
0000
0000
0000
0000
1000
0000
,
0010
0100
0002
0003
,
0000
0100
0010
2000
0000
0000
3000
0000
,
0000
0000
1100
1000
,
0010
0100
0000
0100
0001
0000
0010
0000
,
0001
0000
1000
0100
0000
0000
1000
0000
,
0100
0010
0000
0010
0001
0000
0010
0000
,
0100
0000
1000
0000
1010
0000
0000
2002
,
0000
0000
3003
0001
,
0100
0010
2000
3000
,
0000
1000
0100
0010
0000
0000
0000
0000
,
0001
0000
0000
0000
1000
0000
0000
0000
1001
0000
0001
0000
1000
0000
0001
1000
,
0000
0100
0000
0010
0000
0001
0000
0010
0000
0000
0100
1000
0000
1000
0000
2020
,
0000
0000
0000
0000
0000
0000
0000
0000
3030
0000
1000
0000
0010
0000
0100
0001
,
0000
0010
0000
0100
0000
1000
0000
2200
0000
0000
0000
0000
3300
0000
0000
0000
,
0001
0000
0001
0000
0010
0000
0100
0000
1000
0000
0010
0000
0100
0000
0001
0010
,
0000
0100
0000
1000
0000
0100
0000
0010
0000
0000
0000
0000
0011
0000
0000
0000
,
0000
0000
0000
0001
0000
0000
1001
0000
,
0000
0000
1000
0000
1000
0000
1000
0002
,
0000
1003
0000
0000
1000
1000
0000
1000
,
0000
0000
0001
0000
0001
0000
0100
0010
,
0000
0010
0000
0000
1000
0001
0000
1001
,
0000
0000
0100
0000
0010
0000
0001
0100
,
0000
0000
0010
1000
0000
0000
0001
1000
,
0000
0100
0000
0000
1000
0000
0100
0010
,
0000
0000
0001
0010
0000
0000
0001
1000
,
0000
0000
0001
0000
0100
0000
0010
1000
,
0000
1000
0000
0000
0001
0001
0000
0100
,
0000
0010
1000
0100
,
0010
0001
0000
0000
0001
1000
0000
0200
,
0000
0300
1000
0000
0010
0000
0100
0000
,
0001
0100
0010
1000
,
1100
0000
0101
0000
1001
0000
0001
0100
,
0000
0010
0000
1000
0000
0100
1000
0100
,
0000
1100
0000
0100
1000
0000
0000
0000
,
2002
0000
0000
0000
,
0000
3003
0000
1000
0001
0000
0001
0200
,
0000
0000
0000
0300
,
0100
0000
0010
0000
1000
0000
0001
1000
,
0001
1000
0000
0000
0001
1000
0000
1000
,
0000
0000
2000
0000
3100
0000
0010
0001
,
0000
0000
0100
0000
0100
0010
0000
1000
,
0000
0000
0100
0000
0010
0000
0001
0100
,
0000
0100
0000
0010
0000
1000
0100
1000
,
0000
1000
0000
0000
0000
0000
0001
0100
,
0000
0100
0010
0100
0000
1000
0010
1000
,
0000
0100
1000
0100
1000
0100
0010
0001
,
0000
0001
0000
0000
0002
0010
0000
0003
,
0010
0000
0000
0000
0000
0000
0100
1000
0000
0000
1000
0000
0000
0000
0000
0000
,
1000
0000
0000
0000
0000
0000
0010
0100
0000
0101
0000
0100
0000
0101
0000
0100
,
0000
0011
0000
0011
0000
0000
0001
1000
0000
0100
0000
1100
0000
1000
0000
1010
,
0000
1001
0000
1001
0000
0000
0000
0000
2002
0000
0000
0000
0000
0000
0000
0000
,
0000
0000
0000
0000
3003
0000
0000
0001
,
0100
0000
0100
0020
0000
0000
0000
0000
,
0000
0000
0000
2000
0000
0000
0000
0000
,
0000
0000
0000
0000
,
3030
0000
0000
0000
;

//---------------dance-single - ----------------
#NOTES:
     dance-single:
     :
     Beginner:
     3:
     0.196,0.274,0.064,0.018,0.000: // measure 1
0000
0000
0000
0000
,  // measure 2
0000
0000
0000
0000
,  // measure 3
0000
0000
0000
0000
0000
0000
0000
1000
,  // measure 4
0000
0000
0000
0000
,  // measure 5
1000
0000
0001
0000
,  // measure 6
1001
0000
1000
0100
,  // measure 7
1000
0000
0001
0100
,  // measure 8
0100
0010
0010
1000
,  // measure 9
1000
1000
1001
0000
,  // measure 10
0000
0000
0000
0000
,  // measure 11
0000
0000
1000
0000
,  // measure 12
0001
0000
1000
0000
,  // measure 13
0001
0000
1000
0000
,  // measure 14
0001
0000
0000
0000
0000
0100
0000
0100
,  // measure 15
0000
0100
0000
0000
0000
0000
0000
0000
,  // measure 16
0001
0000
0001
0001
,  // measure 17
0001
0001
0000
1000
,  // measure 18
1000
0000
1000
1000
,  // measure 19
1000
0000
1000
0000
1000
0000
0000
1000
,  // measure 20
0000
0000
1000
0000
,  // measure 21
0000
0000
0010
0000
,  // measure 22
0000
0000
0001
0000
,  // measure 23
0000
0000
0010
0000
,  // measure 24
0010
0000
0010
0010
,  // measure 25
0010
0010
0000
0000
,  // measure 26
0100
0000
0100
0100
,  // measure 27
0100
0000
0100
0000
0100
0000
0000
0100
,  // measure 28
0000
0000
0100
0000
,  // measure 29
0100
0000
0100
0000
,  // measure 30
0000
0000
0000
0100
0000
0000
0000
0000
,  // measure 31
0000
0000
1001
0000
,  // measure 32
0000
0000
0100
0000
,  // measure 33
0000
0000
1001
0000
,  // measure 34
0000
0000
0010
0000
,  // measure 35
1000
0001
1000
0000
,  // measure 36
0000
0000
0000
0010
0000
0000
0010
0000
,  // measure 37
0000
0000
0000
0100
0000
0000
0100
0000
,  // measure 38
0000
1000
1000
1000
,  // measure 39
0000
0000
0000
0000
1000
0000
0000
1000
,  // measure 40
0000
0000
0000
0000
,  // measure 41
0001
0000
0000
0000
0001
0000
0000
0001
,  // measure 42
0000
0000
0000
0000
,  // measure 43
0100
0000
0010
0000
,  // measure 44
1000
0000
0001
0000
,  // measure 45
0100
0000
0000
0000
0010
0000
0000
0010
,  // measure 46
0000
0000
0000
0000
,  // measure 47
0010
0000
0000
0000
0010
0000
0000
0010
,  // measure 48
0000
0000
0000
0000
,  // measure 49
0100
0000
0000
0000
0100
0000
0000
0100
,  // measure 50
0000
0000
0000
0000
,  // measure 51
0001
0000
0000
0000
1000
0000
0000
0001
,  // measure 52
0000
0001
0000
0001
0000
0000
0000
0000
,  // measure 53
0010
0000
0000
0000
0100
0000
0000
0010
,  // measure 54
0000
0010
0000
0010
0000
0000
0000
0000
,  // measure 55
1001
0000
0000
0000
,  // measure 56
0000
0000
0000
0000
0001
0000
0000
0001
,  // measure 57
0000
0000
0000
0000
,  // measure 58
0100
0000
0100
0000
0100
0000
0000
0100
,  // measure 59
0000
0000
0000
0000
0010
0000
0000
0100
,  // measure 60
0000
0000
0000
0000
,  // measure 61
0001
0000
0000
0000
1000
0000
0000
0001
,  // measure 62
0000
0000
0000
0100
,  // measure 63
0000
0010
0000
1000
,  // measure 64
0000
0010
0000
0100
,  // measure 65
0000
0001
0000
0100
,  // measure 66
0100
0100
0100
0100
,  // measure 67
0000
0100
0000
0000
0100
0000
0000
0000
,  // measure 68
0110
0000
0010
1000
,  // measure 69
0001
0000
0001
0100
,  // measure 70
0010
1000
0001
0100
,  // measure 71
0010
1000
1001
0000
,  // measure 72
0000
0000
0000
0000
,  // measure 73
1000
0000
0000
0002
0000
0000
0000
0000
,  // measure 74
0000
0000
0000
2000
0000
0000
0000
0000
,  // measure 75
0000
0000
0000
0000
,  // measure 76
3003
0000
0000
0000
;

//---------------dance-double - ----------------
#NOTES:
     dance-double:
     :
     Hard:
     10:
     0.862,1.000,0.676,0.055,0.575:
00000000
00000000
00000000
00000000
,
00000000
00000000
00000000
00000000
,
00000000
00000000
00000000
00000000
00000000
00000000
00000000
00011000
,
00010000
00001000
00010000
00001000
00010000
00001000
00010000
00001000
00010000
00001000
00010000
00001000
00010000
00001000
00010000
00000000
,
00000000
00000000
00000000
00001000
00000000
00000000
00000000
00000000
00000000
00000000
00000000
00000000
00011000
00000000
00000000
00011000
00000000
00000000
00000000
00000000
00010000
00000000
00100000
00000000
,
00010000
00000000
00000000
00000000
00100000
00000000
00000000
00000000
01000000
00000000
00000000
00000000
10000000
00000000
00000000
00000000
00000000
00000000
10000000
00000000
00000000
01000000
00000000
00000000
00000000
00000000
00000000
00000000
00000000
00000000
00110000
00000000
00000000
00000000
00000000
00000000
00011000
00000000
00000000
00000000
00000000
00000000
00000000
00000000
00000000
00000000
00000000
00000000
,
00001000
00000000
00000100
00000000
00000001
00000000
00000100
00000000
00001000
00000000
00010000
00000000
01000000
00000000
10000000
00000000
01000000
00000000
00010000
00000000
00000000
00001000
00000000
00000000
00000000
00000000
00000000
00001000
00000000
00000000
00000100
00000000
00000000
00000101
00000000
00000000
00000000
00000000
00000000
00000001
00000000
00000000
00000010
00000000
00000000
00001010
00000000
00000000
,
00000000
00011000
00000000
00110000
00000000
00000000
00100000
01000000
00000000
01000000
10000000
00100000
00000000
00100000
01000000
00010000
,
00000000
00000000
00011000
00000000
00000000
00000000
00001100
00000000
00000100
00001000
00000100
00000000
00000000
00000000
00000000
00000000
00000100
00000000
00000000
00000000
00001000
00000000
00000000
00000000
00000100
00000000
00000000
00000000
00000001
00000000
00000000
00000000
,
00000010
00000000
00001000
00000000
00010000
00000000
01000000
00000000
10000000
00000000
01000000
00000000
00010000
00000000
00001000
00010000
,
00001000
00000000
00010000
00001000
00010000
00000000
00000000
00000000
00011000
00000000
00000100
00000000
00001000
00000000
00000010
00000000
,
00000100
00000001
00000010
00001000
00000100
00010000
00001000
00100000
,
10000000
00100000
00010000
00100000
10000000
01000000
00100000
00010000
,
00100000
00001000
00010000
00000100
00000001
00000100
00001000
00000100
,
00000001
00000010
00000100
00000010
00000011
00000000
00000001
00000010
,
00000100
00001000
00000000
00001000
00010000
00100000
00010000
00001000
,
00010000
00100000
00010000
00001000
00000000
00000000
00011000
00000000
,
00001000
00010000
00000000
01000000
00010000
00001000
00010000
01000000
,
00010000
00001000
00010000
01000000
00010000
00000000
00000000
00011000
,
00000000
00010000
00001000
00010000
00000100
00000000
00001010
00000000
,
00000110
00000000
00000101
00000000
00000011
00000001
00000100
00000010
,
00001000
00000100
00000010
00000001
00000100
00001000
00010000
00100000
,
00010000
10000000
00100000
10000000
10010000
00000000
10000000
01000000
,
00100000
00010000
00000000
00100000
00001000
00000010
00001000
00010000
,
00001000
00000010
00001000
00010000
00000000
00000000
00011000
00000000
,
00010000
00001000
00000000
00000100
00001000
00010000
00001000
00000100
,
00001000
00000000
00010000
00000000
00001000
00000000
00000100
00000000
00001000
00000000
00000000
00000000
00001000
00010000
00001000
00010000
,
00001000
00100000
01000000
10000000
00010000
01000000
00010000
00000000
,
00101000
00010000
00001000
00000000
00010000
00001000
00100000
00001000
,
00010000
00001000
00100000
00001000
00010000
00000010
00010000
00001000
,
00010000
00000000
00000010
00000000
00010000
00000000
00001000
00000000
00011000
00000000
00001000
00010000
00100000
10000000
01000000
00100000
,
00000000
00101000
00000000
00010100
00000000
00010000
00000100
00001000
00001100
00000000
00001000
00000010
00000100
00000001
00000010
00000011
,
00000001
00000100
00000000
00000100
00000010
00001000
00000100
00001000
00001100
00000000
00000100
00000001
00000100
00001000
00010000
00100000
,
00000000
10100000
00000000
11000000
00000000
10000000
01000000
00110000
00010000
01000000
00100000
10000000
01000000
00100000
00010000
00100000
,
00001000
00000000
00011000
00000000
00010100
00000100
00001100
00000000
00001001
00000000
00000001
00000100
00000010
00001000
00010000
00001000
,
00000010
00000001
00000100
00001000
00000100
00000001
00000010
00000100
00001000
00000000
00001100
00000000
00010000
00000000
00001000
00000000
,
00000000
00000000
00011000
00100000
00010000
00110000
00220000
00000000
,
00330000
00000000
00000000
00000000
01000000
00100000
10000000
00000000
00000000
01000000
00000000
00000000
00100000
00000000
00000000
00010000
00000000
00000000
00100000
00000000
00000000
10010000
00000000
00000000
,
01000000
01000000
00000000
10010000
00100000
00100000
00000000
10010000
,
00000000
10000000
01000000
00010000
01000000
10000000
00100000
01000000
,
00010000
01010000
00000000
00000000
00010000
00011000
00000000
00001100
,
00000000
00001000
00000100
00000001
00000100
00001000
00000010
00000100
,
00000101
00000000
00000001
00000011
00000000
00000001
00000100
00001000
,
00010000
00000000
00100000
10000000
00100000
00000000
00010000
00000000
00001000
00000000
00000100
00000000
00000001
00000000
00000011
00000000
,
00000000
00000100
00001000
00010000
00100000
00010000
00001000
00011000
,
00000000
00100000
00010000
01000000
00100000
10000000
01000000
00100000
,
00010000
00110000
00000000
00000000
00010000
00011000
00000000
00001100
,
00000000
00001000
00000010
00000100
00000001
00000010
00000100
00001000
,
00000100
00010100
00000000
00000000
00001000
00101000
00000000
01001000
,
00000000
01000000
00100000
10000000
00100000
01000000
00010000
00100000
,
00000000
00100000
00001000
00011000
00000000
00010000
00000010
00001000
,
00000000
00000000
00001010
00000000
00000000
00000000
00001000
00000001
00000100
00000000
00000100
00000000
00000010
00000000
00001000
00000000
,
00000000
00001000
00010000
01000000
00000000
01000000
00010000
00110000
,
00000000
00000000
00011000
00000000
00000000
00000000
00000100
00001000
00000001
00000000
00000000
00000000
00000000
00000000
00000000
00000000
,
00000001
00000010
00000001
00000000
00000010
00000100
00000010
00000000
00000100
00001000
00000100
00000000
00010000
00001000
00010000
00000000
,
00100000
00010000
00100000
00000000
01000000
00100000
01000000
00000000
10000000
00100000
10000000
00000000
00010000
01000000
00010000
00000000
,
01000000
00100000
10000000
01000000
00010000
00001000
00000100
00000001
,
00000010
00000000
00000000
00000001
00000000
00000000
00001000
00000000
00000000
00000100
00000010
00000100
00000010
00000100
00000010
00000100
00000000
00000000
00010000
00000000
00000000
00100000
00000000
00000000
,
10000000
10100000
00000000
00000000
00010000
00011000
00000000
00001010
,
00000000
00001000
00000100
00000010
00000001
00000100
00001000
00010000
,
00100000
10000000
10100000
00000000
10000000
10010000
00000000
01010000
,
00000000
01000000
00010000
00001000
00000100
00001000
00010000
00001000
,
00000000
00001000
00000010
00000000
00000010
00000001
00000100
00000010
,
00001000
00000000
00010000
00001000
00020000
00000000
00000000
00000000
00030000
00000000
00000000
00000000
00010000
00000000
00100000
00000000
,
00000000
00000000
00100000
00000000
10000000
00000000
10000000
00000000
01000000
10000000
01000000
00000000
10000000
01000000
10000000
00000000
,
01000000
00100000
00010000
00100000
00001000
00010000
00000100
00001000
,
00000020
00000000
00000000
00000000
00000000
00000000
00000000
00000000
00000000
00000100
00000000
00000000
00000030
00000000
00000000
00000000
00000000
00000000
00000000
00000000
00000000
00000000
00000000
00000000
00000101
00000000
00000000
00000000
00000000
00000000
00001100
00000000
00000000
00000000
00000000
00000000
00000000
00000000
00000000
00000000
00000100
00000000
00000000
00000000
00001000
00000000
00000000
00000000
,
00010000
00000000
00000000
00000000
00100000
00000000
00000000
00000000
00100000
00000000
00000000
00000000
10000000
00000000
00000000
00000000
00000000
00000000
10000000
00000000
00000000
01000000
00000000
00000000
00000000
00000000
00000000
01000000
00000000
00000000
00010000
00000000
00000000
00000000
00000000
00000000
00010000
00000000
00000000
00001000
00000000
00000000
00000100
00000000
00000000
00000001
00000000
00000000
,
00000010
00000000
00001000
00000000
00010000
00000000
00100000
00000000
10000000
00000000
00100000
00000000
00010000
00000000
00001000
00000000
00000010
00000000
00000001
00000000
00000010
00000000
00001000
00000000
00010000
00000000
00000000
00100000
00000000
00000000
10000000
00000000
00000000
10100000
00000000
00000000
00000000
00000000
00000000
01000000
00000000
00000000
00010000
00000000
00000000
01010000
00000000
00000000
,
00000000
00011000
00000000
00001100
00000100
00000000
00001000
00000001
00000000
00000001
00000010
00000011
00000000
00001000
00000100
00001100
,
00000000
00000000
00011000
00000000
00000000
00000000
00010000
00100000
00010000
00000000
00000000
00000000
00000000
00000000
00000000
00000000
01000000
00000000
00000000
00000000
10000000
00000000
00000000
00000000
00100000
00000000
00000000
00000000
00010000
00000000
00000000
00000000
,
00001000
00000100
00000001
00000010
00001000
00010000
01000000
10000000
,
01000000
00000000
00100000
00000000
00001000
00000000
00010000
00000000
00000100
00000000
00001000
00000000
00000010
00000000
00010000
00001000
,
00010000
00001000
00010000
00001000
00010000
00001000
00020000
00000000
00000000
00000000
00000000
00000000
00000000
00000000
00000000
00000000
,
00000000
00002000
00000000
00000000
00000000
00000000
00000000
00000000
,
00033000
00000000
00000000
00000000
;

//---------------dance-double - ----------------
#NOTES:
     dance-double:
     :
     Medium:
     8:
     0.672,0.822,0.466,0.137,0.311:
00000000
00000000
00000000
00000000
,
00000000
00000000
00000000
00000000
,
00000000
00000000
00000000
00000000
00000000
00000000
00000000
00011000
,
00010000
01000000
00010000
00001000
00000010
00001000
00010000
00001000
,
00011000
00011000
00000000
00000000
00011000
00011000
00000000
00000000
,
10010000
00000000
00000000
00000000
00000000
00000000
10000000
01000000
00000000
00000000
00010000
00000000
00011000
00000000
00000000
00000000
,
00001001
00000000
00000000
00000000
00000000
00000000
00000001
00000100
00000000
00000100
00000010
00001000
00000000
00001000
00000100
00010000
,
00000000
00011000
00000000
00011000
00000000
00000000
00010000
01000000
00000000
01000000
10000000
00100000
00000000
00100000
01000000
00010000
,
00000000
00110000
00000000
00010000
00001000
00000000
00000000
00000000
00001000
00000000
00000100
00000000
00000001
00000000
00000100
00000000
,
00001000
00000100
00000001
00000100
00001000
00010000
01000000
10000000
,
01000000
00010000
01000000
00000000
10000000
00000000
10000000
00000000
01000000
00000000
00100000
00000000
00000000
00000000
00100000
00000000
,
00001000
00010000
00000000
00010000
00001000
00000100
00000001
00000100
,
00001000
00010000
00001000
00100000
00010000
01000000
00100000
10000000
,
01000000
00100000
00000000
00101000
00000000
00011000
00000000
00010100
,
00000000
00002002
00000000
00003003
00000000
00000000
00000001
00000000
,
00000100
00000010
00000000
00000010
00001000
00000100
00001000
00000010
,
00001000
00000100
00001000
00000001
00000000
00000000
00001000
00000000
,
00000010
00000100
00000000
00000100
00000001
00000010
00000001
00000100
,
00000001
00000010
00000001
00000100
00000001
00000000
00000000
00001001
,
00000000
00000100
00001000
00010000
00100000
00000000
10000000
00000000
,
01000000
00100000
00110000
00000000
,
00000000
00010000
00001000
00000100
00001000
00000000
00010000
00000000
,
01000000
10000000
10010000
10000000
,
00100000
01000000
00000000
01000000
00010000
00100000
00010000
01000000
,
00010000
00100000
00010000
10000000
00000000
00000000
00010000
00000000
,
01000000
00100000
00000000
00100000
10000000
01000000
10000000
00100000
,
10000000
01000000
10000000
00010000
10000000
00000000
00000000
11000000
,
00000000
00000000
10000000
01000000
00010000
00000000
00011000
00000000
,
00001100
00001001
00000202
00000000
,
00000303
00000100
00000010
00001000
00000100
00001000
00000000
00000000
,
00001000
00000000
00010000
00000000
00001000
00000000
01000000
00000000
10000000
00000000
10000000
00010000
01000000
00010000
10000000
00010000
,
00000000
00010000
00000000
00100000
00000000
00001000
00000000
00010000
00000000
00000000
00010000
00000100
00000000
00001000
00000000
00000010
,
00000100
00000010
00000000
00000010
00001000
00000000
00001000
00000000
00000101
00000000
00000001
00000000
00000100
00000010
00001000
00000010
,
00000000
00010000
00000000
00001000
00000000
00100000
00000000
00120000
00000000
00000000
00000000
00000000
00030000
00000000
00000000
00000000
,
00010000
00000000
01000000
00000000
00100000
10000000
00100000
00000000
10010000
00000000
10000000
00000000
01000000
00100000
01000000
00010000
,
00000000
00001000
00000000
00000100
00000000
00000001
00000010
00000100
00001000
00000000
00000100
00000000
00010000
00000000
00001000
00000000
,
00000000
00000000
00000000
00000000
00010000
00000000
00100000
00000000
10000000
00000000
00100000
00000000
00020000
00001000
00030000
00000000
,
00000000
00000000
00010000
00001000
00010000
00000000
00000100
00000000
00010000
00000000
00001000
00000000
00100000
00000000
00001000
00000000
,
00010000
00010000
00000000
00000000
00010000
00001000
00000000
00011000
,
00000000
00010000
00000100
00001000
00000010
00000100
00000001
00000010
,
00000000
00000010
00000100
00000000
00000100
00001000
00000000
00001100
,
00000000
00000100
00010000
00001000
00100000
00010000
01000000
00100000
,
00000000
00000000
00100000
10000000
00000000
00000000
10000000
01000000
,
00000000
22000000
00000000
33000000
00000000
00000000
01000000
00010000
,
00000000
00000000
00010000
00001000
00000000
00000000
00001000
00001100
,
00000000
00001000
00000000
00000001
00000100
00000010
00001000
00000200
,
00010000
00010300
00000000
00000000
00010000
00100000
00000000
10100000
,
00000000
10000000
01000000
00100000
00010000
01000000
00100000
10000000
,
01000000
01000000
00000000
00000000
00100000
00100000
00000000
00110000
,
00000000
00001000
00000100
00000001
00000100
00001000
00010000
00001000
,
00000000
00001000
01000000
00100000
00000000
00100000
10000000
00010000
,
00000000
10010000
00000000
01001000
00000000
00000000
00100000
00001000
,
00000000
00001000
00010000
00000100
00000000
00000100
00001000
00000001
,
00000000
00000000
00000101
00000000
00000000
00000000
00001100
00000000
00000100
00000000
00000000
00000000
00001001
00000000
00000000
00000001
,
00000100
00000000
00000000
00000100
00001000
00000000
00000000
00001000
00010000
00000000
00000000
00010000
01000000
00000000
00000000
01000000
,
10000000
00000000
00000000
10000000
01000000
00000000
00010000
00000000
00001000
00000000
00000000
00000000
00001000
00000000
00000100
00000000
,
00000000
00000100
00000001
00000010
00000001
00001000
00000010
00000100
,
00000001
00000100
00000010
00001000
00000100
00001000
00010000
00100000
,
10000000
10000000
00000000
00000000
00010000
00010000
00000000
10010000
,
00000000
10000000
01000000
00100000
00001000
00010000
00000100
00002000
,
00000010
00003010
00000000
00000000
00000100
00000100
00000000
00001001
,
00000000
00000001
00001000
00000001
00001000
00000100
00010000
00001000
,
00000000
00000000
00001000
00010000
00000000
00010000
00001000
00010000
,
00000000
00022000
00000000
00033000
00000000
00000000
00010000
01000000
,
00000000
00000000
01000000
10000000
00000000
10000000
00100000
01100000
,
00000000
01000000
00000000
00001000
00010000
00000100
00001000
00000010
,
00001001
00001001
00000000
00000000
10010000
10010000
00000000
00000000
,
00022000
00000000
00033000
00000000
00000000
00000000
00010000
00001000
00000000
00000000
00010000
00000000
00011000
00000000
00000000
00000000
,
10010000
00000000
10000000
00000000
01000000
00000000
00100000
00001000
00000000
00001000
00010000
00000100
00000000
00000100
00001000
00000001
,
00000000
00000101
00000000
00000101
00000000
00000000
00000001
00001000
00000000
00001000
00000100
00010000
00000000
00010000
00001000
00100000
,
00000000
00110000
00000000
01000000
10000000
00000000
00000000
00000000
10000000
00000000
01000000
00000000
00010000
00000000
00001000
00000000
,
00000100
00000001
00000100
00001000
00010000
00100000
00010000
00001000
,
00000100
00000000
00001000
00000000
00010000
00000000
00001000
00000000
00010000
00000000
00001000
00000000
00010000
00000000
00001000
00010000
,
00001000
00010000
00001000
00010000
00001000
00010000
00002000
00000000
00000000
00000000
00000000
00000000
00000000
00000000
00000000
00000000
,
00000000
00000000
00000000
00000000
,
00003000
00000000
00000000
00000000
;

//---------------dance-double - ----------------
#NOTES:
     dance-double:
     :
     Easy:
     6:
     0.481,0.855,0.338,0.100,0.215:
00000000
00000000
00000000
00000000
,
00000000
00000000
00000000
00000000
,
00000000
00000000
00000000
00000000
00000000
00000000
00000000
00001000
,
00020000
00000000
00000000
00000000
00000000
00000000
00000000
00031000
,
00000000
00001000
00000000
00000000
00001000
00010000
00000000
00000000
,
00011000
00000000
00000000
00000000
00000000
00000000
00001000
00010000
00000000
00000000
00001000
00000000
00010000
00000000
00000000
00000000
,
00011000
00000000
00000000
00000000
00000000
00000000
00010000
01000000
00000000
01000000
00000000
01000000
00000000
00000000
00001000
00000100
,
00000000
00000100
00000000
00000100
00000000
00000000
00010000
00100000
00000000
00100000
00000000
00100000
00000000
00000000
00001000
00000010
,
00000000
00000010
00000000
00000010
00000000
00000000
00000000
00000000
00000001
00000000
00000000
00000000
00000100
00000000
00000000
00000000
,
00001000
00000000
00010000
00000000
02000000
00000000
03000000
10000000
,
01000000
00000000
01000000
00010000
00000000
00010000
00000000
00010000
,
00001000
00000000
00000000
00001000
00000100
00000000
00000100
00000001
,
00000100
00000000
00000100
00001000
,
00011000
00000000
00000000
01010000
00000000
00011000
00000000
00001100
,
00000000
00011000
00000000
00000000
00010000
00000000
00100000
00000000
,
10000000
01000000
00000000
01000000
00100000
00000000
00001000
00000000
,
00000100
00000000
00000001
00000100
00000000
00000000
00000100
00000000
,
00000100
00001000
00000000
00001000
00000010
00000000
00000100
00000000
,
00000001
00000000
00000010
00000000
00000011
00000000
00000000
00001100
,
00000000
00010000
00011000
00100000
,
00010000
01000000
00200000
00000000
,
00300000
10000000
01000000
00100000
00010000
00000000
00000000
00100000
,
00010000
00001000
00010000
00000100
,
00001000
00000010
00000000
00000010
00000100
00000000
00000001
00000000
,
00000010
00000000
00001000
00010000
00000000
00000000
00011000
00000000
,
00010000
00100000
00000000
00100000
01000000
00000000
00010000
00000000
,
10000000
00000000
01000000
00000000
00200000
00000000
00000000
00301000
,
00000000
00010000
00001000
00010000
,
00000100
00000010
00001001
00000001
,
00000100
00000000
00000010
00001000
00000010
00000000
00010000
00000000
,
00001000
00000000
00000000
00000000
00100000
00000000
00000000
00000000
10010000
00000000
10000000
00000000
01000000
00000000
00100000
00001000
,
00000000
00010000
00000000
00000100
00000000
00001000
00000000
00000010
00000000
00000000
00000100
00000001
00000000
00000001
00000000
00000001
,
00000000
00000000
00000000
00000000
00000000
00000000
00000000
00000000
00000011
00000000
00000001
00000000
00000100
00000000
00000010
00001000
,
00000000
00000100
00000000
00010000
00000000
00001000
00000000
00100000
00000000
00000000
00000000
00000000
00010000
00000000
01000000
00000000
,
00100000
00000000
10000000
00000000
10100000
00000000
10000000
00000000
01000000
00000000
00100000
00000000
00010000
00000000
00100000
00001000
,
00000000
00010000
00000000
00000100
00000000
00001000
00000000
00000010
00000000
00000000
00000010
00000000
00000100
00000000
00000001
00000000
,
00000000
00000000
00000000
00001001
00000000
00000001
00000100
00000000
,
00000000
00000000
00001000
00010000
00001000
00010000
00001000
00020000
,
00000000
00130000
00000000
00000000
00100000
10000000
00000000
10000000
,
00000000
00000000
10000000
00000000
00010000
00000000
01000000
00001000
,
00000000
00000000
00010000
00000000
00010000
00000100
00000000
00010100
,
00000000
00000000
00010000
00000000
00000010
00000000
00001000
00000001
,
00000000
00000000
00000001
00000100
00000000
00000000
00000100
00000010
,
00000000
00001010
00000000
00000000
00000000
00000000
00000010
00010000
,
00000000
00000000
00010000
00100000
00000000
00000000
00100000
10000000
,
00000000
11000000
00000000
10000000
01000000
00100000
00010000
00200000
,
00000000
00301000
00000000
00000000
00001000
00010000
00000000
00011000
,
00000000
00000000
00001000
00000000
01000000
00000000
10000000
01000000
,
00000000
00000000
00010000
00000000
00010000
00001000
00000000
00011000
,
00000000
00000000
00001000
00000000
00000010
00000000
00000100
00000001
,
00000000
00000000
00000001
00000010
00000000
00000000
00000100
00001000
,
00000000
00011000
00000000
00011000
00000000
00000000
00010000
00100000
,
00000000
00000000
01000000
10000000
00000000
00000000
10000000
00010000
,
00000000
00011000
00000000
00001000
00010000
00000000
00000000
00000000
,
10000000
01000000
00010000
00001000
,
00000100
00000000
00000001
00000000
00000100
00000000
00001000
00010000
,
00000000
00100000
10000000
01000000
,
00100000
00000000
00001000
00000000
00010000
00000000
00000100
00000010
,
00000000
00000001
00000000
00000000
00000001
00000100
00000000
00000101
,
00000000
00000000
00000100
00000000
00000010
00000000
00010000
00100000
,
00000000
00100000
00000000
01000000
00100000
00000000
00000000
00101000
,
00000000
00000000
00000100
00000000
00001000
00000000
00000010
00000100
,
00000000
00000000
00000100
00000001
00000000
00000001
00000100
00000001
,
00000000
00000101
00000000
00000000
00000001
00000100
00000000
00000100
,
00001000
00000000
00001000
00010000
00000000
00000000
00010000
01000000
,
00000000
10000000
00000000
01000000
00010000
01000000
10000000
02000000
,
00000000
03010000
00000000
00000000
00001000
00010000
00000000
00000000
,
00011000
00000000
00000000
00000000
00000000
00000000
00010000
00001000
00000000
00000000
00001000
00000000
00000100
00000000
00000000
00000000
,
00002002
00000000
00000000
00000000
00003003
00000000
00000001
00000010
00000000
00000100
00000000
00001100
00000000
00010000
00000000
00011000
,
00000000
00011000
00000000
00011000
00000000
00100000
00000000
00110000
00000000
01000000
00000000
11000000
00000000
10000000
00000000
10010000
,
00000000
10010000
00000000
00010000
10000000
00000000
00000000
00000000
10000000
00000000
00000000
00000000
01000000
00000000
00000000
00000000
,
00010000
00001000
00000100
00000001
,
00000100
00000000
00001000
00020000
00000000
00000000
00000000
00000000
,
00000000
00000000
00000000
00002000
00000000
00000000
00000000
00000000
,
00000000
00000000
00000000
00000000
00000000
00000000
00000000
00033000
;
