#VERSION:0.82;
#TITLE:THE NIGHT;
#SUBTITLE:The Theme of WWE RAW;
#ARTIST:Kromestatik;
#TITLETRANSLIT:;
#SUBTITLETRANSLIT:;
#ARTISTTRANSLIT:;
#GENRE:;
#ORIGIN:;
#CREDIT:;
#BANNER:thenight-bn.png;
#BACKGROUND:thenight-bg.png;
#PREVIEWVID:;
#JACKET:;
#CDIMAGE:;
#DISCIMAGE:;
#LYRICSPATH:;
#CDTITLE:;
#MUSIC:[ROUND G] - The Night.mp3;
#OFFSET:-0.740000;
#SAMPLESTART:10.385273;
#SAMPLELENGTH:11.373627;
#SELECTABLE:YES;
#BPMS:0.000=182.000;
#STOPS:;
#DELAYS:;
#WARPS:;
#TIMESIGNATURES:0.000=4=4;
#TICKCOUNTS:0.000=4;
#COMBOS:0.000=1;
#SPEEDS:0.000=1.000=0.000=0;
#SCROLLS:0.000=1.000;
#FAKES:;
#LABELS:0.000=Song Start;
#BGCHANGES:;
#KEYSOUNDS:;
#ATTACKS:
;

//---------------dance-single - ----------------
#NOTEDATA:;
#CHARTNAME:;
#STEPSTYPE:dance-single;
#DESCRIPTION:;
#CHARTSTYLE:;
#DIFFICULTY:Easy;
#METER:4;
#RADARVALUES:0.264574,0.251310,0.168365,0.039615,0.000000,166.000000,17.000000,4.000000,0.000000,0.000000,0.000000,0.000000,0.000000,0.264574,0.251310,0.168365,0.039615,0.000000,166.000000,17.000000,4.000000,0.000000,0.000000,0.000000,0.000000,0.000000;
#CREDIT:;
#NOTES:
0000
0000
0000
0000
,
0000
0000
0000
0000
,
0000
0000
0000
0000
,
0000
0000
0000
0000
,
1000
0000
0000
0001
0000
0000
0000
0000
,
0001
0000
0000
1000
0000
0000
0000
0000
,
0010
0000
0000
0100
0000
0000
0000
0000
,
0100
0000
0000
0000
,
0010
0000
0100
0000
,
0001
1000
0100
0000
,
0010
0000
0100
0000
,
1000
0010
0100
0000
,
0001
0000
0010
0000
,
0001
1000
0010
0000
,
0100
0000
0001
0000
,
0010
0001
1000
0000
,
0100
0000
0110
0000
,
0010
0010
0100
0000
,
1000
0010
0100
0000
,
0001
1000
0100
0000
,
0010
0000
0110
0000
,
0010
0001
1000
0000
,
0010
0010
0100
0000
,
0010
1000
0001
0000
,
1000
0000
1001
0000
,
0001
0000
0101
0000
,
0010
0000
1010
0000
,
0100
0000
0110
0000
,
0001
0000
0011
0000
,
0100
0000
1100
0000
,
1000
0000
1001
0000
,
0010
0000
0110
0000
,
0010
0100
0001
0000
,
0010
0000
0100
0000
,
1000
0010
0100
0000
,
0010
0000
1000
0000
,
0001
0010
0100
0000
,
1000
0000
0001
0000
,
0200
0000
0010
0000
,
0010
0000
0310
0000
,
0100
0000
0010
0000
,
0100
0001
0010
0000
,
0100
0000
1000
0000
,
0100
0010
0001
0000
,
1000
0000
0010
0000
,
0100
0001
1000
0000
,
0100
0000
0010
0000
,
0100
1000
0001
0000
,
0100
0000
0010
0000
,
1000
0010
0100
0000
,
0001
0000
0010
0000
,
0001
1000
0010
0000
,
1000
0000
0100
0000
,
0010
0001
1000
0000
,
0020
0000
0100
0000
,
0100
0000
0130
0000
,
0110
0000
1001
0000
,
0001
1000
0100
0000
,
0010
0000
0110
0000
,
0001
1000
0010
0000
,
0100
0000
0101
0000
,
0010
1000
0001
0000
,
0010
0000
1100
0000
,
1000
0001
0100
0000
,
0010
0000
0110
0000
,
0100
0001
1000
0000
,
0100
0000
0010
0000
,
0001
1000
0010
0000
,
1000
1000
0100
0000
,
0010
0010
0001
0000
,
0100
0100
0010
0000
,
1000
0001
0010
0000
,
0220
0000
0330
0000
;

//---------------dance-single - ----------------
#NOTEDATA:;
#CHARTNAME:;
#STEPSTYPE:dance-single;
#DESCRIPTION:;
#CHARTSTYLE:;
#DIFFICULTY:Medium;
#METER:6;
#RADARVALUES:0.473969,0.469937,0.623942,0.049519,0.000000,267.000000,63.000000,5.000000,0.000000,0.000000,0.000000,0.000000,0.000000,0.473969,0.469937,0.623942,0.049519,0.000000,267.000000,63.000000,5.000000,0.000000,0.000000,0.000000,0.000000,0.000000;
#CREDIT:;
#NOTES:
// measure 0
0000
0000
0000
0000
,  // measure 1
0000
0000
0000
0000
,  // measure 2
0000
0000
0000
0000
,  // measure 3
0000
0000
0000
0000
,  // measure 4
1000
0000
0000
1100
0000
0000
0000
0000
,  // measure 5
0010
0000
0000
0011
0000
0000
0000
0000
,  // measure 6
0100
0000
0000
0110
0000
0000
0000
0000
,  // measure 7
2002
0000
3003
0000
,  // measure 8
0010
0000
0000
0010
0001
0000
1000
0000
,  // measure 9
0010
0000
0000
0010
1000
0000
0100
0000
,  // measure 10
0010
0000
0000
0010
0100
0000
1000
0000
,  // measure 11
0010
0000
0000
1000
0001
0000
0100
0010
,  // measure 12
0000
0000
0010
0000
0100
0000
0000
0010
,  // measure 13
0100
0000
0001
0000
1000
0000
0000
0100
,  // measure 14
1000
0010
0100
0001
,  // measure 15
1001
0000
0000
0100
0010
0000
0010
0100
,  // measure 16
0000
0000
1000
0000
1100
0000
0000
0100
,  // measure 17
0010
0000
0001
0000
0011
0000
0000
0001
,  // measure 18
0100
0000
0010
0000
0110
0000
0000
0100
,  // measure 19
0001
1000
1100
0000
,  // measure 20
0100
0000
0010
0000
0110
0000
0000
0100
,  // measure 21
0010
0000
0001
0000
1001
0000
0000
1000
,  // measure 22
0010
0000
0100
0000
0101
0000
0010
1000
,  // measure 23
0010
0000
0000
0010
0100
0000
0001
1000
,  // measure 24
0100
0000
0000
1100
0000
0000
1000
0000
,  // measure 25
1001
0000
0000
0110
0000
0000
0010
0000
,  // measure 26
0100
0000
0000
0101
0000
0000
0001
0000
,  // measure 27
0011
0000
0000
0110
0000
0000
0100
0000
,  // measure 28
1000
0000
0000
1001
0000
0000
0010
0000
,  // measure 29
0110
0000
0000
0101
0000
0000
0001
0000
,  // measure 30
0010
0000
0000
0011
0000
0000
0100
0000
,  // measure 31
1100
0000
0000
1001
0000
0000
0001
0000
,  // measure 32
0100
0000
0000
1010
0000
0000
0100
0000
,  // measure 33
0110
0000
0000
0101
0000
0000
0001
0000
,  // measure 34
1001
0000
0000
1100
0000
0000
0010
0000
,  // measure 35
0011
0000
0000
1001
0000
0000
0010
0000
,  // measure 36
1000
0000
0000
1001
0000
0000
0100
0000
,  // measure 37
0110
0000
0000
1010
0000
0000
0100
0000
,  // measure 38
0001
0000
0000
0011
0000
0000
0100
0000
,  // measure 39
1100
0000
0000
1001
0000
1000
0001
0000
,  // measure 40
0101
0000
0100
0001
0000
0001
1000
0000
,  // measure 41
1100
0000
1000
0010
0000
0010
0100
0000
,  // measure 42
0101
0000
0001
0010
0000
0010
0100
0000
,  // measure 43
1100
0000
1000
0001
0000
0001
0100
0010
,  // measure 44
1000
0000
1000
0010
0000
0010
0100
0000
,  // measure 45
0101
0000
0001
1000
0000
1000
0100
0000
,  // measure 46
0010
0000
0010
0100
0000
0100
1000
0000
,  // measure 47
0001
0000
0100
0001
0000
0001
0010
0100
,  // measure 48
1000
0000
1000
0010
0000
0000
0010
0000
,  // measure 49
0110
0000
0100
0001
0000
0001
1000
0000
,  // measure 50
0100
0000
0100
1000
0000
0000
1001
0000
,  // measure 51
0001
0000
0100
0010
0000
0010
0100
0000
,  // measure 52
0001
0000
0001
0010
0000
0000
0110
0000
,  // measure 53
0100
0000
1000
0010
0000
0010
0100
0000
,  // measure 54
0101
0000
0000
0110
0000
0000
1010
0000
,  // measure 55
2002
0000
0000
3003
,  // measure 56
1001
0000
0000
0100
0010
0000
0001
0000
,  // measure 57
0011
0000
0000
0100
1000
0000
0001
0000
,  // measure 58
0101
0000
0000
0010
0100
0000
0001
0000
,  // measure 59
1001
0000
0000
1000
0010
0100
0001
1000
,  // measure 60
0100
0000
0000
0010
0001
0000
1000
0000
,  // measure 61
1100
0000
0000
0010
0100
0000
1000
0000
,  // measure 62
1001
0000
0000
0001
0100
0000
0010
0000
,  // measure 63
0110
0000
0000
0100
0001
1000
0100
0010
,  // measure 64
0001
0000
0000
0010
0001
0000
1000
0000
,  // measure 65
1010
0000
0000
0010
0100
0000
0001
0000
,  // measure 66
0101
0000
0000
0100
0010
0000
1000
0000
,  // measure 67
1001
0000
0000
0000
0010
1000
0100
0000
,  // measure 68
1100
0000
1000
0001
0000
1000
0001
0000
,  // measure 69
0101
0000
0100
0001
0000
0100
0001
0000
,  // measure 70
0011
0000
0010
0100
0000
0010
0100
0000
,  // measure 71
1100
0000
1000
0010
0000
0000
0100
0001
,  // measure 72
2000
0000
0000
0000
,  // measure 73
3000
0000
0000
0000
;

//---------------dance-single - ----------------
#NOTEDATA:;
#CHARTNAME:;
#STEPSTYPE:dance-single;
#DESCRIPTION:;
#CHARTSTYLE:;
#DIFFICULTY:Hard;
#METER:8;
#RADARVALUES:0.656483,0.578384,0.475384,0.019808,0.004952,414.000000,48.000000,2.000000,0.000000,0.000000,0.000000,0.000000,0.000000,0.656483,0.578384,0.475384,0.019808,0.004952,414.000000,48.000000,2.000000,0.000000,0.000000,0.000000,0.000000,0.000000;
#CREDIT:;
#NOTES:
0000
0000
0000
0000
,
0000
0000
0000
0000
,
0000
0000
0000
0000
,
0000
0000
0000
0000
,
1010
0000
0000
0100
0001
0000
0000
0000
,
0011
0000
0000
0100
1000
0000
0000
0000
,
0110
0000
0000
1000
0001
0000
0000
0000
,
0110
0000
0000
0100
1000
0010
0100
0001
,
0101
0001
1001
1100
,
1001
0000
0001
0010
0100
1000
0010
0000
,
0110
0000
0100
0001
0010
0001
1000
0000
,
1100
0000
0000
0100
0010
0100
1000
0001
,
0000
0001
0100
0000
0010
0000
1000
0000
,
1001
0000
0100
0010
0001
1000
0010
0100
,
0001
0000
0010
0001
1000
0010
0100
0000
,
0110
0000
0000
0100
0001
1000
0100
0010
,
0001
0000
0011
0000
0010
0100
0010
0100
,
1000
0000
1100
0000
1001
0001
0100
0000
,
0010
0100
0001
1000
0100
0000
0110
0000
,
1001
0000
0001
1000
0100
1000
0010
0000
,
0100
0001
1000
0100
0000
1000
0100
0000
,
0010
0001
1000
0010
0000
0100
0001
0100
,
0010
1000
0100
0010
0001
0100
0010
0100
,
0001
1000
0100
0010
0000
0000
0100
1000
,
1001
0000
1001
0000
0001
0100
0001
1000
,
0100
1000
0010
0100
0000
0100
0001
1000
,
0100
1000
0010
0000
0100
0100
0001
0100
,
0010
1000
0001
1000
0000
0100
0010
0000
,
0001
0010
0100
1000
0010
1000
0001
0001
,
0100
0010
0000
0100
0001
0000
0010
0100
,
0000
1100
0000
1000
0010
0010
0100
0001
,
0101
0000
0010
1010
0000
0000
1000
1001
,
0000
0001
0010
0000
0110
0000
0100
0000
,
1000
0010
0100
0000
0110
0000
0100
0001
,
0100
0010
1000
0001
1000
0100
0010
0001
,
1000
0010
1000
0000
0001
0000
0010
0010
,
0000
0000
0000
0100
0000
0000
1000
0000
0000
0000
0000
0000
1100
0000
0000
0000
0000
0000
1000
0000
0000
0000
1000
0000
,
0000
0001
0100
0000
0110
0000
0100
0001
,
0010
0000
0010
0100
1000
0001
0100
0010
,
0100
0001
1000
0000
1001
0100
0010
1000
,
0100
1000
0001
0000
0100
0100
0010
0100
,
0001
0010
0100
0000
1000
1000
0010
1000
,
0100
0010
0001
0100
0010
0010
0100
0001
,
0010
0001
1000
0100
1000
0001
0100
0010
,
0100
0100
0110
0000
1001
1000
0100
0010
,
0001
0100
0001
1000
0000
0010
1000
0100
,
1000
0001
0100
0001
0010
0000
0100
1000
,
0010
0100
0001
0010
0000
0000
0110
0000
,
0000
0000
0100
1000
0010
1000
0001
0100
,
0010
0100
0001
1000
0000
0100
1000
0010
,
0100
0001
0010
0000
0100
0100
1000
0001
,
0100
0010
0100
0110
0000
0100
0001
1000
,
0000
1000
0100
1000
0010
0000
0100
0010
,
0100
0001
0010
0100
0000
0010
0100
1000
,
0000
1000
0001
0000
0010
0001
0100
0010
,
0000
1000
0000
0100
1000
0010
0100
0001
,
0010
0110
1100
1001
,
0101
0000
0001
0100
0010
0100
0001
0000
,
1001
0000
0100
0010
0001
1000
0010
0000
,
0110
0000
0010
0100
0001
1000
0100
0010
,
0001
0011
0110
1100
,
1001
0000
0001
1000
0010
1000
0001
0100
,
0010
0000
0100
0001
0010
0100
1000
0000
,
1001
0000
0001
0010
0001
1000
0100
1000
,
0010
0000
0110
0000
0101
0001
1000
0100
,
1000
0000
1001
0000
0010
0100
0001
0000
,
0010
0001
0100
0001
1000
0000
0100
0000
,
0010
0000
0110
0000
0100
1000
0010
0000
,
0100
0001
0100
0010
0000
0010
1000
0000
,
0100
1000
0001
0100
0000
0100
0010
0100
,
0001
1000
0100
0010
0001
1000
0010
1000
,
0001
0100
0010
1000
0000
0000
0001
1000
,
2002
0000
0000
0000
,
3003
0000
0000
0000
;
