#VERSION:0.83;
#TITLE:Superfabulous;
#SUBTITLE:;
#ARTIST:BT;
#TITLETRANSLIT:;
#SUBTITLETRANSLIT:;
#ARTISTTRANSLIT:;
#GENRE:;
#ORIGIN:;
#CREDIT:;
#BANNER:[ROUND G] - Superfabulous.png;
#BACKGROUND:[ROUND G] - Superfabulous-bg.png;
#PREVIEWVID:;
#JACKET:[ROUND G] - Superfabulous-jacket.png;
#CDIMAGE:;
#DISCIMAGE:;
#LYRICSPATH:;
#CDTITLE:;
#MUSIC:[ROUND G] - Superfabulous.ogg;
#OFFSET:0.000000;
#SAMPLESTART:41.591000;
#SAMPLELENGTH:15.000000;
#SELECTABLE:YES;
#BPMS:0.000=136.005;
#STOPS:;
#DELAYS:;
#WARPS:;
#TIMESIGNATURES:0.000=4=4;
#TICKCOUNTS:0.000=4;
#COMBOS:0.000=1;
#SPEEDS:0.000=1.000=0.000=0;
#SCROLLS:0.000=1.000;
#FAKES:;
#LABELS:0.000=Song Start;
#LASTSECONDHINT:107.000000;
#BGCHANGES:;
#KEYSOUNDS:;
#ATTACKS:
;

//---------------dance-single - ----------------
#NOTEDATA:;
#CHARTNAME:;
#STEPSTYPE:dance-single;
#DESCRIPTION:;
#CHARTSTYLE:;
#DIFFICULTY:Beginner;
#METER:1;
#RADARVALUES:0.161968,0.221179,0.065053,0.018586,0.000000,122.000000,115.000000,7.000000,2.000000,0.000000,0.000000,0.000000,0.000000,0.000000,0.161968,0.221179,0.065053,0.018586,0.000000,122.000000,115.000000,7.000000,2.000000,0.000000,0.000000,0.000000,0.000000,0.000000;
#CREDIT:;
#NOTES:
0000
0000
0000
0000
,
0000
0000
0000
0000
,
0000
0000
0000
0000
,
0000
0000
0000
0000
,
0100
0000
1000
0000
,
0001
0000
0010
0000
,
0100
0000
1000
0000
,
0001
0000
0010
0000
,
0001
0000
0001
0000
,
0001
0000
0000
0000
,
1000
0000
1000
0000
,
1000
0000
0000
0000
,
0100
0000
0100
0000
,
0100
0000
0000
0000
,
0010
0000
0010
0000
,
0010
0000
2001
0000
,
3100
0000
0100
0000
,
1000
0000
0010
0000
,
0100
0000
0100
0000
,
0001
0000
0010
0000
,
0001
0000
0100
0000
,
0010
0000
1000
0000
,
1000
0000
0010
0000
,
0100
0000
0001
0000
,
1000
0000
0100
0000
,
0010
0000
0100
0000
,
1000
1000
1000
1000
,
1000
0000
1001
0000
,
0001
0000
0100
0000
,
0010
0000
0100
0000
,
0001
0001
0001
0001
,
0001
0000
0000
0000
,
0110
0000
0001
0000
,
0100
0000
0010
0000
,
0110
0000
1000
0000
,
0010
0000
0100
0000
,
1001
0000
0100
0000
,
0010
0000
1000
0000
,
0001
0000
1000
0000
,
0010
0000
0100
0000
,
0001
0000
0100
0000
,
0001
0001
0001
0000
,
1000
0000
0100
0000
,
1000
1000
1000
0000
,
0010
0000
0100
0000
,
0010
0010
0010
0000
,
0100
0000
0110
0000
,
1000
0000
0001
0000
,
0100
0000
0100
0000
,
0010
0000
0010
0000
,
1000
0000
1000
0000
,
0001
0000
0001
0000
,
0100
0000
0001
0000
,
0010
0000
0100
0000
,
1000
0000
0010
0000
,
1000
0000
0001
0000
,
0110
0000
0100
0000
,
0100
0000
0100
0000
,
0002
0000
1003
0000
,
1000
0000
1000
0000
;

//---------------dance-single - ----------------
#NOTEDATA:;
#CHARTNAME:;
#STEPSTYPE:dance-single;
#DESCRIPTION:;
#CHARTSTYLE:;
#DIFFICULTY:Easy;
#METER:3;
#RADARVALUES:0.293401,0.340133,0.120812,0.223038,0.000000,221.000000,208.000000,13.000000,24.000000,0.000000,0.000000,0.000000,0.000000,0.000000,0.293401,0.340133,0.120812,0.223038,0.000000,221.000000,208.000000,13.000000,24.000000,0.000000,0.000000,0.000000,0.000000,0.000000;
#CREDIT:;
#NOTES:
0000
0000
0000
0000
,
0000
0000
0000
0000
,
0000
0000
0000
0000
,
0000
0000
0000
0000
,
0100
1000
0001
0100
,
0010
1000
0001
0010
,
0100
1000
0001
0100
,
0010
1000
0001
0010
,
0001
0100
0010
1000
,
0001
0010
0100
1000
,
1000
0100
0010
0001
,
1000
0010
0100
0001
,
1000
0001
0010
0100
,
0001
1000
0010
0100
,
1000
0010
1000
0001
,
0100
0001
1001
0110
,
1000
0100
0100
1000
,
1000
0020
0000
0130
,
0001
0100
0100
0001
,
0010
0001
2000
3100
,
0000
0010
0010
0001
,
1000
0020
0000
0130
,
0001
0010
0100
1000
,
0001
1000
0200
0310
,
0010
0010
0001
0001
,
0100
0100
0010
0010
,
2000
0000
0010
0000
,
0100
0000
0001
3000
,
2000
3100
2000
3100
,
0020
0031
0020
0031
,
2000
3020
0230
0301
,
0002
0023
0230
2300
,
3001
0001
0100
0001
,
0010
0100
1000
1001
,
1000
1000
0100
1000
,
0010
0100
0001
0110
,
0001
0100
1000
0100
,
0010
1000
0100
0100
,
1000
0010
0001
0010
,
1000
0100
0020
0130
,
0010
0001
0100
0001
,
0101
0101
1001
0000
,
0010
1000
0100
1000
,
1100
1100
1001
0000
,
1000
0010
0100
0001
,
1001
0110
1001
0000
,
1000
0100
0010
0001
,
0010
0100
2000
3001
,
0001
0001
0100
0100
,
1000
1000
0100
0100
,
0010
0010
1000
1000
,
0100
0100
0010
0010
,
0001
0001
0010
0010
,
1000
1000
0010
0010
,
0001
0100
0010
1000
,
0100
0010
0002
2003
,
3002
0100
0000
0100
,
0000
0010
0000
0013
,
2000
0100
0000
3100
,
0020
0000
0230
0000
,
0000
0000
0000
0000
,
0300
0000
0000
0000
;

//---------------dance-single - ----------------
#NOTEDATA:;
#CHARTNAME:;
#STEPSTYPE:dance-single;
#DESCRIPTION:;
#CHARTSTYLE:;
#DIFFICULTY:Medium;
#METER:6;
#RADARVALUES:0.447404,0.481855,0.065053,0.408903,0.027880,337.000000,330.000000,7.000000,44.000000,0.000000,0.000000,0.000000,0.000000,0.000000,0.447404,0.481855,0.065053,0.408903,0.027880,337.000000,330.000000,7.000000,44.000000,0.000000,0.000000,0.000000,0.000000,0.000000;
#CREDIT:;
#NOTES:
0000
0000
0000
0000
,
0000
0000
0000
0000
,
2002
3003
0000
0000
1001
0000
0000
0000
,
0000
0000
0000
0000
,
1000
0100
0010
0100
1000
0001
0010
0001
,
1000
0100
0010
0001
0100
0010
1000
0001
,
0001
0100
0010
0100
0001
1000
0010
1000
,
0001
0100
0010
1000
0200
0000
0000
0000
,
0310
0001
1000
0000
1000
0000
1100
0000
,
1000
0010
0100
0000
0100
0000
0101
0000
,
0001
0010
0100
0000
0100
0000
1001
0000
,
1000
0001
0100
0000
0010
0010
0100
0100
,
0001
0000
1000
0000
0100
0000
1000
0001
,
0000
0001
0010
0000
0100
0000
0110
0000
,
1000
0100
0002
0103
2000
3100
0002
0103
,
2000
3010
0100
0001
0020
0000
0000
0000
,
0031
0000
0100
0001
0001
0000
0100
0010
,
0000
1000
0020
0000
0000
0100
0100
0000
,
1030
0000
0100
1000
1000
0020
0000
2000
,
0030
0020
3000
0230
0000
0001
0301
0000
,
0001
0000
0110
0000
1000
0100
1000
0100
,
0000
0100
0020
0000
0000
0100
0130
0000
,
1000
0000
0010
0100
0100
0001
0000
1000
,
0000
0001
0000
0200
0000
0010
0310
0000
,
1000
0010
0100
0010
0000
0010
1000
0001
,
0000
0001
0010
0100
0000
0010
0001
1000
,
0200
0000
2300
0000
3001
0100
0010
0100
,
0010
0010
2000
0000
3002
0000
0023
0000
,
0032
0000
0100
0103
0020
0000
0130
0100
,
2000
0000
3100
0100
0020
0000
0130
0001
,
0020
0230
2300
3002
,
0203
0000
0320
0000
1030
0001
1000
0001
,
0100
0000
0010
0010
1000
1000
0000
0001
,
0000
2000
0000
0001
0000
3200
0310
0000
,
0100
0000
0010
0010
0001
0001
0000
1000
,
0000
0001
0000
0100
0000
0010
1000
0001
,
0010
0000
0001
0001
0100
0100
0000
0010
,
0000
2000
0000
0100
0000
0000
3001
0100
,
0010
0000
1000
0100
1000
0001
0100
0002
,
0000
0023
0000
0230
0000
0000
0000
0000
,
1300
0100
1000
0100
0010
0001
0010
0001
,
0100
0001
1000
0010
0100
0001
1000
0010
,
0100
0010
0100
0010
1000
0001
1000
0001
,
0010
0001
1000
0100
0010
0001
1000
0100
,
1000
0001
1000
0001
0100
0010
0100
0010
,
1000
0001
0010
0100
1000
0001
0010
0100
,
1000
0001
1000
0100
0010
0100
0010
0002
,
0000
2003
0000
3020
0000
0130
0010
0000
,
1000
0000
0100
0000
0000
0000
0100
0000
0000
0100
0000
0000
0100
0000
0000
0000
,
1000
0000
0010
0000
0000
0010
0000
0000
0010
0000
0000
0010
0000
0000
0100
0000
,
0100
0000
0001
0000
0000
0001
0000
0000
0001
0000
0000
0001
0000
0000
0001
0000
,
0000
0000
1000
0000
0000
0010
0000
0000
1000
0000
0100
0000
0010
0000
0001
0000
,
1000
0100
0010
0100
1000
0100
0010
0010
,
0001
0100
0010
0100
0001
0100
0010
0010
,
1000
0100
0001
0100
1000
0100
0010
0010
,
0001
0100
1000
0100
0001
0100
0010
0010
,
2000
0000
0001
0001
0000
0000
0100
0000
,
3002
0000
1000
1000
0000
0000
0103
0000
,
2000
0000
0010
0010
0000
0000
0010
0000
,
3002
0000
0203
0000
,
0000
0000
0000
0000
,
0300
0000
0000
0000
;

//---------------dance-single - ----------------
#NOTEDATA:;
#CHARTNAME:;
#STEPSTYPE:dance-single;
#DESCRIPTION:;
#CHARTSTYLE:;
#DIFFICULTY:Hard;
#METER:9;
#RADARVALUES:0.576181,0.708610,0.074346,0.446076,0.427489,434.000000,426.000000,8.000000,48.000000,0.000000,0.000000,0.000000,0.000000,0.000000,0.576181,0.708610,0.074346,0.446076,0.427489,434.000000,426.000000,8.000000,48.000000,0.000000,0.000000,0.000000,0.000000,0.000000;
#CREDIT:;
#NOTES:
0000
0000
0000
0000
,
0000
0000
0000
0000
,
2200
3300
0000
0000
0101
0000
0000
0000
,
0000
0000
0000
0000
,
1000
0000
0100
1000
0100
0000
0010
0100
0010
0000
0001
0010
0001
0000
1000
0001
,
1000
0000
0001
0100
0001
0000
0100
0010
0100
0000
0010
1000
0001
0000
0010
0000
,
0001
0000
0100
0001
0100
0000
0010
0100
0010
0000
1000
0010
1000
0000
0001
1000
,
0001
0000
1000
0100
1000
0000
0100
0010
0200
0000
0000
0000
0010
0000
0310
0000
,
0001
0010
0001
0010
0100
0000
0000
0000
0100
0000
0000
0000
1000
0100
1000
0100
,
1000
0010
0100
0000
0100
0001
1000
0001
,
0100
0000
0000
0000
0010
0000
0100
0000
0010
1000
0001
0000
0100
0001
1000
0000
,
0100
0000
0010
0100
1000
0000
0001
1000
0020
0000
0000
0000
0100
0000
0130
0000
,
0001
0000
0000
0000
1000
0000
0010
1000
0100
0000
0010
0001
0100
0000
0001
1000
,
0001
1000
0010
0100
0001
0000
1000
0000
0100
0000
0010
0000
0001
0000
0010
0000
,
0100
1000
0100
1000
0020
0000
0130
0001
0020
0000
0130
1000
0020
0000
1030
0100
,
0020
0000
0031
0100
0020
0000
0000
0000
1030
0001
1000
0001
0010
0100
1000
0000
,
0100
0000
0010
0010
0001
0000
0010
0010
,
0000
0001
0010
0000
0100
0000
0100
1000
,
0010
0000
0100
0100
0001
0100
0000
0002
,
0000
0013
0000
0100
1000
0000
0001
0100
,
1000
0000
0001
0000
0010
0100
0010
0100
,
0000
0001
0010
0000
0100
0000
0100
1000
,
0000
0000
0010
1000
0010
0100
0001
2000
,
0000
3002
0000
0203
0000
0010
0310
0000
,
1000
0010
0100
0001
1000
0010
0100
0002
,
0000
0013
0100
1000
0001
0010
0100
2000
,
0000
3010
0100
0000
0100
0010
1000
0001
,
0010
0100
2000
0000
3002
0000
2003
0000
,
3020
0000
0000
0000
1030
0100
1000
0100
0020
0000
0000
0000
0031
0100
0001
0100
,
0020
0000
0000
0000
1030
0001
1000
0001
0020
0000
0000
0000
0031
1000
0001
1000
,
0200
2300
3002
0023
,
2030
0000
0000
0000
3002
0000
0000
0000
0203
0000
0000
0000
1300
0001
1000
0001
,
1000
0000
0000
1000
0100
0000
0010
0000
0001
0000
0100
0000
0001
0000
2000
0000
,
0000
0000
3200
0000
0000
0000
0310
0100
0010
0000
0001
0000
0100
0000
0010
0100
,
0010
0000
0010
1000
0001
0100
0000
0002
,
0000
0000
0203
0000
0000
0000
0301
1000
0001
0000
0010
0000
0100
0000
1000
0001
,
1000
0000
0100
0010
0001
2000
0000
3010
,
0100
0010
0200
0000
0000
0000
0301
0010
0002
0000
0000
0000
1003
0100
1000
0100
,
2000
0000
0000
3002
0000
0013
0100
1000
,
0000
0000
0100
0000
0000
0000
0010
0000
0001
0000
1000
0010
1000
0010
0100
0000
,
0001
0100
0010
0100
0001
0010
0000
0011
,
0000
0110
0000
2100
0000
0001
3001
0000
,
1000
0100
0010
0100
1000
0010
0000
1010
,
0000
0000
0110
0000
0000
0000
0101
0000
0001
1000
0010
0100
0001
0000
1000
0001
,
1000
0100
0001
0000
1000
0010
0001
2000
,
0000
0000
3002
0000
0000
0000
0103
0000
0001
1000
0010
0000
1000
0001
0100
0000
,
0001
1000
0100
1000
0100
0010
0001
0020
,
0000
0000
0032
0000
0000
0000
1003
0000
0100
0010
0001
1000
0010
0000
1000
0001
,
0100
0000
0010
0000
0000
0000
1000
0000
0000
0001
0000
0000
0100
0000
0000
0100
,
0001
0000
0010
0000
0000
0001
0000
0000
1000
0000
0000
0010
0000
0000
0100
0000
,
0001
0000
1000
0000
0000
0100
0000
0000
0010
0000
0000
0100
0000
0000
1000
0000
,
0000
0000
0000
0001
0000
0000
0100
0000
0000
0000
0000
0000
0000
0000
0000
0001
0000
0000
0000
0000
0000
0000
0000
0000
1000
0000
0000
0000
0000
0000
0100
0000
0000
0000
0000
0000
0010
0000
0000
0000
0100
0000
0000
0000
0010
0000
0000
0000
,
0001
0000
0000
1000
0000
0000
0010
0000
0000
1000
0000
0010
0000
0000
1000
0010
0000
0100
0000
0000
0001
1000
0000
0000
,
1000
0000
0000
0001
0000
0000
0010
0000
0000
0001
0000
0010
0000
0000
0001
0010
0000
0100
0000
0000
1000
0001
0000
0000
,
1000
0000
0000
0100
0000
0000
0010
0000
0000
0001
0000
1000
0000
0000
0001
1000
0000
0010
0000
0000
0100
0001
0000
0000
,
1000
0000
0000
0000
0100
0000
0000
0000
0000
0000
1000
0000
0010
0000
0000
0000
0000
0000
0100
0000
0000
0000
0000
0000
0001
0000
0000
0100
0000
0000
0001
0000
0000
0100
0000
0000
0010
0000
0000
1000
0000
0000
0010
0000
0000
1000
0000
0000
,
0002
0000
0010
0010
0000
0000
0100
0000
,
0203
0000
0010
0010
0000
0000
0301
0000
,
2000
0000
0100
0100
0000
0000
3010
0000
,
0020
0000
0230
0000
,
0000
0000
0000
0000
,
0300
0000
0000
0000
;

//---------------dance-single - ----------------
#NOTEDATA:;
#CHARTNAME:;
#STEPSTYPE:dance-single;
#DESCRIPTION:;
#CHARTSTYLE:;
#DIFFICULTY:Challenge;
#METER:7;
#RADARVALUES:0.411558,0.510199,0.055759,0.195158,0.102226,310.000000,304.000000,6.000000,21.000000,4.000000,0.000000,47.000000,0.000000,0.000000,0.411558,0.510199,0.055759,0.195158,0.102226,310.000000,304.000000,6.000000,21.000000,4.000000,0.000000,47.000000,0.000000,0.000000;
#CREDIT:;
#NOTES:
// measure 0
0000
0000
0000
0000
,  // measure 1
0000
0000
0000
0000
,  // measure 2
4000
0400
0000
0000
3300
0000
0000
0000
0004
0400
0000
0303
0000
0000
0000
0000
,  // measure 3
0000
0000
0000
0000
,  // measure 4
1000
0100
1000
0010
0100
0001
0010
0001
,  // measure 5
1000
0000
0001
0000
0100
0000
0010
0000
1000
0000
0010
1000
0001
0000
0010
0000
,  // measure 6
0001
0100
0010
0100
0010
1000
0010
1000
,  // measure 7
0001
1000
0100
0010
0400
0000
0000
0300
,  // measure 8
1000
0000
0000
0000
0001
0000
0010
0000
0400
0040
0000
0000
0000
0000
0000
0000
,  // measure 9
0000
0000
0330
0000
0100
1000
0001
1000
,  // measure 10
0100
0000
0000
0000
0010
0000
0100
0000
0040
0000
0000
0030
0400
0000
0000
0300
,  // measure 11
0000
0000
4000
0000
0000
3000
0004
0000
0000
0003
0000
0000
0100
0000
0100
0000
,  // measure 12
0001
0000
0000
0000
1000
0000
0010
1000
0100
0000
0010
0001
0100
0000
0004
4000
,  // measure 13
0000
0000
3003
1000
0100
0010
0001
0100
,  // measure 14
0010
0000
0000
0000
4000
0000
0000
3000
0004
0000
0000
0003
4000
0000
0000
3000
,  // measure 15
0040
0000
0000
0030
0400
0000
0000
0300
0004
4000
0000
0000
0000
0000
3003
0000
,  // measure 16
0100
0000
0010
1000
0001
0000
0010
0010
,  // measure 17
0000
0001
0010
0000
0100
0000
0100
1000
,  // measure 18
0010
0000
0100
0100
0001
0100
0000
0002
,  // measure 19
0000
0013
0000
0100
1000
0000
0001
0100
,  // measure 20
1000
0000
0001
0000
0010
0100
0010
0100
,  // measure 21
0000
0001
0010
0000
0100
0000
0100
1000
,  // measure 22
0000
0000
0010
1000
0010
0100
0001
2000
,  // measure 23
0000
0000
3002
0000
0000
0000
0403
0000
0000
0000
0000
0000
0000
0300
0000
0000
,  // measure 24
0001
0010
0100
1000
0001
0010
0100
2000
,  // measure 25
0000
3010
0100
0001
1000
0010
0100
0002
,  // measure 26
0000
0013
0100
0000
0100
1000
0001
0010
,  // measure 27
0100
0010
0002
0000
2003
0000
3002
0000
,  // measure 28
0043
0000
0034
0000
,  // measure 29
0043
0000
0430
0000
,  // measure 30
4300
3040
0430
0301
,  // measure 31
0004
0000
0000
0000
0043
0000
0000
0000
0430
0000
0000
0000
4300
0004
0000
0000
,  // measure 32
0003
3000
0000
1000
0100
0000
0010
0000
0001
0000
0100
0000
0001
0000
2000
0000
,  // measure 33
0000
0000
3200
0000
0000
0000
0310
0100
0010
0000
0001
0000
0100
0000
0010
0100
,  // measure 34
0010
0000
0010
1000
0001
0100
0000
0002
,  // measure 35
0000
0000
0203
0000
0000
0000
0301
1000
0001
0000
0010
0000
0100
0000
1000
0001
,  // measure 36
1000
0000
0100
0010
0001
2000
0000
3010
,  // measure 37
0400
0000
0000
0304
0000
0000
4003
0000
,  // measure 38
0000
0000
0000
3004
0000
0013
0100
1000
,  // measure 39
0000
0100
0000
0010
0001
4000
0000
3000
,  // measure 40
0001
0100
0010
0100
0001
0010
0000
0011
,  // measure 41
0000
0110
0000
2100
0000
0001
3001
0000
,  // measure 42
1000
0100
0010
0100
1000
0010
0000
1010
,  // measure 43
0000
0000
0110
0000
0000
0000
0101
0000
0004
0000
0000
0000
0000
0003
4000
0000
,  // measure 44
0000
3000
0100
0000
0010
0000
0000
0000
0001
0000
0010
0000
0100
0000
2000
0000
,  // measure 45
0000
0000
3002
0000
0000
0000
0103
0000
0040
0000
0000
0030
0400
0000
0000
0300
,  // measure 46
0001
1000
0100
1000
0100
0010
0001
0020
,  // measure 47
0000
0032
0000
1003
0400
0000
0000
0000
,  // measure 48
0300
0000
1000
0000
0000
0000
1000
0000
0000
0001
0000
0000
0100
0000
0000
0100
,  // measure 49
0001
0000
0010
0000
0000
0001
0000
0000
1000
0000
0000
0010
0000
0000
0100
0000
,  // measure 50
0001
0000
1000
0000
0000
0100
0000
0000
0010
0000
0000
0100
0000
0000
1000
0000
,  // measure 51
0000
0001
0100
0000
0000
0001
0000
0000
1000
0000
0100
0000
0040
0000
0000
0000
,  // measure 52
0031
1000
0010
1000
0000
0010
0000
1000
,  // measure 53
1000
0001
0010
0001
0000
0010
0000
0001
,  // measure 54
1000
0100
0010
0001
0000
1000
0000
0001
,  // measure 55
1000
0100
0010
0001
0400
0000
0000
0000
,  // measure 56
0302
0000
0010
0010
0000
0000
0100
0000
,  // measure 57
0203
0000
0010
0010
0000
0000
0301
0000
,  // measure 58
2000
0000
0100
0100
0000
0000
3010
0000
,  // measure 59
0040
0000
0030
0000
0400
0300
0000
0000
,  // measure 60
0000
0000
0000
0000
,  // measure 61
MMMM
0000
0000
0000
;
