#TITLE:Sky is the Limit feat. RHYMESTER;
#SUBTITLE:;
#ARTIST:lecca;
#TITLETRANSLIT:;
#SUBTITLETRANSLIT:;
#ARTISTTRANSLIT:;
#GENRE:;
#CREDIT:;
#BANNER:[ROUND G] - Sky is the Limit feat. RHYMESTER-bn.png;
#BACKGROUND:[ROUND G] - Sky is the Limit feat. RHYMESTER-bg.png;
#LYRICSPATH:;
#CDTITLE:cdtitle.png;
#MUSIC:[ROUND G] - Sky is the Limit feat. RHYMESTER.ogg;
#OFFSET:1.768000;
#SAMPLESTART:58.730000;
#SAMPLELENGTH:15.000000;
#LASTBEATHINT:1.393739;
#SELECTABLE:YES;
#BPMS:0.000000=115.000000
;
#STOPS:
;
#BGCHANGES:3.500=[ROUND G] - Sky is the Limit feat. RHYMESTER.mpg=1.000=0=0=0=StretchNoLoop==CrossFade_Fastest==,
99999=-nosongbg-=1.000=0=0=0 // don't automatically add -songbackground-
;
#KEYSOUNDS:;
#ATTACKS:;

//---------------dance-single - ----------------
#NOTES:
     dance-single:
     :
     Hard:
     8:
     0.478579,0.430878,0.029386,0.019591,0.367330,337.000000,3.000000,2.000000,0.000000,0.000000,0.000000,0.478579,0.430878,0.029386,0.019591,0.367330,337.000000,3.000000,2.000000,0.000000,0.000000,0.000000:
// measure 0
0000
0000
0000
0000
,  // measure 1
0000
0000
0000
0000
,  // measure 2
0000
0000
0000
0000
,  // measure 3
0000
0000
0000
0000
,  // measure 4
0000
0000
0000
0000
,  // measure 5
1000
0000
0000
1000
0001
0000
1000
0000
0100
0000
0000
1000
0001
0000
1000
0000
,  // measure 6
0010
0000
0000
0010
0100
0000
0001
0000
1000
0000
0001
0010
0001
0000
0010
0000
,  // measure 7
0100
0000
0000
0100
1000
0000
0001
0000
1000
0000
0000
1000
0010
0000
1000
0000
,  // measure 8
0001
0000
0000
0100
0001
0000
1000
0000
0001
0000
0010
0001
0010
0000
0100
0000
,  // measure 9
1000
0000
0000
0001
0100
0000
0001
0000
1000
0000
0000
0001
0010
0000
0001
0000
,  // measure 10
0100
0000
0000
0100
1000
0000
0100
0000
0001
0000
1000
0100
1000
0000
0010
0000
,  // measure 11
0100
0000
0000
0100
0001
0000
1000
0000
0001
0000
0000
0001
0010
0000
0001
0000
,  // measure 12
1000
0000
0000
0100
1000
0000
0001
0000
1000
0000
0000
0000
0110
0000
0000
0000
,  // measure 13
0001
0000
0010
0000
0100
1000
0000
0000
1000
0000
0010
0000
0100
0001
0000
0000
,  // measure 14
1000
0000
0100
0000
0001
0000
0100
0000
1000
0000
0001
0000
0100
0010
0000
0000
,  // measure 15
1000
0000
0010
0000
0100
0000
0001
0000
1000
0000
0100
0000
0010
0001
0000
0000
,  // measure 16
0001
0000
0010
0000
1000
0000
0010
0000
0001
0000
0010
0000
0100
1000
0000
0000
,  // measure 17
1000
0000
0010
0000
0100
0000
0010
0000
0001
0000
0010
0000
1000
0001
0000
0000
,  // measure 18
0001
0000
0010
0000
1000
0000
0010
0000
0100
0000
0010
0000
0001
1000
0000
0000
,  // measure 19
0001
0000
0100
0000
1000
0000
0100
0000
0001
0000
0100
0000
0010
1000
0000
0000
,  // measure 20
1000
0000
0100
0000
0001
0000
0100
0000
1000
0001
0000
1000
0001
0100
0000
0000
,  // measure 21
0010
0000
0000
1000
0010
0000
1000
0000
0001
0000
1000
0000
0100
0010
0000
0000
,  // measure 22
0001
0000
0000
0010
0001
0000
1000
0000
0001
0000
0100
0000
0010
1000
0000
0000
,  // measure 23
0001
0000
0000
1000
0100
0000
1000
0000
0001
0000
0100
0000
0010
1000
0000
0000
,  // measure 24
0100
0000
0000
0010
0001
0000
0010
0000
0100
0010
0001
0000
1000
0010
0000
0000
,  // measure 25
0010
0000
0000
1000
0010
0000
0001
0000
0010
0000
0100
0000
0001
1000
0000
0000
,  // measure 26
0100
0000
0000
0010
0100
0000
1000
0000
0001
0000
1000
0000
0010
0100
0000
0000
,  // measure 27
1001
0000
0000
0001
0000
0000
1000
0000
0010
0000
0000
0010
0000
0000
0100
0000
,  // measure 28
0001
0000
0000
0001
0000
0000
0010
0000
0100
1000
0000
1000
0001
1000
0010
0000
,  // measure 29
0100
0000
0000
0000
0100
0000
0000
0000
0001
0000
0000
0001
0000
0000
0010
0000
,  // measure 30
0100
0000
0000
0000
0100
0000
0000
0000
1000
0000
0000
0001
0000
0000
0100
0000
,  // measure 31
0010
0000
0000
0000
0010
0000
0000
0000
1000
0000
0000
0010
0000
0000
0001
0000
,  // measure 32
0010
0000
0000
0000
0010
0000
0000
0000
1000
0000
0000
0100
0000
0000
0010
0000
,  // measure 33
0001
0100
1000
0100
0001
0100
1000
0000
,  // measure 34
0001
0010
1000
0100
0001
0100
1000
0000
,  // measure 35
0001
0010
1000
0000
0001
0100
1000
0000
,  // measure 36
2002
0000
0000
3003
,  // measure 37
0001
0000
0000
0001
0100
0000
0010
0000
1000
0000
0000
0001
1000
0000
0100
0000
,  // measure 38
0010
0000
0000
0010
0001
0000
0100
0000
0010
0000
0000
1000
0001
0000
0010
0000
,  // measure 39
0100
0000
0000
0100
0010
0000
0001
0000
1000
0000
0000
0001
0100
0000
0001
0000
,  // measure 40
1000
0000
0100
1000
0000
0100
1000
0000
0001
0000
0100
0001
0000
0100
0001
0000
,  // measure 41
1000
0000
0000
0100
0010
0000
0001
0000
1000
0000
0000
0001
0100
0000
0001
0000
,  // measure 42
1000
0000
0000
0100
0010
0000
0001
0000
1000
0000
0000
0001
0100
0000
0010
0000
,  // measure 43
1000
0000
0000
1000
0010
0000
0100
0000
0001
0000
0000
0001
0100
0000
0001
0000
,  // measure 44
0010
0000
0000
0100
1000
0000
0001
0000
0100
0000
0000
1000
0100
0000
0001
0000
,  // measure 45
1000
0000
0000
0100
0010
0000
0001
0000
1000
0000
0010
0100
0010
0000
1000
0000
,  // measure 46
0001
0000
0000
0010
0100
0000
1000
0000
0001
0000
0100
0010
0100
0000
0001
0000
,  // measure 47
1000
0000
0000
0001
0100
0000
1000
0000
0100
0000
0001
1000
0001
0000
0010
0000
,  // measure 48
0100
0000
0000
0100
1000
0000
0001
0000
0100
0000
0010
0100
0010
0000
1000
0000
;

//---------------dance-single - ----------------
#NOTES:
     dance-single:
     :
     Challenge:
     10:
     0.660495,0.647144,0.000000,0.107750,0.945263,461.000000,0.000000,11.000000,0.000000,0.000000,0.000000,0.660495,0.647144,0.000000,0.107750,0.945263,461.000000,0.000000,11.000000,0.000000,0.000000,0.000000:
0000
0000
0000
0000
,
0000
0000
0000
0000
,
0000
0000
0000
0000
,
0000
0000
0000
0000
,
0000
0000
0000
0000
0000
0000
0000
0000
0000
0000
0000
0000
0000
0000
0010
1000
,
0001
0000
1000
0100
0000
1000
0100
0010
0001
0000
0100
0001
0000
0100
0001
1000
,
0100
0000
0010
0001
0000
0010
0001
1000
0020
0000
0000
0001
0000
0000
1030
0000
,
0010
0000
1000
0001
0000
1000
0001
0010
0100
0000
1000
0001
0000
1000
0001
0000
,
0100
0000
0010
0000
0010
0000
1000
0000
1000
0000
0100
0010
0000
0001
0200
0000
,
0310
0000
0000
1000
0010
1000
0001
0000
0010
0000
0000
0001
0100
0001
1000
0100
,
0010
0000
0000
0100
0000
1000
0002
0000
0100
0000
0000
1003
0010
1000
0010
1000
,
0001
0000
1000
0000
0000
0000
0100
1000
0100
0000
0000
0000
0010
0000
0001
0000
1000
0000
0001
0000
0000
0000
0100
0000
0000
0000
0010
0000
1000
0000
0001
0000
,
1000
0100
0000
0010
0001
0100
0010
0000
0200
0000
0000
0000
1000
0000
0000
0000
,
0301
0010
0001
0010
0100
1000
0000
0001
1000
0010
1000
0010
0100
0001
0000
0000
,
1000
0100
0010
0100
1000
0010
0100
0010
1000
0100
0010
0001
1000
0010
0000
0000
,
0100
0001
1000
0100
0000
0010
0100
1000
0001
0000
0100
0010
0100
0001
0000
0001
,
1000
0000
0010
0000
0100
0000
0010
0000
1000
0000
0000
0100
0000
0000
0010
0000
0000
0000
0001
0000
0100
0000
0001
0000
1000
0000
0100
0000
0000
0000
0000
0000
,
1000
0001
0100
0000
0001
1000
0100
1000
0000
0100
0000
1000
0001
0100
0000
0000
,
0010
1000
0010
1000
0001
0000
1000
0100
0000
0010
0001
0000
0100
0010
0000
0000
,
1000
0010
0100
0000
0001
1000
0100
0010
0001
1000
0001
0100
0010
1000
0000
0000
,
0001
0010
0100
0000
1000
0001
0100
0010
1000
0001
0000
1000
0001
0010
0000
0000
,
0100
1000
0001
0100
0000
0010
0100
0000
0001
0000
1000
0000
0100
1000
0000
0001
,
0000
0100
0010
1000
0000
0001
0010
0000
0100
0010
0001
0000
1000
0001
0000
0000
,
0100
0010
1000
0000
0100
0010
0001
1000
0000
0001
0000
0100
0010
1000
0000
0001
,
1000
0000
0100
0010
0001
1000
0001
0100
0010
1000
0001
0000
1000
0001
0000
0000
,
0010
0100
1000
0100
0001
0100
1000
0000
0001
0100
0010
0000
1000
0001
0000
0000
,
1000
0100
0010
0001
0000
1000
0010
0001
0000
0010
0100
0000
0001
1000
0000
0000
,
0100
0010
0000
0100
0010
0000
0000
1000
0010
0000
0001
0000
1000
0010
0000
0100
,
0001
0100
0000
0010
0100
1000
0100
0001
1000
0000
0001
0010
0100
1000
0000
0000
,
0001
0000
0100
0010
0100
0000
0001
0000
1000
0000
0000
1000
0100
0000
0010
0000
,
0001
0000
1000
0000
1000
0000
0010
1000
0001
0000
0010
0000
1000
0000
0010
0000
,
0001
0000
0000
0001
0100
0000
0010
0000
1000
0000
0001
0000
1000
0000
0100
0000
,
0010
0000
0000
0010
0001
0000
2000
0000
0001
0000
0000
0000
3001
0000
0100
0000
,
0010
0000
1000
0000
0010
0000
0001
0000
0010
0000
0100
0010
0000
1000
0001
0000
,
0010
0000
1000
0000
0010
0000
0001
0000
0010
0000
0100
0010
0000
0001
1000
0000
,
0020
0000
0130
0001
1000
0100
0001
0100
,
2000
0000
0000
0010
0000
0000
0001
0000
0000
0100
0000
0000
0001
0000
3001
0000
,
0100
0000
1000
0100
0000
0000
0001
0000
1000
0100
0000
1000
0100
0000
0010
0000
,
0001
0000
0000
0010
0000
0000
1000
0000
0010
0100
0000
0010
0100
0000
1000
0000
,
0001
0000
0100
0010
0000
0000
1000
0000
0001
0010
0000
0001
0010
0000
1000
0010
,
0001
0000
1000
0001
0000
0100
0001
0010
0100
0000
1000
0010
0000
1000
0100
0010
,
0002
0000
0000
0100
0000
0000
1003
0000
0001
0000
1000
0100
1000
0010
0100
0001
,
2000
0000
0000
0100
0000
0000
3001
0000
0010
0000
0001
0010
0001
0100
0010
1000
,
0002
0000
0000
0010
0000
0000
1003
0000
0001
0000
1000
0010
0100
0010
1000
0100
,
0020
0000
0000
0001
0000
0000
0130
0000
1000
0000
0010
0100
0001
0010
0100
1000
,
0001
0000
0000
1000
0001
0000
1000
0000
0010
0000
0100
0010
0100
0001
1000
0100
,
0010
0000
0000
0001
0010
0000
0001
0000
0100
0000
0010
1000
0001
1000
0100
0010
,
0001
0000
0000
1000
0001
0000
0100
0000
0001
0000
0010
0100
1000
0010
0100
0001
,
1000
0000
0000
0001
0100
0000
0010
0000
1000
0000
0100
0001
0100
1000
0001
0100
;

//---------------dance-single - ----------------
#NOTES:
     dance-single:
     :
     Medium:
     6:
     0.349838,0.311190,0.195909,0.029386,0.044080,227.000000,20.000000,3.000000,0.000000,0.000000,0.000000,0.349838,0.311190,0.195909,0.029386,0.044080,227.000000,20.000000,3.000000,0.000000,0.000000,0.000000:
// measure 0
0000
0000
0000
0000
,  // measure 1
0000
0000
0000
0000
,  // measure 2
0000
0000
0000
0000
,  // measure 3
0000
0000
0000
0000
,  // measure 4
0000
0000
0000
0000
,  // measure 5
1001
0000
1000
0000
0001
0100
1000
0000
,  // measure 6
0110
0000
0010
0000
1000
0100
0001
0000
,  // measure 7
0110
0000
0010
0000
0001
0100
1000
0100
,  // measure 8
0001
0000
0001
0000
1000
0100
0010
0000
,  // measure 9
0011
1000
1010
0001
,  // measure 10
0101
1000
1100
0001
,  // measure 11
0010
0001
0010
0000
0100
1000
0100
0000
,  // measure 12
1000
0001
0100
0001
2000
0000
0100
0000
,  // measure 13
3001
1000
0001
0000
0010
0100
0010
0000
,  // measure 14
0001
0000
1000
0000
0010
1000
0100
0000
,  // measure 15
1000
0010
1000
0000
0001
0100
0001
0000
,  // measure 16
1000
0000
0010
0000
0100
0001
0010
0000
,  // measure 17
0001
0000
1000
0000
0100
1000
0001
0000
,  // measure 18
0100
0000
0010
0000
1000
0001
0100
0000
,  // measure 19
0001
0010
0100
0000
1000
0001
0100
0000
,  // measure 20
0010
1000
0100
0010
0001
1000
0001
0000
,  // measure 21
1000
0000
1100
0000
0001
1000
0100
0000
,  // measure 22
0010
0000
0011
0000
1000
0001
0100
0000
,  // measure 23
0010
0000
1010
0000
0001
1000
0010
0000
,  // measure 24
0100
0000
0101
0000
1000
0001
0010
0000
,  // measure 25
0100
0000
1100
0000
1000
0001
0100
0000
,  // measure 26
0010
0000
0110
0000
0001
0010
1000
0000
,  // measure 27
0010
0000
0001
0010
0001
0000
1000
0001
,  // measure 28
1000
0000
0010
1000
0010
0000
0100
0001
,  // measure 29
0100
0000
0000
0000
0100
0000
0000
0000
0010
0000
0000
0010
0000
0000
0010
0000
,  // measure 30
1000
0000
0000
0000
1000
0000
0000
0000
0001
0000
0000
0001
0000
0000
0001
0000
,  // measure 31
0010
0000
0000
0000
0010
0000
0000
0000
0100
0000
0000
0100
0000
0000
0100
0000
,  // measure 32
1000
0000
0000
0000
1000
0000
0000
0000
0010
0000
0000
0010
0000
0000
0010
0000
,  // measure 33
0100
0000
0001
0000
1000
0100
1000
0000
,  // measure 34
0010
0000
1000
0000
0001
0100
0001
0000
,  // measure 35
0020
0000
0030
0100
1000
0001
1000
0010
,  // measure 36
0200
0000
0000
0000
0000
0000
0000
0300
,  // measure 37
0001
0000
1000
0000
0100
0000
1000
0001
,  // measure 38
0100
0000
0010
0000
1000
0000
0001
1000
,  // measure 39
0100
0000
0010
0000
0001
0000
1000
0001
,  // measure 40
0100
0110
1010
0101
,  // measure 41
0001
0000
1000
0001
0100
0000
0001
0010
,  // measure 42
0100
0000
0010
0001
1000
0000
0001
0000
,  // measure 43
0100
0000
0010
1000
0001
0000
0010
0001
,  // measure 44
0100
0000
0010
1000
0001
0000
1000
0000
,  // measure 45
0001
0000
0000
0001
0000
0000
0010
0000
0001
0000
0000
0000
0011
0000
0000
0000
,  // measure 46
1000
0000
0000
1000
0000
0000
0010
0000
1000
0000
0000
0000
1010
0000
0000
0000
,  // measure 47
0001
0000
0000
0001
0000
0000
0100
0000
0001
0000
0000
0000
0101
0000
0000
0000
,  // measure 48
1000
0000
0000
1000
0000
0000
0100
0000
0010
0000
0000
0001
0000
0000
1001
0000
;

//---------------dance-single - ----------------
#NOTES:
     dance-single:
     :
     Easy:
     3:
     0.226695,0.214888,0.166523,0.107750,0.000000,134.000000,17.000000,11.000000,0.000000,0.000000,0.000000,0.226695,0.214888,0.166523,0.107750,0.000000,134.000000,17.000000,11.000000,0.000000,0.000000,0.000000:
// measure 0
0000
0000
0000
0000
,  // measure 1
0000
0000
0000
0000
,  // measure 2
0000
0000
0000
0000
,  // measure 3
0000
0000
0000
0000
,  // measure 4
0000
0000
0000
0000
,  // measure 5
1000
0100
1000
0000
,  // measure 6
0001
0100
0001
0000
,  // measure 7
1000
0010
1000
0000
,  // measure 8
0001
0010
0001
0000
,  // measure 9
0011
0000
1100
0000
,  // measure 10
1010
0000
0101
0000
,  // measure 11
1000
1000
0001
0001
,  // measure 12
1000
0001
2000
3000
,  // measure 13
0100
0000
1000
0000
,  // measure 14
0001
0100
0010
0100
,  // measure 15
0001
0000
0010
0000
,  // measure 16
0100
1000
0001
0100
,  // measure 17
0010
0000
1000
0000
,  // measure 18
0001
0010
0100
1000
,  // measure 19
0001
0000
1000
0000
,  // measure 20
0010
0100
0001
1000
,  // measure 21
1100
0000
0011
0000
,  // measure 22
0101
0000
0010
1000
,  // measure 23
1001
0000
1100
0000
,  // measure 24
1001
0000
0001
0100
,  // measure 25
0110
0000
1010
0000
,  // measure 26
0101
0000
1000
0001
,  // measure 27
0011
0000
1000
0000
,  // measure 28
0001
0000
0100
0010
,  // measure 29
1000
1000
0002
0003
,  // measure 30
0010
0010
0100
1000
,  // measure 31
0002
0003
2000
3000
,  // measure 32
0020
0130
0200
0300
,  // measure 33
0001
0001
2000
3000
,  // measure 34
1000
1000
0200
0300
,  // measure 35
0020
0030
0002
0003
,  // measure 36
2000
0000
0000
0000
,  // measure 37
3001
0010
1000
0010
,  // measure 38
0001
0100
0010
1000
,  // measure 39
0001
0100
1000
0100
,  // measure 40
0001
1000
1001
0000
,  // measure 41
1000
0100
0001
0100
,  // measure 42
1000
0010
0100
0001
,  // measure 43
1000
0010
0001
0010
,  // measure 44
1000
0001
1001
0000
,  // measure 45
0001
0010
1000
0010
,  // measure 46
0001
0100
0010
1000
,  // measure 47
0100
0001
0100
1000
,  // measure 48
0001
0100
0010
1001
;

//---------------dance-single - ----------------
#NOTES:
     dance-single:
     :
     Beginner:
     1:
     0.095156,0.094037,0.039182,0.000000,0.000000,64.000000,4.000000,0.000000,0.000000,0.000000,0.000000,0.095156,0.094037,0.039182,0.000000,0.000000,64.000000,4.000000,0.000000,0.000000,0.000000,0.000000:
// measure 0
0000
0000
0000
0000
,  // measure 1
0000
0000
0000
0000
,  // measure 2
0000
0000
0000
0000
,  // measure 3
0000
0000
0000
0000
,  // measure 4
0000
0000
0000
0000
,  // measure 5
1000
0000
1000
0000
,  // measure 6
0001
0000
0000
0000
,  // measure 7
0001
0000
0001
0000
,  // measure 8
1000
0000
0000
0000
,  // measure 9
0010
0000
0010
0000
,  // measure 10
0100
0000
0100
0000
,  // measure 11
0001
0000
1000
0000
,  // measure 12
1001
0000
0000
0000
,  // measure 13
1000
0000
1000
0000
,  // measure 14
0001
0000
0000
0000
,  // measure 15
0100
0000
0100
0000
,  // measure 16
0010
0000
0000
0000
,  // measure 17
1000
0000
1000
0000
,  // measure 18
0001
0000
0000
0000
,  // measure 19
0010
0000
0100
0000
,  // measure 20
0010
0000
0000
0000
,  // measure 21
0001
0000
1000
0000
,  // measure 22
0001
0000
0000
0000
,  // measure 23
0100
0000
0010
0000
,  // measure 24
1000
0000
0000
0000
,  // measure 25
0001
0000
1000
0000
,  // measure 26
0001
0000
0000
0000
,  // measure 27
1001
0000
0000
0000
,  // measure 28
0000
0000
0000
0000
,  // measure 29
0001
0000
0000
0000
,  // measure 30
1000
0000
0000
0000
,  // measure 31
0100
0000
0000
0000
,  // measure 32
0010
0000
0000
0000
,  // measure 33
0001
0000
0001
0000
,  // measure 34
1000
0000
1000
0000
,  // measure 35
0010
0000
0010
0000
,  // measure 36
1001
0000
0000
0000
,  // measure 37
1000
0000
1000
0000
,  // measure 38
0100
0000
0000
0000
,  // measure 39
0010
0000
0010
0000
,  // measure 40
0001
0000
0000
0000
,  // measure 41
1000
0000
0001
0000
,  // measure 42
1000
0000
0000
0000
,  // measure 43
0100
0000
1000
0000
,  // measure 44
0100
0000
0000
0000
,  // measure 45
0010
0000
0001
0000
,  // measure 46
0010
0000
0000
0000
,  // measure 47
0001
0000
1000
0000
,  // measure 48
1001
0000
0000
0000
;
