#VERSION:0.83;
#TITLE:Road to G6;
#SUBTITLE:;
#ARTIST:Far East Movement vs. Mutato Muzika (mashup by Psychosis);
#TITLETRANSLIT:;
#SUBTITLETRANSLIT:;
#ARTISTTRANSLIT:;
#GENRE:;
#ORIGIN:;
#CREDIT:;
#BANNER:[ROUND G] - Road to G6.png;
#BACKGROUND:[ROUND G] - Road to G6-bg.png;
#PREVIEWVID:;
#JACKET:[ROUND G] - Road to G6-jacket.png;
#CDIMAGE:;
#DISCIMAGE:;
#LYRICSPATH:;
#CDTITLE:;
#MUSIC:[ROUND G] - Road to G6.ogg;
#OFFSET:-4.640974;
#SAMPLESTART:80.841507;
#SAMPLELENGTH:15.839996;
#SELECTABLE:YES;
#BPMS:0.000=62.500,
6.750=125.000,
57.000=250.000,
58.000=125.000,
61.000=250.000,
62.000=125.000,
65.000=250.000,
66.000=125.000,
69.000=250.000,
70.000=125.000,
73.000=250.000,
74.000=125.000,
77.000=250.000,
78.000=125.000,
81.000=250.000,
82.000=125.000,
85.000=250.000,
87.000=125.000,
105.000=250.000,
105.500=125.000,
106.500=250.000,
107.000=125.000,
109.000=250.000,
109.500=125.000,
110.500=250.000,
111.000=125.000,
113.000=250.000,
113.500=125.000,
114.500=250.000,
115.000=125.000,
117.000=250.000,
117.500=125.000,
118.500=250.000,
119.000=125.000,
137.000=250.000,
137.500=125.000,
138.500=250.000,
139.000=125.000,
141.000=250.000,
141.500=125.000,
142.500=250.000,
143.000=125.000,
145.000=250.000,
145.500=125.000,
146.500=250.000,
147.000=125.000,
149.000=250.000,
149.500=125.000,
150.500=250.000,
151.000=125.000,
169.000=250.000,
169.500=125.000,
170.500=250.000,
171.000=125.000,
173.000=250.000,
173.500=125.000,
174.500=250.000,
175.000=125.000,
177.000=250.000,
177.500=125.000,
178.500=250.000,
179.000=125.000,
181.000=250.000,
181.500=125.000,
182.500=250.000,
183.000=125.000,
185.000=250.000,
186.000=125.000,
189.000=250.000,
190.000=125.000,
193.000=250.000,
194.000=125.000,
197.000=250.000,
198.000=125.000,
201.000=250.000,
202.000=125.000,
205.000=250.000,
206.000=125.000,
209.000=250.000,
210.000=125.000,
213.000=250.000,
214.000=125.000;
#STOPS:57.000=0.060,
57.250=0.060,
57.500=0.060,
57.750=0.060,
61.000=0.060,
61.250=0.060,
61.500=0.060,
61.750=0.060,
65.000=0.060,
65.250=0.060,
65.500=0.060,
65.750=0.060,
69.000=0.060,
69.250=0.060,
69.500=0.060,
69.750=0.060,
73.000=0.060,
73.250=0.060,
73.500=0.060,
73.750=0.060,
77.000=0.060,
77.250=0.060,
77.500=0.060,
77.750=0.060,
81.000=0.060,
81.250=0.060,
81.500=0.060,
81.750=0.060,
85.000=0.060,
85.250=0.060,
85.500=0.060,
85.750=0.060,
86.000=0.030,
86.125=0.030,
86.250=0.030,
86.375=0.030,
86.500=0.030,
86.625=0.030,
86.750=0.030,
86.875=0.030,
105.000=0.060,
105.250=0.060,
106.500=0.060,
106.750=0.060,
109.000=0.060,
109.250=0.060,
110.500=0.060,
110.750=0.060,
113.000=0.060,
113.250=0.060,
114.500=0.060,
114.750=0.060,
117.000=0.060,
117.250=0.060,
118.500=0.060,
118.750=0.060,
137.000=0.060,
137.250=0.060,
138.500=0.060,
138.750=0.060,
141.000=0.060,
141.250=0.060,
142.500=0.060,
142.750=0.060,
145.000=0.060,
145.250=0.060,
146.500=0.060,
146.750=0.060,
149.000=0.060,
149.250=0.060,
150.500=0.060,
150.750=0.060,
169.000=0.060,
169.250=0.060,
170.500=0.060,
170.750=0.060,
173.000=0.060,
173.250=0.060,
174.500=0.060,
174.750=0.060,
177.000=0.060,
177.250=0.060,
178.500=0.060,
178.750=0.060,
181.000=0.060,
181.250=0.060,
182.500=0.060,
182.750=0.060,
185.000=0.060,
185.250=0.060,
185.500=0.060,
185.750=0.060,
189.000=0.060,
189.250=0.060,
189.500=0.060,
189.750=0.060,
193.000=0.060,
193.250=0.060,
193.500=0.060,
193.750=0.060,
197.000=0.060,
197.250=0.060,
197.500=0.060,
197.750=0.060,
201.000=0.060,
201.250=0.060,
201.500=0.060,
201.750=0.060,
205.000=0.060,
205.250=0.060,
205.500=0.060,
205.750=0.060,
209.000=0.060,
209.250=0.060,
209.500=0.060,
209.750=0.060,
213.000=0.060,
213.250=0.060,
213.500=0.060,
213.750=0.060;
#DELAYS:;
#WARPS:;
#TIMESIGNATURES:0.000=4=4;
#TICKCOUNTS:0.000=4;
#COMBOS:0.000=1;
#SPEEDS:0.000=1.000=0.000=0;
#SCROLLS:0.000=1.000;
#FAKES:;
#LABELS:0.000=Song Start;
#BGCHANGES:;
#KEYSOUNDS:;
#ATTACKS:
;

//---------------dance-single - ----------------
#NOTEDATA:;
#CHARTNAME:ChiselEssiestudy ZSS~H;
#STEPSTYPE:dance-single;
#DESCRIPTION:;
#CHARTSTYLE:;
#DIFFICULTY:Hard;
#METER:7;
#RADARVALUES:0.403112,0.445172,0.024396,0.121979,0.101649,347.000000,344.000000,3.000000,15.000000,0.000000,0.000000,0.000000,0.000000,0.000000,0.403112,0.445172,0.024396,0.121979,0.101649,347.000000,344.000000,3.000000,15.000000,0.000000,0.000000,0.000000,0.000000,0.000000;
#CREDIT:ChiselEssiestudy;
#NOTES:
// measure 0
0000
0000
0000
0000
,  // measure 1
0000
0000
0000
0000
0000
0000
0000
0000
0000
0000
0000
1000
0001
0000
1000
0000
,  // measure 2
0100
0100
1000
0010
0100
0000
0001
0010
,  // measure 3
0001
0100
1000
0100
,  // measure 4
0001
0000
0100
0010
0100
0001
0010
0000
,  // measure 5
0100
0000
1000
0100
0001
0000
0100
0000
,  // measure 6
1000
0010
0100
0010
0001
0000
0010
0000
,  // measure 7
0100
0000
0010
0000
0001
0000
0000
0000
0010
0000
0000
0000
1000
0000
0001
0100
,  // measure 8
0000
0001
1000
0000
0100
0000
1000
0000
0010
0000
0100
0000
0001
0000
0000
0000
,  // measure 9
0010
0000
0001
0100
1000
0000
0100
0000
,  // measure 10
0001
0000
0010
1000
0001
0000
1000
0000
,  // measure 11
0010
0000
1000
0000
0001
0000
0000
0000
1000
0000
0000
0000
0010
0000
0100
0010
,  // measure 12
0000
0001
0010
0000
0100
0000
1000
0000
0010
0000
0100
0000
0010
0000
0000
0000
,  // measure 13
0100
0000
0010
0000
0100
0000
0001
1000
0000
0100
0010
0100
1000
0000
0010
0000
,  // measure 14
2000
0000
0000
0000
3001
0100
0001
0010
,  // measure 15
0200
0000
0000
0000
0310
0001
0010
0100
,  // measure 16
2000
0000
0000
0000
3010
0100
0010
0001
,  // measure 17
0020
0000
0000
0000
0000
0000
0000
0000
0130
0000
1000
0100
0000
1000
0100
0000
,  // measure 18
0010
0000
0000
1000
0000
0000
0100
0000
1000
0000
0100
0000
0010
0000
1000
0000
,  // measure 19
0010
0100
0010
0100
0000
0100
0000
0100
,  // measure 20
1000
0000
1000
0100
1000
1000
0001
0100
,  // measure 21
0001
0010
0001
0000
2002
0000
3003
0000
,  // measure 22
0100
0000
0000
0100
1000
0001
0000
0010
,  // measure 23
0000
1000
0000
0010
1000
0010
0100
1000
,  // measure 24
0100
0100
1000
0010
0100
0100
1001
0010
,  // measure 25
0100
1000
0010
0100
0000
0001
0010
0010
,  // measure 26
0100
0000
0000
0000
1000
0010
0100
0000
0001
0000
0100
0010
1000
0000
0100
0000
,  // measure 27
0010
0000
0000
0000
0001
0100
0010
0000
1000
0000
0001
0100
0010
0000
0100
0000
,  // measure 28
0001
0000
0000
0000
1000
0100
0001
0000
0100
0000
1000
0100
0001
0000
0100
0000
,  // measure 29
1000
0000
0000
0000
0001
0100
1000
0000
0100
0000
0001
0000
0010
0000
1000
0000
,  // measure 30
0010
0010
0100
0010
0001
0000
1001
0000
,  // measure 31
0100
0000
0001
0100
0010
0100
0000
0000
,  // measure 32
0001
0010
0001
0100
0010
1000
0100
0010
,  // measure 33
0100
0000
1000
0100
1000
0100
1000
0001
,  // measure 34
0100
0100
0001
0010
0100
0000
1000
0010
,  // measure 35
0100
0001
0100
1000
,  // measure 36
0100
0000
1000
0100
0010
1000
0100
0000
,  // measure 37
0001
0000
0100
0100
0010
0000
0001
0000
,  // measure 38
0001
0100
0010
0100
1000
0000
0100
0000
,  // measure 39
0010
0000
0100
0000
1000
0000
0000
0000
0100
0000
0000
0000
0001
0000
1000
0010
,  // measure 40
0000
1000
0001
0000
0010
0000
0001
0000
0100
0000
0010
0000
1000
0000
0000
0000
,  // measure 41
0100
0000
1000
0010
0001
0000
0010
0000
,  // measure 42
0001
0000
1000
0001
0010
0000
0001
0000
,  // measure 43
1000
0000
0001
0000
0010
0000
0000
0000
0001
0000
0000
0000
0010
0000
0100
0010
,  // measure 44
0000
1000
0100
0000
0010
0000
0001
0000
0100
0000
0010
0000
0100
0000
0000
0000
,  // measure 45
0010
0000
0100
0000
0010
0000
1000
0001
1000
0001
0000
0001
1000
0000
0100
0000
,  // measure 46
2000
0000
0000
0000
3010
0001
1000
0001
,  // measure 47
0020
0000
0000
0000
0130
0001
0010
0001
,  // measure 48
0200
0000
0000
0000
0310
1000
0100
1000
,  // measure 49
0200
0000
0000
0000
1300
0100
0010
0100
,  // measure 50
0002
0000
0000
0000
0103
1000
0010
1000
,  // measure 51
0020
0000
0000
0000
1030
0100
0001
0100
,  // measure 52
2000
0000
0000
0000
3010
0100
0001
0100
,  // measure 53
0020
0000
0000
0000
1030
0100
0010
0100
,  // measure 54
1000
0000
0000
1000
0100
0010
0000
0001
,  // measure 55
0000
0100
0000
0010
0100
0010
1000
0100
,  // measure 56
2000
0000
0100
3000
,  // measure 57
0000
1000
0010
0100
0000
0001
0000
0000
;

//---------------dance-single - ----------------
#NOTEDATA:;
#CHARTNAME:ChiselEssiestudy ZSS~B;
#STEPSTYPE:dance-single;
#DESCRIPTION:;
#CHARTSTYLE:;
#DIFFICULTY:Beginner;
#METER:1;
#RADARVALUES:0.125464,0.182155,0.000000,0.000000,0.000000,108.000000,108.000000,0.000000,0.000000,0.000000,0.000000,0.000000,0.000000,0.000000,0.125464,0.182155,0.000000,0.000000,0.000000,108.000000,108.000000,0.000000,0.000000,0.000000,0.000000,0.000000,0.000000,0.000000;
#CREDIT:ChiselEssiestudy;
#NOTES:
// measure 0
0000
0000
0000
0000
,  // measure 1
0000
0000
0000
0000
,  // measure 2
1000
0000
0000
0000
,  // measure 3
0000
0000
0010
0010
,  // measure 4
0100
0000
0000
0000
,  // measure 5
0000
0000
0001
0001
,  // measure 6
1000
0000
0001
0001
,  // measure 7
1000
0000
0001
0000
,  // measure 8
0100
0000
0010
0010
,  // measure 9
0100
0000
0001
0001
,  // measure 10
1000
0000
0001
0001
,  // measure 11
1000
0001
0001
0000
,  // measure 12
0100
0000
0010
0010
,  // measure 13
0100
0000
0001
0001
,  // measure 14
1000
0000
0000
0000
,  // measure 15
1000
0000
0000
0000
,  // measure 16
0001
0000
0000
0000
,  // measure 17
0001
0000
0000
0000
,  // measure 18
1000
0000
0000
0000
,  // measure 19
0001
0000
0000
0000
,  // measure 20
0010
0000
0000
0000
,  // measure 21
0100
0000
0100
0000
,  // measure 22
0010
0000
0000
1000
,  // measure 23
1000
1000
1000
0000
,  // measure 24
0010
0000
0000
0100
,  // measure 25
0000
0001
1000
0000
,  // measure 26
0100
0000
0000
0100
,  // measure 27
0010
0000
0000
0010
,  // measure 28
1000
0000
0000
1000
,  // measure 29
0001
0000
0000
0001
,  // measure 30
1000
0000
0100
0000
,  // measure 31
0000
0000
0001
0000
,  // measure 32
0010
0000
0000
0000
,  // measure 33
0100
0000
0010
0010
,  // measure 34
1000
0000
1000
0000
,  // measure 35
1000
0000
0001
1000
,  // measure 36
0001
0000
0001
0000
,  // measure 37
1000
0000
0001
0001
,  // measure 38
1000
0000
0001
0001
,  // measure 39
1000
0001
0001
0000
,  // measure 40
0100
0000
0010
0010
,  // measure 41
0100
0000
0001
0001
,  // measure 42
1000
0000
0001
0001
,  // measure 43
1000
0001
0001
0000
,  // measure 44
1000
0000
0010
0010
,  // measure 45
0100
0000
0001
0001
,  // measure 46
1000
0000
0000
0000
,  // measure 47
0001
0000
0000
0000
,  // measure 48
0100
0000
0000
0000
,  // measure 49
0010
0000
0000
0000
,  // measure 50
0001
0000
0000
0000
,  // measure 51
1000
0000
0000
0000
,  // measure 52
0010
0000
0000
0000
,  // measure 53
0100
0000
0000
0000
,  // measure 54
0010
0000
0100
0000
,  // measure 55
0010
0000
0000
0000
,  // measure 56
1000
0000
0000
0000
;

//---------------dance-single - ----------------
#NOTEDATA:;
#CHARTNAME:ChiselEssiestudy ZSS~L;
#STEPSTYPE:dance-single;
#DESCRIPTION:;
#CHARTSTYLE:;
#DIFFICULTY:Easy;
#METER:4;
#RADARVALUES:0.214915,0.257731,0.032528,0.105715,0.020330,185.000000,181.000000,4.000000,13.000000,0.000000,0.000000,0.000000,0.000000,0.000000,0.214915,0.257731,0.032528,0.105715,0.020330,185.000000,181.000000,4.000000,13.000000,0.000000,0.000000,0.000000,0.000000,0.000000;
#CREDIT:ChiselEssiestudy;
#NOTES:
// measure 0
0000
0000
0000
0000
,  // measure 1
0000
0000
0000
1000
,  // measure 2
1000
0100
0010
0100
,  // measure 3
1000
1000
0001
0001
,  // measure 4
0000
0010
0001
0100
,  // measure 5
0010
0100
0001
0001
,  // measure 6
0000
1000
0100
0100
,  // measure 7
1000
0000
0000
0000
0010
0000
0000
0000
0010
0000
0000
0000
0100
0000
0000
0100
,  // measure 8
0000
0010
1000
0100
,  // measure 9
0010
0100
1000
1000
,  // measure 10
0000
0100
0010
0010
,  // measure 11
0100
0000
0000
0000
1000
0000
0000
0000
1000
0000
0000
0000
0001
0000
0000
0001
,  // measure 12
0000
0100
0010
0100
,  // measure 13
0001
0010
0100
0100
,  // measure 14
2000
3000
0100
1000
,  // measure 15
0020
0030
1000
0100
,  // measure 16
0020
0030
0100
1000
,  // measure 17
0002
0000
0000
0000
0003
0000
0000
0000
1000
0000
0000
0100
0000
0000
0010
0000
,  // measure 18
0200
0300
1000
0100
,  // measure 19
2000
3000
0100
0010
,  // measure 20
0002
0000
0003
0000
1000
0000
0001
0001
,  // measure 21
2000
3000
0020
0030
,  // measure 22
1000
0000
0000
1000
0000
0000
0100
0000
,  // measure 23
0010
0000
0100
0100
,  // measure 24
0110
0000
0010
0100
,  // measure 25
0000
0000
1000
0000
0000
0001
0000
0000
,  // measure 26
1000
0000
0000
1000
0000
0000
0100
0000
,  // measure 27
0010
0000
0000
0010
0000
0000
0100
0000
,  // measure 28
1000
0000
0000
1000
0000
0000
0001
0000
,  // measure 29
0010
0000
0000
0010
0000
0000
0001
0000
,  // measure 30
0001
1000
0100
0000
,  // measure 31
0000
0100
1000
0000
,  // measure 32
0000
0001
0010
0001
,  // measure 33
0100
0010
1000
0100
,  // measure 34
0010
0000
0000
0010
0000
0000
0100
0000
,  // measure 35
1000
1000
0001
0001
,  // measure 36
0100
0000
0000
0100
0000
0000
0001
0000
,  // measure 37
1000
0100
0010
0010
,  // measure 38
0100
1000
0010
0010
,  // measure 39
0100
0000
0000
0000
0010
0000
0000
0000
0010
0000
0000
0000
1000
0000
0000
0100
,  // measure 40
0000
1000
0100
0010
,  // measure 41
0001
1000
0100
0100
,  // measure 42
1000
0010
0100
0100
,  // measure 43
1000
0000
0000
0000
0100
0000
0000
0000
0100
0000
0000
0000
1000
0000
0000
0001
,  // measure 44
0000
1000
0100
0010
,  // measure 45
0100
1000
1001
1001
,  // measure 46
0200
0300
0010
0000
,  // measure 47
2000
3000
0001
0000
,  // measure 48
0020
0030
0100
0000
,  // measure 49
2000
3000
0001
0000
,  // measure 50
0100
0001
0010
0000
,  // measure 51
0100
1000
0010
0000
,  // measure 52
1000
0001
0100
0000
,  // measure 53
0010
0100
0001
0000
,  // measure 54
1000
0000
0000
1000
0000
0000
0000
0100
,  // measure 55
0000
0100
0000
0000
0010
0000
0000
0000
,  // measure 56
0100
0000
1001
0000
,  // measure 57
0000
0000
1000
0000
0000
0100
0000
0000
;

//---------------dance-single - ----------------
#NOTEDATA:;
#CHARTNAME:ChiselEssiestudy ZSS~S;
#STEPSTYPE:dance-single;
#DESCRIPTION:;
#CHARTSTYLE:;
#DIFFICULTY:Medium;
#METER:6;
#RADARVALUES:0.375231,0.398312,0.162639,0.146375,0.020330,323.000000,303.000000,20.000000,18.000000,0.000000,0.000000,0.000000,0.000000,0.000000,0.375231,0.398312,0.162639,0.146375,0.020330,323.000000,303.000000,20.000000,18.000000,0.000000,0.000000,0.000000,0.000000,0.000000;
#CREDIT:ChiselEssiestudy;
#NOTES:
// measure 0
0000
0000
0000
0000
,  // measure 1
0000
0000
0000
0000
0000
0000
1000
0100
,  // measure 2
1000
0010
0100
0001
0010
0000
0001
0100
,  // measure 3
0010
0100
0001
1001
,  // measure 4
1000
0000
0001
1000
0001
0100
0010
0000
,  // measure 5
0100
0000
0001
0010
0100
0000
0110
0000
,  // measure 6
1000
0000
0100
1000
0010
0000
0110
0000
,  // measure 7
0100
0000
0001
0000
0010
0000
0000
0000
1001
0000
0000
0000
1000
0000
0000
0100
,  // measure 8
0000
1000
0100
1000
0010
0100
0010
0000
,  // measure 9
0100
0000
0010
0100
0001
0000
1001
0000
,  // measure 10
1000
0000
0100
1000
0001
0000
1001
0000
,  // measure 11
0001
0000
0100
0000
0010
0000
0000
0000
0110
0000
0000
0000
1000
0000
0000
0100
,  // measure 12
0000
0001
0100
1000
0010
0100
0001
0000
,  // measure 13
0100
0000
0010
0100
0001
0000
1001
0000
,  // measure 14
2000
0000
0001
0000
3001
0010
0001
0010
,  // measure 15
0002
0000
0100
0000
0103
0010
0100
0010
,  // measure 16
0200
0000
0010
0000
0310
1000
0010
1000
,  // measure 17
0002
0000
1000
0000
1003
0010
0100
0001
,  // measure 18
2000
0000
3100
0000
0110
0010
0100
0010
,  // measure 19
0001
1000
0100
1000
0000
1000
0000
0100
,  // measure 20
1000
0100
1000
0100
0010
0001
0010
0001
,  // measure 21
0100
0010
0100
0000
0220
0000
0330
0000
,  // measure 22
1001
0000
0000
1000
0100
0010
0000
0100
,  // measure 23
0000
1000
0000
0100
1000
0010
0001
0010
,  // measure 24
1000
0000
2001
3001
,  // measure 25
0000
1000
0100
0010
0000
0001
1000
1000
,  // measure 26
0001
0000
0001
0000
0100
0000
0010
0000
2000
0000
3000
0000
0001
0000
1000
0001
,  // measure 27
1000
1000
0100
0010
0001
1000
0000
1000
,  // measure 28
0010
0010
0100
0001
0010
1000
0010
0010
,  // measure 29
0001
0001
0100
0010
1000
1000
0100
1000
,  // measure 30
0100
1000
0010
1000
0010
0000
0100
0000
,  // measure 31
0010
0000
0100
0001
1000
0001
1001
0000
,  // measure 32
0100
0000
0010
0100
0001
0100
0010
0100
,  // measure 33
0001
0000
1000
0100
1000
1000
0100
0010
,  // measure 34
0001
0000
1000
0001
0000
1000
0010
0000
,  // measure 35
0100
0000
0010
1000
0000
0100
1000
0000
,  // measure 36
0010
0000
0100
0001
0000
0100
0010
0000
,  // measure 37
0100
0000
0001
0010
0000
0001
1000
0000
,  // measure 38
0001
0000
0010
0001
0100
0000
0110
0000
,  // measure 39
0010
0000
1000
0000
0100
0000
0000
0000
1001
0000
0000
0000
0001
0000
0000
0010
,  // measure 40
0000
0001
0010
0001
1000
0010
1000
0000
,  // measure 41
0010
0000
0100
0001
0010
0000
1001
0000
,  // measure 42
0001
0000
0010
0001
1000
0000
0110
0000
,  // measure 43
0100
0000
0010
0000
1000
0000
0000
0000
1001
0000
0000
0000
1000
0000
0000
0010
,  // measure 44
0000
0001
0010
1000
0100
0010
0001
0000
,  // measure 45
0010
0000
1000
0010
0100
0000
1001
0000
,  // measure 46
0210
0000
0000
0000
0310
0100
0000
0100
,  // measure 47
0002
0000
0000
0000
1003
0100
0000
0100
,  // measure 48
2000
0000
0000
0000
3010
1000
0000
1000
,  // measure 49
0002
0000
0000
0000
1003
0010
0000
0010
,  // measure 50
2000
0000
0000
0000
3100
0010
0000
0010
,  // measure 51
0002
0000
0000
0000
1003
0100
0000
0100
,  // measure 52
2000
0000
0000
0000
3010
0100
0000
0100
,  // measure 53
0002
0000
0000
0000
1003
0001
0000
0001
,  // measure 54
1000
0000
0000
0100
0000
0100
0000
0010
,  // measure 55
0000
0100
0000
0010
0001
0000
1000
0000
,  // measure 56
0002
0000
0000
1003
,  // measure 57
0000
0001
1000
0001
0000
0010
0000
0000
;

//---------------dance-single - ----------------
#NOTEDATA:;
#CHARTNAME:ChiselEssiestudy ZSS~HAHAHHAAHAHAHAHHA;
#STEPSTYPE:dance-single;
#DESCRIPTION:;
#CHARTSTYLE:Chuck Norris;
#DIFFICULTY:Challenge;
#METER:43;
#RADARVALUES:1.179130,1.563703,1.179130,0.113847,2.199688,1015.000000,844.000000,145.000000,14.000000,0.000000,18.000000,0.000000,0.000000,0.000000,1.179130,1.563703,1.179130,0.113847,2.199688,1015.000000,844.000000,145.000000,14.000000,0.000000,18.000000,0.000000,0.000000,0.000000;
#CREDIT:ChiselEssiestudy;
#NOTES:
// measure 0
1000
0000
0000
0000
1001
0000
0000
0000
1000
0000
0100
0000
0010
0000
0000
0000
0100
0000
1000
0000
0010
0000
0100
0000
0001
0000
0010
0000
0001
0000
0000
0000
0100
0001
0100
0001
0100
0000
0010
0000
0100
0000
0001
0000
0010
0000
0100
0000
,  // measure 1
0010
0001
0100
0010
0100
0001
1000
0010
0100
0001
0010
0100
0010
0001
0100
1000
0100
0010
1000
0100
0010
0001
0100
0010
,  // measure 2
1000
0000
0100
1000
0000
0100
0000
0010
0000
0100
0000
0010
0000
0011
0000
1100
0000
0110
0000
0010
0100
0010
0100
0010
,  // measure 3
0100
0010
0000
0001
0000
0100
0000
0010
0000
0100
0001
1000
0000
0001
0000
1000
0000
1001
0000
0110
0000
0110
0000
1001
,  // measure 4
0000
1000
0000
0000
0000
0100
0000
0000
0000
0001
0000
0000
0000
0010
0000
0000
0000
1000
0000
0100
0000
0001
0000
0010
,  // measure 5
0000
1000
0000
0010
0000
0001
0000
0100
0000
1000
0000
0001
0000
1000
0000
0001
0000
1000
0001
1000
0001
1000
0001
1000
,  // measure 6
0001
0000
1000
0000
0000
0100
0000
0000
1000
0000
0000
0010
0000
0000
0100
0000
0000
0001
0000
0000
0010
0000
0000
0100
0000
0000
0010
0000
0000
0001
0000
0000
0100
0000
0000
0010
0000
0000
0110
0000
0000
0000
0000
0000
0000
0000
0000
0000
,  // measure 7
0000
0000
0000
0110
0000
0100
0010
0100
0000
0010
0000
1000
0100
1000
0000
0100
0000
1000
0000
0010
0100
0010
0000
0100
,  // measure 8
0000
0001
0000
0010
0001
0010
0100
0010
0001
0100
0010
0100
0000
0010
0000
0110
0000
0110
0000
1001
0000
0000
0000
0110
,  // measure 9
0000
0000
0000
1001
0000
0000
0000
0110
0000
0000
0000
1001
0000
1000
0000
0110
0000
0010
0000
1001
0000
0000
1000
0100
,  // measure 10
0000
1000
0000
0100
1000
0100
0010
0100
1000
0010
0100
0010
0100
0010
0100
0001
0010
0001
0010
0100
0000
0010
0000
0100
,  // measure 11
0000
0010
0000
1001
0000
0100
0000
0010
0000
0100
0000
0010
0000
0100
0000
0010
0000
0100
0000
0010
0001
0100
0010
0100
,  // measure 12
0000
0000
0001
0000
0000
0000
1000
0000
0000
0000
0100
0000
0000
0000
0000
0000
0100
0000
0000
0010
0000
0000
0000
0000
0000
0010
0000
0000
0001
0000
0000
0000
0000
0000
0001
0000
0000
1000
0000
0000
0000
0000
0000
1000
0000
0000
0010
0000
,  // measure 13
0000
0000
0000
0000
0010
0000
0000
1000
0000
0000
0000
0000
0000
1000
0000
0000
0100
0000
0000
0000
0000
0000
0100
0000
0000
0010
0000
0000
0000
0000
0000
0010
0000
0000
0001
0000
0000
0000
1000
0000
0000
0000
0001
0000
0000
0000
1000
0000
,  // measure 14
0000
0001
1000
0001
0000
1000
0000
0000
0000
0100
1000
0100
1000
0100
1000
0100
1000
0100
1000
0100
1000
0100
1000
0010
,  // measure 15
1000
0010
1000
0010
1000
0010
1000
0010
1000
0010
1000
0010
1000
0010
1000
0001
0010
0001
0010
0001
0010
0001
0010
0001
,  // measure 16
0010
0001
0010
0001
0010
0001
0010
0001
0100
0001
0100
0001
0100
0001
0100
0001
0100
0001
0100
0001
0100
0001
0100
0001
,  // measure 17
0000
0000
0001
0000
0000
0001
0000
0001
0000
0000
0001
0000
0000
0001
0000
0001
0000
0001
0000
0001
0000
0001
0000
0001
,  // measure 18
0000
0000
0001
0000
0000
0001
0000
0000
0001
0000
0000
0001
0000
0000
0001
0000
0000
0001
0000
0100
0001
0100
0000
0010
,  // measure 19
0000
0100
0010
0100
0010
0100
0001
0010
0001
0100
0001
1000
0010
1000
0100
0010
0100
0010
0001
0100
0010
0100
0001
1000
,  // measure 20
0100
1000
0010
0100
0001
0010
0001
0100
0010
0100
0001
1000
0100
1000
0010
0100
0001
2000
3100
1000
0010
0100
0001
0010
,  // measure 21
0001
0000
0000
0000
0000
0000
0000
0000
1000
0000
0000
0000
0000
0000
0000
0000
0100
0000
0000
0000
0000
0000
0000
0000
1000
0000
0000
0000
0000
0000
0000
0000
0010
0000
0000
0000
0000
0000
0000
0000
0100
0000
0000
0000
0000
0000
0000
0000
0001
0000
0000
0000
0000
0000
0000
0000
0010
0000
0000
0000
0000
0000
0000
0000
0100
0000
0000
0000
0000
0000
0000
0000
1000
0000
0000
0000
0000
0000
0000
0000
0100
0000
0000
0000
0000
0000
0000
0000
0010
0000
0000
0000
0000
0000
0000
0000
0001
0000
0000
0000
0000
0000
0100
0000
0000
0000
0000
0000
0010
0000
0000
0000
0000
0000
0100
0000
0000
0000
0000
0000
0001
0000
0000
0000
0000
0000
0010
0000
0000
0000
0000
0000
0100
0000
0000
0000
0000
0000
1000
0000
0000
0000
0000
0000
0010
0000
0000
0000
0000
0000
0100
0000
0000
0000
0000
0000
0001
0000
0000
0000
0000
0000
1000
0000
0000
0000
0000
0000
0010
0000
0000
0000
0000
0000
1000
0000
0000
0000
0000
0000
0100
0000
0000
0000
0000
0000
0010
0000
0000
0000
0000
0000
,  // measure 22
0001
1000
0100
0010
0001
0010
0100
0010
0001
0100
0001
0010
0001
0100
0010
0100
0001
0100
0010
1000
0100
1000
0010
1000
0100
1000
0010
1000
0010
0100
0010
1000
,  // measure 23
0100
1000
0010
0100
0001
0100
0010
1000
0100
0010
0001
1000
0001
1000
0001
0100
0010
0100
0010
1000
0100
1000
0010
0100
0001
0000
0000
0000
0000
0000
0000
0000
,  // measure 24
1111
0110
0110
0110
0110
0000
0000
0000
1110
1001
1110
1001
1001
0000
0000
0000
,  // measure 25
0110
1001
1001
1001
0110
0000
0000
0000
1000
1000
1000
1000
1111
0000
0000
0000
,  // measure 26
1000
1000
1000
1000
1111
0000
0000
0000
0110
1001
1001
1001
0110
0000
0000
0000
,  // measure 27
1000
1000
1000
1000
1111
0000
0000
0000
0110
1001
1001
1001
0110
0000
0000
0000
,  // measure 28
1000
1000
1000
1000
1111
0000
0000
0000
0110
1001
1001
1001
0110
0000
0000
0000
,  // measure 29
1000
1000
1000
1000
1111
0000
0000
0000
0110
1001
1001
1001
0110
0000
0000
0000
,  // measure 30
1000
1000
1000
1000
1111
0000
0000
0000
0110
1001
1001
1001
0110
0000
0000
0000
,  // measure 31
1000
1000
1000
1000
1111
0000
0000
0000
0110
1001
1001
1001
0110
0000
0000
0000
,  // measure 32
1000
1000
1000
1000
1111
0000
0000
0000
0110
1001
1001
1001
0110
0000
0000
0000
,  // measure 33
0000
0000
0000
0000
,  // measure 34
1111
1000
1110
1000
1000
0000
0000
0000
1001
1001
1001
1001
0110
0000
0000
0000
,  // measure 35
0110
1001
1000
1001
0110
0000
0000
0000
1001
1010
1100
1010
1001
0000
0000
0000
,  // measure 36
1001
1001
0110
0110
0110
0000
0000
0000
0110
1001
1001
1001
0110
0000
0000
0000
,  // measure 37
1001
1001
1001
1001
0110
0000
0000
0000
1010
1010
1010
0000
1010
0000
0000
0000
,  // measure 38
1010
1010
1010
0000
1010
0000
0000
0000
1010
1010
1010
0000
1010
0000
0000
0000
,  // measure 39
0111
1000
1011
1001
0110
0000
0000
0000
0110
1000
1110
1001
0110
0000
0000
0000
,  // measure 40
0000
0000
0000
0000
0000
0000
0000
0000
0000
0000
0000
0000
0000
0000
0000
0000
1000
0000
0000
0100
0000
0000
1000
0000
0000
0010
0000
0000
1000
0000
0000
0100
0000
0000
0010
0000
0000
0100
0000
0000
1000
0000
0000
0001
0000
0000
0100
0000
0000
0010
0000
0000
0100
0000
0000
0001
0000
0000
0010
0000
0000
1000
0000
0000
,  // measure 41
0010
0000
0000
0001
0000
0000
0100
0000
0000
0010
0000
0000
0100
0000
0000
0001
0000
0000
1000
0000
0000
0100
0000
0000
0001
0000
0000
0100
0000
0000
1000
0000
0000
0010
0000
0000
0100
0000
0000
0001
0000
0000
0010
0000
0000
0100
0000
0000
0000
0000
0000
0110
0000
0000
0000
0000
0000
0101
0000
0000
0000
0000
0000
1010
,  // measure 42
0000
0000
0000
0000
0000
1001
0000
0000
0000
0000
0000
0110
0000
0000
0000
0000
0000
0011
0000
0000
0000
0000
0000
0110
0000
0000
0000
0000
0000
1001
0000
0000
0000
0000
0000
1001
0000
0000
0000
0000
0000
0110
0000
0000
0000
0000
0000
0000
1000
0000
0000
0000
0000
0100
0000
0000
0000
0000
1000
0000
0000
0000
0000
0010
,  // measure 43
0000
0000
0000
0000
0100
0000
0000
0000
0000
0001
0000
0000
0000
0000
1000
0000
0000
0000
0000
0001
0000
0000
0000
0000
1000
0000
0000
0000
0000
0001
0000
0000
0000
0000
0000
0000
0000
0100
0000
0000
0000
0000
0000
0000
0000
0000
0000
0010
0000
0000
0000
0000
0000
0000
0000
0000
0000
0000
0000
1000
0000
0000
0000
0000
,  // measure 44
0000
0000
0000
0000
0000
0000
0100
0000
0000
0000
0000
0000
0000
0000
0000
0000
0000
0000
0000
0000
0000
0010
0000
0000
0000
0000
0000
0000
0000
0000
0000
0000
,  // measure 45
0000
0000
0000
0000
,  // measure 46
2002
0000
0000
0000
0000
0000
0000
0000
0000
0000
0000
0000
0000
0000
0000
0000
0000
0000
0000
0000
0000
0000
0000
0000
3003
0000
0000
0000
0000
0000
0000
0000
0000
0000
0000
0000
0000
0000
0000
0000
0000
0000
0000
0000
0000
0000
0000
0000
1000
0000
0000
0000
0000
0000
0100
0000
0000
0000
0000
0000
0010
0000
0000
0000
0000
0000
0001
0000
0000
0000
0000
0000
1000
0000
0000
0000
0000
0000
0100
0000
0000
0000
0000
0000
0010
0000
0000
0000
0000
0000
0001
0000
0000
0000
0000
0000
1000
0000
0000
0000
0000
0000
0000
0000
0100
0000
0000
0000
0000
0000
0000
0000
1000
0000
0000
0000
0000
0000
0000
0000
0001
0000
0000
0000
0000
0000
0000
0000
0100
0000
0000
0000
0000
0000
0000
0000
0001
0000
0000
0000
0000
0000
0000
0000
1000
0000
0000
0000
0000
0000
0000
0000
0000
0000
0000
0000
0000
0000
0000
0000
0000
0000
0000
0000
0000
0000
0000
0000
1001
0000
0000
0000
0000
0000
0000
0000
0000
0000
0000
0000
0000
0000
0000
0000
0000
0000
0000
0000
0000
0000
0000
0000
,  // measure 47
0200
0000
0000
0000
0000
0000
0000
0000
0310
0100
0010
0100
0010
0100
0010
0100
0010
0000
0100
0000
0010
0000
1000
0000
0010
0000
0001
0000
0100
0000
1000
0000
,  // measure 48
0200
0000
0000
0000
0000
0000
0000
0000
0000
0000
0000
0000
0000
0000
0000
0000
0000
0000
0000
0000
0000
0000
0000
0000
0000
0000
0000
0000
0000
0000
0000
0000
0000
0000
0000
0000
0000
0000
0000
0000
0000
0000
0000
0000
0000
0000
0000
0000
0301
0000
0000
0000
0000
0000
0010
0000
0000
0000
0000
0000
0100
0000
0000
0000
0000
0000
1000
0000
0000
0000
0000
0000
0001
0000
0000
0000
0000
0000
0010
0000
0000
0000
0000
0000
0100
0000
0000
0000
0000
0000
1000
0000
0000
0000
0000
0000
0001
0000
0000
0000
0000
0000
0000
0000
0010
0000
0000
0000
0000
0000
0000
0000
0001
0000
0000
0000
0000
0000
0000
0000
1000
0000
0000
0000
0000
0000
0000
0000
0000
0000
0000
0000
0000
0000
0000
0000
0000
0000
0000
0000
0000
0000
0000
0000
0001
0000
0000
0000
0000
0000
0000
0000
0000
0000
0000
0000
0000
0000
0000
0000
0010
0000
0000
0000
0000
0000
0000
0000
0000
0000
0000
0000
0000
0000
0000
0000
0100
0000
0000
0000
0000
0000
0000
0000
0000
0000
0000
0000
0000
0000
0000
0000
,  // measure 49
1000
0000
0000
0000
1000
0100
1000
0100
0011
0000
0022
0000
1133
0000
2200
0000
,  // measure 50
3302
0000
0000
0000
0000
0000
0000
0000
0000
0000
0000
0000
0000
0000
0000
0000
0000
0000
0000
0000
0000
0000
0000
0000
0000
0000
0000
0000
0000
0000
0000
0000
0000
0000
0000
0000
0000
0000
0000
0000
0000
0000
0000
0000
0000
0000
0000
0000
1003
0000
0000
0000
0000
0000
0000
0000
0000
0000
0000
0000
1000
0000
0000
0000
0000
0000
0000
0000
0000
0000
0000
0000
1000
0000
0000
0000
0000
0000
0000
0000
0000
0000
0000
0000
1000
0000
0000
0000
0000
0000
0000
0000
0000
0000
0000
0000
0100
0000
0000
0000
0000
0000
0000
0000
0000
0000
0000
0000
0000
0000
0000
0000
1000
0000
0000
0000
0000
0000
0000
0000
0000
0000
0000
0000
0000
0000
0000
0000
0001
0000
0000
0000
0000
0000
0000
0000
0000
0000
0000
0000
0000
0000
0000
0000
1000
0000
0000
0000
0000
0000
0100
0000
0000
0000
0000
0000
1000
0000
0000
0000
0000
0000
0100
0000
0000
0000
0000
0000
0010
0000
0000
0000
0000
0000
0001
0000
0000
0000
0000
0000
0010
0000
0000
0000
0000
0000
0001
0000
0000
0000
0000
0000
,  // measure 51
2000
0000
0000
0000
3100
1000
0010
0001
0100
1000
0010
0001
0100
0001
0100
0001
,  // measure 52
0200
0000
0000
0000
0310
0100
0010
0100
0010
0000
1000
0000
0100
0000
1000
0000
,  // measure 53
0200
0000
0000
0000
0000
0000
0000
0000
0000
0000
0000
0000
0310
0000
0000
0100
0000
0000
0010
0000
0000
0100
0000
0000
0010
0000
0001
0000
0010
0000
0001
0000
0100
0000
0010
0000
0100
0000
0010
0000
0100
0000
0001
0000
0100
0000
0001
0000
,  // measure 54
1000
0100
1000
0100
0010
0001
0010
0001
1000
0010
1000
0010
0100
0001
0100
0001
1000
0001
1000
0001
0010
0100
0010
0100
,  // measure 55
1000
0001
1000
0001
0100
0010
0100
0010
1000
0100
1000
0010
0100
0001
0010
0001
0100
0010
0100
0001
1000
0010
0100
0001
,  // measure 56
0010
0100
1000
0001
0100
0010
1000
0001
0100
0010
1000
0100
1000
0010
0100
0001
0010
0001
0100
0010
0100
0001
0010
0100
,  // measure 57
0010
0001
0100
0010
1000
0100
1000
0010
0100
0001
0010
0100
1000
0010
0100
0001
1000
0100
1000
0010
0100
0001
0010
0100
,  // measure 58
1000
0000
0000
0000
0000
0000
0000
0000
0000
0000
0000
0000
0000
0000
0000
0001
0000
0000
0000
0000
0000
0010
0000
0000
0000
0000
0000
0100
0000
0000
0000
0000
2000
0000
0000
0000
0000
0000
0000
0000
0000
0000
0000
0000
0000
0000
0000
0000
0000
0000
0000
0000
0000
0000
0000
0000
0000
0000
0000
0000
0000
0000
0000
0000
0000
0000
0000
0000
0000
0000
0000
0000
0000
0000
0000
0000
0000
0000
0000
0000
0000
0000
0000
0000
0000
0000
0000
0000
0000
0000
0000
0000
0000
0000
0000
0000
0000
0000
0000
0000
0000
0000
0000
0000
0000
0000
0000
0000
0000
0000
0000
0000
0000
0000
0000
0000
0000
0000
0000
0000
0000
0000
0000
0000
0000
0000
0000
0000
0000
0000
0000
0000
0000
0000
0000
0000
0000
0000
0000
0000
0000
0000
0000
0000
0000
0000
0000
0000
0000
0000
0000
0000
0000
0000
0000
0000
0000
0000
0000
0000
0000
0000
0000
0000
0000
0000
0000
0000
0000
0000
0000
0000
0000
0000
0000
0000
0000
0000
0000
0000
0000
0000
0000
0000
0000
0000
0000
0000
0000
0000
0000
0000
,  // measure 59
0000
0000
3000
0000
0000
0000
0000
0000
0000
0000
0000
0000
;
