#TITLE:Mitsuboshi☆☆★;
#SUBTITLE:;
#ARTIST:本田未央;
#TITLETRANSLIT:Mitsuboshi;
#SUBTITLETRANSLIT:;
#ARTISTTRANSLIT:Mio Honda;
#CREDIT:Lisek;
#BANNER:[ROUND G] - Mitsuboshi.png;
#BACKGROUND:[ROUND G] - Mitsuboshi-bg.png;
#LYRICSPATH:;
#CDTITLE:cdtitle.png;
#MUSIC:[ROUND G] - Mitsuboshi.ogg;
#OFFSET:-0.844;
#SAMPLESTART:50.224;
#SAMPLELENGTH:21.803;
#SELECTABLE:YES;
#BPMS:0.000=175.000,112.000=87.500,120.000=175.000,248.000=87.500,256.000=175.000;
#STOPS:;
#BGCHANGES:;

//---------------dance-single - ----------------
#NOTES:
     dance-single:
     Lisek:
     Hard:
     8:
     0.551,0.600,0.193,0.233,0.044: // measure 1
0000
0000
0000
0000
,  // measure 2
0000
0000
0000
0000
,  // measure 3
0000
0000
0001
0000
0010
0100
0000
1001
,  // measure 4
0000
0000
0000
0000
0000
0000
0000
1000
,  // measure 5
0000
0000
0010
0000
0100
0010
0000
1000
,  // measure 6
0000
0000
0001
0000
0010
0100
0000
1000
,  // measure 7
0000
0000
0010
0000
0100
0010
0000
0200
,  // measure 8
0000
0320
0000
2030
0000
3000
0000
2100
,  // measure 9
0000
3100
0000
0210
0000
0310
0000
0021
,  // measure 10
0000
0031
0010
0100
1000
0001
0100
0020
,  // measure 11
0000
0000
0000
0000
0030
1000
0100
0020
,  // measure 12
0000
0230
0000
2300
0000
3002
0000
0003
,  // measure 13
1000
0000
0100
0000
0010
0001
0100
0010
,  // measure 14
0000
1000
0100
0010
,  // measure 15
0001
0000
1000
0000
0001
0100
0000
0010
,  // measure 16
0000
0000
1000
0000
0001
0100
0010
0100
,  // measure 17
0001
0000
0010
0100
0000
1000
0000
0001
,  // measure 18
0000
0000
0000
1000
0010
0100
0001
0010
,  // measure 19
0100
0000
0010
0001
0000
0000
1000
0000
,  // measure 20
0010
0100
0001
1000
0010
0100
0001
1000
,  // measure 21
0001
0000
0010
0000
0100
1000
0001
0100
,  // measure 22
0000
0010
1000
0001
,  // measure 23
0100
0000
0010
0000
1000
0001
0000
0100
,  // measure 24
0000
0000
0001
0000
1000
0100
1000
0010
,  // measure 25
0100
0000
0001
0010
0000
0100
0000
1000
,  // measure 26
0000
0000
0010
0000
0100
0001
1000
0010
,  // measure 27
1000
0000
0100
0010
0001
0100
0000
0010
,  // measure 28
0000
1000
0000
0001
0000
1000
0000
0000
,  // measure 29
0002
0000
0000
0100
0103
0000
0000
0000
0020
0000
0000
1000
1030
0000
0000
0000
,  // measure 30
2000
0000
0000
0001
3001
0000
0000
0000
0002
0000
0000
1000
1003
0000
0000
0001
,  // measure 31
1000
0100
0010
0001
0100
0010
0000
1000
,  // measure 32
0000
0001
0010
0100
1000
0001
0100
0010
,  // measure 33
0100
0000
0000
0100
0010
1000
0010
1010
,  // measure 34
0000
0110
0000
0101
0000
0000
1001
0000
,  // measure 35
1000
0000
0100
0010
0000
0001
0000
1000
,  // measure 36
0000
0010
0000
1000
0000
0100
0010
0001
,  // measure 37
1000
0000
0010
0100
0000
0001
0000
1000
,  // measure 38
0000
0001
0000
0100
0000
0010
0000
0000
,  // measure 39
0000
1000
0100
0001
0000
0001
0100
1000
,  // measure 40
0000
0001
0100
1000
0000
1000
0100
0001
,  // measure 41
2000
0000
0000
3001
0200
0000
0300
0001
,  // measure 42
1000
0100
0010
0001
1000
0010
0100
0001
,  // measure 43
1000
0000
0001
0100
0000
0010
1000
0100
,  // measure 44
0000
0010
0000
0001
0000
1000
0100
0010
,  // measure 45
0001
0100
0010
1000
0000
0010
0000
0100
,  // measure 46
0000
0001
0000
1000
0000
0001
0000
0000
,  // measure 47
0000
1000
0010
0001
0000
0001
0010
1000
,  // measure 48
0100
0000
0000
0010
0000
0001
0000
2002
,  // measure 49
0000
0000
0000
0000
0000
0000
3003
1001
,  // measure 50
0000
0000
0000
0000
,  // measure 51
0001
0100
0010
1000
0100
0010
0001
0010
,  // measure 52
0100
1000
0010
0100
0001
1000
0001
0000
,  // measure 53
1000
0100
0010
0001
0100
0010
1000
0100
,  // measure 54
0010
0001
0100
0010
1000
0001
1000
0000
,  // measure 55
0001
0100
0010
1000
0100
0010
0001
0010
,  // measure 56
0100
1000
0001
0100
0010
1000
0001
0000
,  // measure 57
1000
0100
0010
0001
0010
0100
1000
0001
,  // measure 58
0100
0010
0100
0001
1000
0001
0100
0110
,  // measure 59
0000
0010
1000
0010
0100
0001
0010
0100
,  // measure 60
1000
0010
0001
0100
,  // measure 61
2000
3002
2003
3002
,  // measure 62
1003
0100
0010
0001
1000
0100
0010
0001
,  // measure 63
2002
0000
0000
0000
0000
0000
0000
0000
0000
0000
3003
1001
0000
1001
0000
0001
,  // measure 64
1000
0000
0000
0000
0000
0000
0000
0000
0000
0000
0000
0000
0000
0000
0000
0000
0000
0000
0000
0000
0000
0110
0000
0000
0000
0000
0000
0000
0000
0000
0000
0000
0000
0000
0000
0000
0001
0000
0000
0000
0010
0000
0000
0000
0100
0000
0000
0000
,  // measure 65
1000
0001
0100
1000
0000
1000
0100
0001
,  // measure 66
0000
1000
0010
0001
0000
0001
0010
1000
,  // measure 67
0200
0000
0000
0310
0002
0000
0003
1000
,  // measure 68
0010
0100
0001
1000
0010
0100
0001
1000
,  // measure 69
0001
0000
0010
0100
0000
1000
0010
0100
,  // measure 70
0000
0001
0000
0010
0000
0001
1000
0010
,  // measure 71
1000
0100
0010
0100
0010
0000
0001
1001
,  // measure 72
0000
0110
0000
0110
0000
1001
0000
0000
,  // measure 73
0000
0001
0010
1000
0000
1000
0010
0001
,  // measure 74
1000
0000
0100
0010
0000
0001
0000
2002
,  // measure 75
0000
0000
0000
0000
0000
0000
3003
1001
,  // measure 76
0000
0000
0000
0000
,  // measure 77
1000
0100
0010
0001
1000
0100
0010
0001
,  // measure 78
1000
0010
0100
0001
1000
0010
0100
0000
,  // measure 79
0001
0010
0100
1000
0001
0010
0100
1000
,  // measure 80
0001
0100
0010
1000
0001
0000
0110
0000
,  // measure 81
1001
1000
0100
0010
0001
0010
0100
1000
,  // measure 82
0001
0100
0010
1000
0010
0100
0001
1000
,  // measure 83
0001
0000
1000
0000
0100
0010
0000
1001
;

//---------------dance-single - ----------------
#NOTES:
     dance-single:
     Lisek:
     Medium:
     5:
     0.343,0.433,0.032,0.129,0.000:
0000
0000
0000
0000
,
0000
0000
0000
0000
,
0000
0000
1000
0000
0001
1000
0000
1001
,
0000
0000
0000
0000
0000
0000
0000
0001
,
0000
0000
0010
0000
0001
1000
0000
0001
,
0000
0000
0100
0000
0001
1000
0000
0001
,
0000
0000
1000
0000
0010
1000
0000
0010
,
0000
1000
0000
0001
0000
0000
0000
2000
,
0000
3000
0000
0002
0000
0003
0000
0200
,
0000
0300
0000
0000
0000
0001
1000
0002
,
0000
0000
0000
0000
0003
0100
0010
0200
,
0000
0000
0000
0300
,
0001
1000
0010
0100
,
0001
0010
0100
1000
,
0001
0100
0001
1000
,
0010
0100
0010
1000
,
0001
0010
0100
0010
,
0001
1000
0010
0100
,
0001
1000
0001
0000
,
1000
0010
0100
0001
,
1000
0100
0010
0001
,
1000
0100
1000
0010
,
0100
0001
0010
0001
,
1000
0010
0100
0001
,
1000
0100
0010
0001
,
1000
0010
0100
0001
,
1000
0001
1000
0000
,
0001
0000
0100
0000
,
0002
0103
0200
0310
,
0020
1030
2000
3001
,
1000
0100
0010
0000
,
0001
0010
0100
0000
,
1000
0000
0010
0000
0100
0000
0001
1000
,
0000
0001
0000
1000
0000
0000
0000
0000
,
0001
0100
0010
0100
,
0001
1000
0010
0100
,
0010
0000
1000
0000
0100
0000
0010
0001
,
0000
1000
0000
0010
0000
0100
0000
0000
,
0000
0001
0000
0100
0000
0010
0000
1000
,
0000
0001
0000
0010
0000
0100
1000
0001
,
1000
0000
0000
0010
0100
0000
0000
0000
,
0001
0000
0000
0100
0010
0000
0000
0000
,
1000
0100
0010
0100
,
1000
0010
0100
0001
,
0100
0000
0010
0000
1000
0000
0001
0100
,
0000
0010
0000
1000
0000
0001
0000
0000
,
0000
1000
0000
0100
0000
0010
0001
1000
,
0001
0000
0000
1000
0000
0001
0000
1000
,
0000
0000
0000
0000
0000
0000
0000
1001
,
0000
0000
0000
0000
,
1000
0100
0010
0001
,
1000
0010
0100
0001
,
1000
0100
0010
0001
,
1000
0010
0100
0001
,
0001
0010
0100
1000
,
0001
0100
0010
1000
,
0001
0010
0100
1000
,
0001
0010
0100
1000
,
1000
0010
0100
0001
,
1000
0100
1000
0001
,
0200
0000
0320
0000
,
1030
0001
1000
0001
,
1001
0000
0000
0000
,
0001
0000
0000
0000
,
1000
0100
0010
0001
,
0100
0010
1000
0001
,
0020
0000
0000
0030
0200
0000
0000
0300
,
2000
0000
0000
3000
0002
0000
0000
0003
,
1000
0010
0100
0001
,
0010
0001
0100
0010
,
1000
0000
0100
0000
0010
0000
0001
0100
,
0000
0010
0000
1000
0000
0001
0000
0000
,
1000
0010
0100
0001
,
1000
0000
0000
0010
0000
0100
0000
0002
,
0000
0000
0000
0003
,
0000
0000
0000
0000
,
0000
0000
1000
0000
0010
1000
0000
0010
,
0000
0100
0000
0001
0000
1000
0001
0000
,
0000
0000
1000
0000
0010
0100
0000
0001
,
0000
0100
0000
0010
0000
0000
1000
0000
,
0001
0000
1000
0000
0100
0010
0000
0001
,
0000
1000
0000
0001
0000
1000
0000
0010
,
0000
0000
0100
0000
0010
0100
0000
0110
;

//---------------dance-single - ----------------
#NOTES:
     dance-single:
     Lisek:
     Beginner:
     1:
     0.090,0.099,0.000,0.008,0.000:
0000
0000
0000
0000
,
0000
0000
0000
0000
,
0000
0000
0000
0000
,
0000
0000
0000
0000
0000
0000
0000
1000
,
0000
0000
0000
0000
0000
0000
0000
0001
,
0000
0000
0000
0000
0000
0000
0000
0100
,
0000
0000
0000
0000
0000
0000
0000
0010
,
0000
0000
0000
0000
0000
0000
0000
1000
,
0000
0000
0000
0000
0000
0000
0000
0001
,
0000
0000
0000
0000
0000
0000
0000
1000
,
0000
0000
0000
0000
0000
0000
0000
0001
,
0000
0000
0000
0000
,
1000
0000
0000
0000
,
0010
0000
0000
0000
,
1000
0000
0000
0000
,
0010
0000
0000
0000
,
0100
0000
0000
0000
,
0001
0000
0000
0000
,
0100
0000
0000
0000
,
0001
0000
0000
0000
,
1000
0000
0000
0000
,
0100
0000
0000
0000
,
1000
0000
0000
0000
,
0100
0000
0000
0000
,
0010
0000
0000
0000
,
0001
0000
0000
0000
,
0010
0000
0000
0000
,
0001
0000
0000
0000
,
2000
0000
0000
0000
,
0000
0000
3000
0000
,
0001
0000
0000
0000
,
1000
0000
0000
0000
,
0001
0000
0000
0000
,
1000
0000
0000
0000
,
0001
0000
0000
0000
,
0010
0000
0000
0000
,
0100
0000
0000
0000
,
1000
0000
0000
0000
,
0001
0000
0000
0000
,
0010
0000
0000
0000
,
0100
0000
0000
0000
,
1000
0000
0000
0000
,
1000
0000
0000
0000
,
0100
0000
0000
0000
,
0010
0000
0000
0000
,
0001
0000
0000
0000
,
1000
0000
0000
0000
,
0100
0000
0000
0000
,
0010
0000
0000
0000
,
0001
0000
0000
0000
,
1000
0000
0000
0000
,
0001
0000
0000
0000
,
1000
0000
0000
0000
,
0001
0000
0000
0000
,
0100
0000
0000
0000
,
0010
0000
0000
0000
,
0100
0000
0000
0000
,
0010
0000
0000
0000
,
1000
0000
0000
0000
,
0001
0000
0000
0000
,
0100
0000
0000
0000
,
0010
0000
0000
0000
,
1000
0000
0000
0000
,
0001
0000
0000
0000
,
1000
0000
0000
0000
,
0010
0000
0000
0000
,
0100
0000
0000
0000
,
0001
0000
0000
0000
,
1000
0000
0000
0000
,
0010
0000
0000
0000
,
0100
0000
0000
0000
,
0001
0000
0000
0000
,
1000
0000
0000
0000
,
0001
0000
0000
0000
,
0100
0000
0000
0000
,
0000
0000
0000
0000
,
0001
0000
0000
0000
,
1000
0000
0000
0000
,
0001
0000
0000
0000
,
1000
0000
0000
0000
,
0010
0000
0000
0000
,
0100
0000
0000
0000
,
0010
0000
0000
0000
;

//---------------dance-single - ----------------
#NOTES:
     dance-single:
     Lisek:
     Easy:
     3:
     0.148,0.299,0.000,0.048,0.000:
0000
0000
0000
0000
,
0000
0000
0000
0000
,
0000
0000
0000
0000
,
0000
0000
0000
0000
0000
0000
0000
1000
,
0000
0000
0000
0000
0000
0000
0000
0001
,
0000
0000
0000
0000
0000
0000
0000
0100
,
0000
0000
0000
0000
0000
0000
0000
0010
,
0000
0000
0000
0000
0000
0000
0000
1000
,
0000
0000
0000
0001
0000
0000
0000
1000
,
0000
0000
0000
0000
0000
0000
0000
0001
,
0000
0000
0000
0000
0000
0000
0000
1000
,
0000
0000
0000
0000
,
0001
0000
0000
0000
,
0100
0000
0000
0000
,
0001
0000
1000
0000
,
0001
0000
0000
0000
,
1000
0000
0000
0000
,
0010
0000
0000
0000
,
1000
0000
0001
0000
,
1000
0000
0000
0000
,
0001
0000
0000
0000
,
0010
0000
0000
0000
,
0001
0000
1000
0000
,
0001
0000
0000
0000
,
1000
0000
0000
0000
,
0010
0000
0000
0000
,
1000
0000
0001
0000
,
1000
0000
0001
0000
,
2000
0000
0000
3000
0002
0000
0000
0003
,
0200
0000
0000
0300
0020
0000
0000
0030
,
1000
0000
0000
0000
,
0001
0000
0000
0000
,
1000
0000
0001
0000
,
1000
0000
0000
0000
,
0001
0000
0100
0000
,
0001
0000
0100
0000
,
0001
0000
1000
0000
,
0010
0000
0000
0000
,
1000
0000
0100
0000
,
0010
0000
0001
0000
,
1000
0000
0001
0000
,
1000
0000
0000
0000
,
0001
0000
0100
0000
,
0001
0000
0100
0000
,
0010
0000
1000
0000
,
0001
0000
0000
0000
,
1000
0000
0100
0000
,
0010
0000
0001
0000
,
2000
0000
3000
0000
,
0000
0000
0000
0000
,
1000
0000
0001
0000
,
1000
0000
0001
0000
,
0100
0000
0010
0000
,
0100
0000
0010
0000
,
1000
0000
0001
0000
,
1000
0000
0001
0000
,
0100
0000
0010
0000
,
0100
0000
0010
0000
,
1000
0000
0001
0000
,
1000
0000
0001
0000
,
0100
0000
0010
0000
,
0100
0000
0010
0000
,
1000
0000
0000
0000
,
0001
0000
0000
0000
,
1000
0000
0000
0000
,
0001
0000
0000
0000
,
1000
0000
0001
0000
,
1000
0000
0001
0000
,
1000
0000
0010
0000
,
1000
0000
0010
0000
,
0100
0000
0001
0000
,
1000
0000
0000
0000
,
0001
0000
0010
0000
,
0100
0000
1000
0000
,
0002
0000
0003
0000
,
0000
0000
0000
0000
,
0001
0000
1000
0000
,
0001
0000
1000
0000
,
0010
0000
0100
0000
,
0010
0000
0100
0000
,
0001
0000
1000
0000
,
0001
0000
1000
0000
,
0010
0000
0100
0000
;
