#TITLE:Jolokia;
#SUBTITLE:;
#ARTIST:Hommarju;
#TITLETRANSLIT:;
#SUBTITLETRANSLIT:;
#ARTISTTRANSLIT:;
#GENRE:;
#CREDIT:Telperion+;
#BANNER:[ROUND G] - Jolokia.png;
#BACKGROUND:[ROUND G] - Jolokia-bg.png;
#JACKET:[ROUND G] - Jolokia-jacket.png;
#LYRICSPATH:;
#CDTITLE:cdtitle.png;
#MUSIC:[ROUND G] - Jolokia.ogg;
#OFFSET:-0.947000;
#SAMPLESTART:66.785004;
#SAMPLELENGTH:10.971000;
#SELECTABLE:YES;
#DISPLAYBPM:175.000000;
#BPMS:0.000000=175.000000;
#STOPS:;
#BGCHANGES:;
#KEYSOUNDS:;
#ATTACKS:;

//---------------dance-single - Telperion----------------
#NOTES:
     dance-single:
     Telperion:
     Hard:
     8:
     0.520608,0.576797,0.494278,0.360237,0.016755,435.000000,376.000000,59.000000,43.000000,0.000000,0.000000,0.520608,0.576797,0.494278,0.360237,0.016755,435.000000,376.000000,59.000000,43.000000,0.000000,0.000000:
0000
0000
0000
0000
,
0000
0000
0000
0000
,
0000
0000
0000
0000
,
0000
0000
0000
0000
,
0000
0000
0000
0000
,
0000
0000
0000
0000
,
0000
0000
0000
0000
,
0000
0000
0000
0000
,
1000
1000
0001
0001
,
0100
0100
0010
0010
,
1000
1000
0001
0001
,
0010
0010
0100
0100
,
1000
0000
1000
0001
0010
0000
0010
0001
,
1000
0001
0010
0001
1000
0010
0100
0000
,
0001
0000
0001
1000
0010
0000
0010
0100
,
0002
0000
0000
0003
,
1100
0000
0000
0000
0011
0000
0000
0000
1100
0000
0000
0001
0010
0000
0000
0000
,
1100
1001
0120
0031
,
0101
0000
0000
0000
1010
0000
0000
0000
0101
0000
0000
1000
0010
0000
0000
0000
,
0101
1001
0120
1030
,
1100
0000
0000
0000
0101
0000
0000
0000
0011
0000
0000
1000
0010
0000
0000
0000
,
0110
0101
2001
3100
,
0101
0000
0000
0000
1100
0000
0000
0000
1010
0000
0000
0001
0010
0000
0000
0000
,
0400
1000
0000
0001
0000
1000
0000
0310
,
0001
0000
1000
0100
0002
0000
0103
1000
,
0000
0010
0000
1000
0100
0001
0200
0000
,
1300
0000
0001
0100
2000
0000
3100
0001
,
0000
0010
0000
0001
0100
0010
2000
0000
,
3001
0000
1000
0010
0002
0000
0013
1000
,
0000
0100
0000
1000
0010
0100
0002
0000
,
1003
0000
0001
0010
2000
0000
3010
0001
,
0200
0000
1000
0000
0001
0300
0000
0000
,
0101
0000
0001
1000
0001
0000
0001
0000
,
0011
0010
0001
1000
0001
0000
0001
0000
,
0101
0000
1010
0000
0011
0000
1100
0100
,
0010
0100
0001
0100
2000
0000
3001
0000
,
1100
0000
1000
0001
1000
0000
1000
0000
,
1010
0010
1000
0100
1000
0000
1000
0000
,
1010
0000
0011
0000
1100
0000
0101
0001
,
1000
1000
1000
0010
0200
0000
0310
0000
,
0104
0000
0000
1000
0000
0000
0000
0000
,
0010
0010
0000
0100
0000
0000
0003
0000
,
0011
0000
1100
0000
0101
0000
1010
0010
,
0001
0010
0100
0010
2000
0000
3100
0000
,
4001
0000
0000
0100
0000
0000
0000
0000
,
0010
0010
0000
0001
0000
0000
3000
0000
,
1010
0000
0011
0000
0101
0000
1100
1000
,
0001
0001
0001
0010
0002
0000
0003
0000
,
1000
1000
1001
0001
0200
0000
0310
0000
,
1000
1000
1010
0010
0200
0000
0301
0000
,
1200
0000
0301
0000
0110
0000
1001
0001
,
1000
0100
0001
0100
2000
0000
3001
0000
,
0100
0000
1100
0100
0020
0000
0130
0000
,
0001
0001
0011
0010
0200
0000
1300
0000
,
0201
0000
1300
0000
0110
0000
1001
0001
,
0400
0001
0000
1000
0000
0001
0000
0310
,
1000
0000
0100
1000
0002
0000
0010
0000
,
1003
0010
1000
0010
0200
0000
0001
0000
,
0320
0000
0032
0000
0023
0000
1030
0001
,
0010
1000
0010
0100
2000
0000
0001
0000
,
3010
0000
0100
0001
2000
0000
0010
0000
,
3001
0010
0001
0010
0200
0000
1000
0000
,
0320
0000
2030
0000
3002
0000
0103
1000
,
0010
0001
0010
0100
0002
1000
0013
0000
,
0011
0000
1000
0002
0010
0000
1003
0001
,
0000
0010
0000
0001
1000
0010
0200
0000
,
0301
0000
1000
0002
0100
0000
1003
0001
,
0000
0100
0000
0001
1000
0100
0010
0001
,
1000
0000
0001
2000
0100
0000
3001
1000
,
0000
0100
0000
1000
0001
0100
0020
0000
,
1030
0000
0001
2000
0010
0000
3001
1000
,
0040
0001
0000
0100
0000
1030
0001
0001
,
1001
0000
1000
0001
1010
0000
0100
0001
,
0000
1000
0000
0001
0011
0000
0010
0000
,
0100
0000
1000
0100
0011
0000
0100
1000
,
0000
0001
0000
1000
1010
0000
0010
0000
,
0100
0001
1000
0010
0001
0010
1000
0001
,
0010
0001
1000
0100
0001
0100
1000
0000
,
0001
0010
1000
0010
0001
0100
1000
0100
,
0001
0000
0001
1000
0010
1000
0100
0000
,
0020
0000
0000
0000
0000
0200
0000
0000
,
0330
0000
0000
0000
;

//---------------dance-single - Telperion----------------
#NOTES:
     dance-single:
     Telperion:
     Medium:
     6:
     0.385369,0.441080,0.134042,0.351859,0.033510,322.000000,306.000000,16.000000,42.000000,0.000000,0.000000,0.385369,0.441080,0.134042,0.351859,0.033510,322.000000,306.000000,16.000000,42.000000,0.000000,0.000000:
0000
0000
0000
0000
,
0000
0000
0000
0000
,
0000
0000
0000
0000
,
0000
0000
0000
0000
,
0000
0000
0000
0000
,
0000
0000
0000
0000
,
0000
0000
0000
0000
,
0000
0000
0000
0000
,
0001
0001
1000
1000
,
0100
0100
0010
0010
,
0001
0001
1000
1000
,
0010
0010
0100
0100
,
0001
0000
0000
1000
0010
0000
1000
0001
,
0000
0010
0000
0001
0100
0000
0010
0000
,
1000
0000
0000
0001
0010
0000
0010
0100
,
2000
0000
0000
3000
,
0001
0000
0000
0000
0001
0000
0000
0000
1000
0000
0000
0100
1000
0000
0000
0000
,
0001
0100
0020
0100
,
1030
0000
0000
0000
1000
0000
0000
0000
0001
0000
0000
0100
0001
0000
0000
0000
,
1000
0100
0010
0001
,
1000
0000
0000
0000
1000
0000
0000
0000
0010
0000
0000
1000
0001
0000
0000
0000
,
0010
0100
2000
0100
,
3001
0000
0000
0000
0001
0000
0000
0000
0010
0000
0000
0001
1000
0000
0000
0000
,
0010
0100
0000
0100
0000
0001
0000
0001
,
1000
0000
0000
0000
0001
0000
0000
0000
0010
0000
0000
0001
0100
0000
0000
0000
,
1000
0100
0020
0130
,
0001
0000
0000
0000
1000
0000
0000
0000
0010
0000
0000
1000
0100
0000
0000
0000
,
0001
0100
0020
0031
,
1000
0000
0000
0000
0001
0000
0000
0000
0100
0000
0000
0001
0010
0000
0000
0000
,
1000
0010
0002
0103
,
0001
0000
0000
0000
1000
0000
0000
0000
0010
0000
0000
0100
0001
0000
0000
0000
,
0020
0000
0000
0000
0000
0030
0000
0000
,
0001
0001
2000
3000
,
0001
0010
0001
0010
0200
0000
0300
0000
,
1000
0010
0001
0010
,
1000
0001
1000
0001
0020
0000
0030
0000
,
0001
0100
0002
0003
,
1000
0010
1000
0010
0200
0000
0300
0000
,
0001
0010
1000
0010
,
0001
1000
0001
1000
0020
0000
0030
0000
,
1000
1000
0002
0003
,
1000
0100
1000
0100
0020
0000
0030
0000
,
0001
0100
1000
0100
,
0001
1000
0001
1000
0200
0000
0300
0000
,
1000
0010
2000
3000
,
0001
0100
0001
0100
0020
0000
0030
0000
,
1000
0000
0100
0000
0010
0000
0001
1000
,
0020
0000
0000
0000
,
0130
0100
0100
0000
0002
0000
0003
0000
,
1000
1000
1000
0000
0200
0000
0300
0000
,
0010
0001
1000
0010
,
1000
0100
1000
0100
0020
0000
0030
0000
,
0100
0100
2000
3000
,
0001
0001
0001
0000
0200
0000
0300
0000
,
0010
1000
0001
0010
,
0001
0100
0000
0100
0000
0010
0000
0010
,
1000
1100
2001
3000
,
0010
0100
0010
0100
0002
0000
0003
0000
,
0001
0011
1001
1000
,
0001
1000
0001
1000
0020
0000
0030
0000
,
0100
0101
1002
0003
,
0010
0100
0010
0100
2000
0000
3000
0000
,
0010
1010
1001
0001
,
0010
0100
0010
0100
2000
0000
3001
0000
,
0100
0000
0000
0100
0001
0000
0000
1000
,
0000
0001
0000
0100
0001
0000
0010
0000
,
0100
0000
0000
0100
1000
0000
0000
0001
,
0000
1000
0000
0100
1000
0000
0010
0000
,
0100
0000
0000
0001
1000
0000
0000
0010
,
0000
1000
0000
0001
1000
0000
0100
0000
,
0010
0000
0000
0010
0001
0000
1000
0010
,
0100
0001
0000
0001
0000
1000
0001
1000
,
0200
0000
2000
3300
1100
0000
0002
0000
,
0200
0003
0002
0303
0101
0000
2000
0000
,
0020
3000
2000
3030
1010
0000
0002
0000
,
0020
0003
0002
0033
0011
0000
1000
0000
,
0001
0001
0101
1000
,
0001
0001
1100
0100
,
0010
0000
0010
0000
1001
0000
0001
1000
,
0010
0000
0010
0100
0010
0100
0001
0000
,
0020
0000
0000
0000
0000
0030
0000
0000
,
1001
0000
0000
0000
;

//---------------dance-single - Telperion----------------
#NOTES:
     dance-single:
     Telperion:
     Easy:
     4:
     0.240557,0.305363,0.067021,0.268083,0.000000,201.000000,193.000000,8.000000,32.000000,0.000000,0.000000,0.240557,0.305363,0.067021,0.268083,0.000000,201.000000,193.000000,8.000000,32.000000,0.000000,0.000000:
0000
0000
0000
0000
,
0000
0000
0000
0000
,
0000
0000
0000
0000
,
0000
0000
0000
0000
,
0000
0000
0000
0000
,
0000
0000
0000
0000
,
0000
0000
0000
0000
,
0000
0000
0000
0000
,
1000
0001
0010
0000
,
0001
1000
0010
0000
,
1000
0001
0100
0000
,
0001
1000
0100
0000
,
0010
0001
1000
0010
,
0100
0001
1000
0100
,
0010
0001
1000
0010
,
0200
0000
0000
0000
,
0300
0000
0000
0000
,
0002
0010
2000
0000
,
3003
0000
0000
0000
,
2000
0010
0002
0000
,
3003
0000
0000
0000
,
0002
0100
2000
0000
,
3003
0000
0000
0000
,
1000
1000
0001
0001
,
0100
0000
0000
0000
,
0020
1000
0200
0000
,
0330
0000
0000
0000
,
2000
0001
0200
0000
,
3300
0000
0000
0000
,
0200
1000
0020
0000
,
0330
0000
0000
0000
,
2002
0000
0000
0000
0000
3003
0000
0000
,
0001
0001
0001
0000
,
1000
1000
1000
0000
,
0010
0100
0001
0010
,
0001
1000
0010
0000
,
1000
1000
1000
0000
,
0001
0001
0001
0000
,
0010
0100
1000
0001
,
0100
0001
0010
0000
,
0001
0001
0001
0000
,
1000
1000
1000
0000
,
0010
0100
0010
1000
,
0100
0010
0001
0000
,
1000
1000
1000
0000
,
0001
0001
0001
0000
,
0010
0100
1000
0001
,
0200
0000
0000
0000
,
0310
0010
0010
0000
0010
0000
0010
0000
,
0010
0010
0010
0000
,
0010
0010
0010
0010
,
0010
0010
0010
0000
,
0010
0010
0010
0010
,
0010
0010
0010
0000
0010
0000
0000
0000
,
0010
0010
0010
0010
,
1000
0001
1000
0001
,
0010
0010
0010
0000
,
0100
0100
0100
0000
,
1000
0010
0001
0100
,
1000
0001
0100
0000
,
0010
0010
0010
0000
,
0100
0100
0100
0000
,
0001
0010
1000
0100
,
0010
1000
0001
0000
,
0200
0300
0002
0003
,
0200
0300
0002
0003
,
2000
3000
0200
0300
,
2000
3000
0200
0300
,
0020
0030
0002
0003
,
0020
0030
0002
0003
,
2000
3000
0020
0030
,
0200
0000
0000
0000
0000
0000
0301
0001
,
0001
0000
1001
0000
,
1000
0000
1001
0000
,
0001
0000
1001
0000
,
1000
0000
1001
0000
,
0010
0000
0110
0000
,
0100
0000
0110
0000
,
0010
0000
0110
0000
,
0100
0001
1000
0100
,
0020
0000
0000
0000
,
0130
0000
0000
0000
;

//---------------dance-single - Telperion----------------
#NOTES:
     dance-single:
     Telperion:
     Beginner:
     2:
     0.098138,0.135717,0.008378,0.000000,0.000000,82.000000,81.000000,1.000000,0.000000,0.000000,0.000000,0.098138,0.135717,0.008378,0.000000,0.000000,82.000000,81.000000,1.000000,0.000000,0.000000,0.000000:
// measure 0
0000
0000
0000
0000
,  // measure 1
0000
0000
0000
0000
,  // measure 2
0000
0000
0000
0000
,  // measure 3
0000
0000
0000
0000
,  // measure 4
0000
0000
0000
0000
,  // measure 5
0000
0000
0000
0000
,  // measure 6
0000
0000
0000
0000
,  // measure 7
0000
0000
0000
0000
,  // measure 8
1000
0000
0000
0000
,  // measure 9
0001
0000
0000
0000
,  // measure 10
0100
0000
0000
0000
,  // measure 11
0001
0000
0000
0000
,  // measure 12
1000
0000
0000
0000
,  // measure 13
0100
0000
0000
0000
,  // measure 14
1000
0000
0000
0000
,  // measure 15
0001
0000
0000
0000
,  // measure 16
0100
0000
0000
0000
,  // measure 17
0100
0000
0000
0000
,  // measure 18
0100
0000
0000
0000
,  // measure 19
0100
0000
0000
0000
,  // measure 20
0010
0000
0000
0000
,  // measure 21
0010
0000
0000
0000
,  // measure 22
0010
0000
0000
0000
,  // measure 23
0010
0000
0000
0000
,  // measure 24
1000
0000
0000
0000
,  // measure 25
1000
0000
0000
0000
,  // measure 26
0001
0000
0000
0000
,  // measure 27
0001
0000
0000
0000
,  // measure 28
0010
0000
0000
0000
,  // measure 29
0010
0000
0000
0000
,  // measure 30
0010
0000
0000
0000
,  // measure 31
0000
0000
0000
0000
,  // measure 32
0001
0000
0000
0000
,  // measure 33
1000
0000
0000
0000
,  // measure 34
0001
0000
0001
0000
,  // measure 35
0001
0000
0000
0000
,  // measure 36
1000
0000
0000
0000
,  // measure 37
0001
0000
0000
0000
,  // measure 38
1000
0000
1000
0000
,  // measure 39
1000
0000
0000
0000
,  // measure 40
0100
0000
0000
0000
,  // measure 41
1000
0000
0000
0000
,  // measure 42
0001
0000
0001
0000
,  // measure 43
0001
0000
0000
0000
,  // measure 44
0100
0000
0000
0000
,  // measure 45
0001
0000
0000
0000
,  // measure 46
1000
0000
1000
0000
,  // measure 47
1000
0000
0000
0000
,  // measure 48
0010
0000
0000
0000
,  // measure 49
0100
0000
0000
0000
,  // measure 50
0001
0000
0001
0000
,  // measure 51
0001
0000
0000
0000
,  // measure 52
0010
0000
0000
0000
,  // measure 53
0100
0000
0000
0000
,  // measure 54
1000
0000
1000
0000
,  // measure 55
1000
0000
0000
0000
,  // measure 56
0100
0000
0000
0000
,  // measure 57
0010
0000
0000
0000
,  // measure 58
0001
0000
0001
0000
,  // measure 59
0001
0000
0000
0000
,  // measure 60
0100
0000
0000
0000
,  // measure 61
0010
0000
0000
0000
,  // measure 62
1000
0000
1000
0000
,  // measure 63
1000
0000
0000
0000
,  // measure 64
0001
0000
0000
0000
,  // measure 65
0100
0000
0000
0000
,  // measure 66
1000
0000
0000
0000
,  // measure 67
0010
0000
0000
0000
,  // measure 68
0001
0000
0000
0000
,  // measure 69
0100
0000
0000
0000
,  // measure 70
0010
0000
0000
0000
,  // measure 71
1000
0000
0001
0000
,  // measure 72
1000
0000
0000
0000
,  // measure 73
0100
0000
0000
0000
,  // measure 74
0001
0000
0000
0000
,  // measure 75
0010
0000
0000
0000
,  // measure 76
1000
0000
0000
0000
,  // measure 77
0100
0000
0000
0000
,  // measure 78
0010
0000
0000
0000
,  // measure 79
0001
0000
0000
0000
,  // measure 80
0000
0000
0000
0000
,  // measure 81
1001
0000
0000
0000
;
