#TITLE:Indian Summer;
#SUBTITLE:;
#ARTIST:Jai Wolf;
#TITLETRANSLIT:;
#SUBTITLETRANSLIT:;
#ARTISTTRANSLIT:;
#CREDIT:;
#BANNER:Indian Summer.png;
#BACKGROUND:Indian Summer-bg.png;
#LYRICSPATH:;
#CDTITLE:;
#MUSIC:Indian Summer.ogg;
#OFFSET:-0.768;
#SAMPLESTART:45.94;
#SAMPLELENGTH:11.429;
#SELECTABLE:YES;
#BPMS:0.000=85.000,64.000=170.000,192.000=85.000;
#STOPS:;
#BGCHANGES:;

//---------------dance-single - ----------------
#NOTES:
     dance-single:
     :
     Hard:
     7:
     0.433,0.428,0.626,0.303,0.039:
0000
0000
0000
0000
,
0000
0000
0000
0000
,
0000
0000
0000
0000
,
0000
0000
0000
0000
,
0001
0000
1000
0001
1000
0001
0100
0110
,
0000
1000
0001
0010
0100
1000
1001
0000
,
0010
0001
1000
0001
1000
0010
0100
0110
,
0000
1000
0100
0010
0001
1000
1001
0000
,
0200
0010
0310
0000
0002
0100
0103
0000
,
2000
0001
3001
0000
0010
0100
0010
0000
,
1000
0000
0010
0001
0100
0000
0000
0000
1000
0000
0010
0001
1000
0000
0000
0000
,
0001
0000
0100
0010
1000
0000
0000
0000
0001
0000
0010
0100
1000
0000
0000
0000
,
0020
0100
0130
0000
2000
0010
3010
0000
,
0002
0100
0103
0000
1000
0001
1000
0000
,
0010
0000
0100
0010
0100
0000
0000
0000
0001
0000
0010
0001
0010
0000
0000
0000
,
1000
0000
0100
1000
0100
0000
0000
0000
0010
0000
0001
0010
0001
0000
0000
0000
,
1000
0001
0100
0010
,
0110
0001
1001
0100
,
0110
1001
0011
0110
,
1010
1001
0110
0000
,
0001
1000
0000
1000
0011
0000
0001
0000
,
0101
1000
1100
1000
,
0110
0101
1001
0101
,
0110
1100
1001
0011
,
1000
0001
0000
0001
1000
0000
1100
0000
,
0100
0110
0010
0011
,
1010
0011
1100
0101
,
1001
0110
1001
1010
,
0100
0010
0000
0010
0100
0000
1100
0000
,
0001
0101
1000
1100
,
0110
0110
0011
0011
,
1100
1100
1001
1001
,
0010
0010
2000
3020
,
0230
0302
0013
0110
,
0000
0002
0203
0320
,
2030
3100
0110
0000
,
0000
0200
0320
0230
,
0302
2003
3010
1001
,
0000
0002
2003
3020
,
0230
0310
1001
0000
,
0000
1000
1010
0100
,
0101
0010
0110
1001
,
0000
0001
0101
1000
,
1010
0101
2020
0000
,
3030
0001
0011
0010
,
0110
0100
1100
1001
,
0000
0002
0203
0320
,
2030
3100
0110
0000
,
1001
0100
0010
0200
,
0000
0300
1000
0000
0001
0000
0010
0000
,
1000
0001
0100
0020
,
0000
0030
1000
0000
0001
0000
0000
0000
;

//---------------dance-single - ----------------
#NOTES:
     dance-single:
     :
     Medium:
     5:
     0.269,0.301,0.215,0.068,0.000:
0000
0000
0000
0000
,
0000
0000
0000
0000
,
0000
0000
0000
0000
,
0000
0000
0000
0000
,
1000
0000
0001
0000
1000
0010
1000
0000
,
0000
0000
0001
0000
0100
0010
0100
0000
,
0010
0000
1000
0000
0001
0100
0001
0000
,
0000
0000
0010
0000
1000
0100
1000
0000
,
0001
0001
0100
0100
,
1000
1000
0010
0010
,
0100
0001
1000
0010
,
0001
0100
1000
1000
,
0010
0100
0010
0000
1000
0001
1000
0000
,
0100
0010
0100
0000
0001
0000
0001
0000
,
1000
0100
1000
0000
0001
0010
0001
0000
,
0100
0001
0100
0000
1000
0000
0001
0000
,
1000
0001
0000
0001
1000
0000
0001
0000
,
1000
0001
1000
0001
,
0100
0000
0110
0000
,
0001
0000
1001
0000
,
0001
1000
0000
1000
0001
0000
0100
0000
,
0001
0100
0001
0100
,
1010
0000
0101
0000
,
1010
0000
0101
0000
,
1000
0010
0000
0100
0001
0000
0001
0000
,
0001
0001
0001
0001
,
1000
0000
1010
0000
,
0001
0000
0101
0000
,
0010
0100
0000
1000
0001
0000
1000
0000
,
0001
1000
0001
1000
,
0010
0000
0110
0000
,
0100
0000
0110
0000
,
2000
3000
0001
1000
,
0001
1000
0001
1001
,
0000
1000
0010
1000
,
0010
0100
0110
0000
,
0000
0001
0010
0100
,
1000
0001
0100
0110
,
0000
1000
0001
1000
,
0001
0010
1100
0000
,
0000
0001
0010
0100
,
1000
0100
0010
1001
,
0000
0001
0100
0010
,
1000
0001
1001
0000
,
0000
1000
0010
0100
,
0001
1000
0001
0110
,
0000
1000
0010
0100
,
0001
1000
1001
0000
,
2200
0000
0000
0000
0000
0000
0000
3300
,
0000
0022
0000
0033
,
0000
0000
2020
0000
0000
0000
0000
3030
,
0000
0101
0000
0000
;

//---------------dance-single - ----------------
#NOTES:
     dance-single:
     :
     Easy:
     3:
     0.204,0.224,0.039,0.000,0.000:
0000
0000
0000
0000
,
0000
0000
0000
0000
,
0000
0000
0000
0000
,
0000
0000
0000
0000
,
0000
1000
0001
1000
,
0000
0100
0010
0100
,
0000
0001
1000
0001
,
0000
0010
0100
0010
,
1000
1000
0001
0001
,
1000
1000
0010
0001
,
1000
0100
0001
0010
,
1000
0100
0001
0001
,
1000
1000
0001
0001
,
1000
1000
0001
0010
,
1000
0100
0001
0010
,
1000
0100
0001
0001
,
0010
0000
1000
1000
,
1000
1000
1000
0000
,
0100
0000
0001
0000
,
0010
0000
0001
0000
,
0010
0000
1000
0001
,
0001
0001
0001
0001
,
0100
0000
0010
0000
,
0100
0000
0010
0000
,
1000
0000
0100
0100
,
0100
0100
0100
0100
,
0010
0000
0001
0000
,
1000
0000
0100
0000
,
0001
0000
0010
0010
,
0010
0010
0010
0010
,
1000
0000
0001
0000
,
1000
0000
0001
0000
,
0100
0000
0100
0000
,
0010
0100
0010
0100
,
0000
0001
1000
0001
,
1000
0001
1000
0000
,
0000
0100
0010
0100
,
0010
0100
0010
0100
,
0000
0001
1000
0001
,
1000
0001
1000
0000
,
0100
0000
0010
0100
,
0010
0100
0010
0100
,
0000
1000
0001
1000
,
0001
1000
0001
0000
,
0000
0100
0010
0100
,
0010
0100
0010
0100
,
0000
0001
1000
0001
,
1000
0001
1000
0000
,
0110
0000
0000
0000
,
1100
0000
0000
0000
,
0011
0000
0000
0000
,
1100
0000
0000
0000
;

//---------------dance-single - Copied from ----------------
#NOTES:
     dance-single:
     Copied from:
     Beginner:
     1:
     0.063,0.125,0.000,0.000,0.000: // measure 1
0000
0000
0000
0000
,  // measure 2
0000
0000
0000
0000
,  // measure 3
0000
0000
0000
0000
,  // measure 4
0000
0000
0000
0000
,  // measure 5
1000
0000
0000
0000
,  // measure 6
0001
0000
0000
0000
,  // measure 7
1000
0000
0000
0000
,  // measure 8
0001
0000
0000
0000
,  // measure 9
0100
0000
0100
0000
,  // measure 10
0100
0000
0010
0000
,  // measure 11
0010
0000
0010
0000
,  // measure 12
0010
0000
0100
0000
,  // measure 13
0100
0000
0100
0000
,  // measure 14
0100
0000
0010
0000
,  // measure 15
0010
0000
0010
0000
,  // measure 16
0010
0000
0100
0000
,  // measure 17
1000
0000
0000
0000
,  // measure 18
0000
0000
0000
0000
,  // measure 19
0001
0000
0000
0000
,  // measure 20
0001
0000
0000
0000
,  // measure 21
0010
0000
0000
0000
,  // measure 22
0000
0000
0000
0000
,  // measure 23
0100
0000
0000
0000
,  // measure 24
0100
0000
0000
0000
,  // measure 25
0001
0000
0000
0000
,  // measure 26
0000
0000
0000
0000
,  // measure 27
1000
0000
0000
0000
,  // measure 28
1000
0000
0000
0000
,  // measure 29
0100
0000
0000
0000
,  // measure 30
0000
0000
0000
0000
,  // measure 31
0010
0000
0000
0000
,  // measure 32
0010
0000
0000
0000
,  // measure 33
1000
0000
0001
0000
,  // measure 34
0000
0000
0000
0000
,  // measure 35
0000
0000
0100
0000
,  // measure 36
0000
0000
0000
0000
,  // measure 37
0000
0000
0010
0000
,  // measure 38
0000
0000
0000
0000
,  // measure 39
0000
0000
0100
0000
,  // measure 40
0000
0000
0000
0000
,  // measure 41
0000
0000
0010
0000
,  // measure 42
0000
0000
0000
0000
,  // measure 43
0000
0000
0100
0000
,  // measure 44
0000
0000
0000
0000
,  // measure 45
0000
0000
0010
0000
,  // measure 46
0000
0000
0000
0000
,  // measure 47
0000
0000
0100
0000
,  // measure 48
0000
0000
0000
0000
,  // measure 49
1000
0000
0000
0000
,  // measure 50
0001
0000
0000
0000
,  // measure 51
1000
0000
0000
0000
,  // measure 52
0001
0000
0000
0000
;
