#VERSION:0.82;
#TITLE:Hesperides;
#SUBTITLE:;
#ARTIST:xi;
#TITLETRANSLIT:;
#SUBTITLETRANSLIT:;
#ARTISTTRANSLIT:;
#GENRE:;
#ORIGIN:;
#CREDIT:;
#BANNER:Hesperides-bn.png;
#BACKGROUND:Hesperides-bg.png;
#PREVIEWVID:;
#JACKET:Hesperides-jk.png;
#CDIMAGE:;
#DISCIMAGE:;
#LYRICSPATH:;
#CDTITLE:darkanine.png;
#MUSIC:[ROUND G] - Hesperides.mp3;
#OFFSET:0.147075;
#SAMPLESTART:14.277456;
#SAMPLELENGTH:19.200003;
#SELECTABLE:YES;
#BPMS:0.000=200.000,
36.000=100.000,
40.000=50.000,
41.000=200.000,
105.000=100.000,
125.000=200.000,
221.000=400.000,
227.000=200.000,
252.000=100.000,
255.000=200.000,
321.000=100.000,
324.000=200.000,
340.000=400.000,
344.000=200.000;
#STOPS:;
#DELAYS:;
#WARPS:;
#TIMESIGNATURES:0.000=4=4;
#TICKCOUNTS:0.000=4;
#COMBOS:0.000=1;
#SPEEDS:0.000=1.000=0.000=0;
#SCROLLS:0.000=1.000;
#FAKES:;
#LABELS:0.000=Song Start;
#BGCHANGES:;
#KEYSOUNDS:;
#ATTACKS:
;

//---------------dance-single - ----------------
#NOTEDATA:;
#CHARTNAME:;
#STEPSTYPE:dance-single;
#DESCRIPTION:;
#CHARTSTYLE:;
#DIFFICULTY:Hard;
#METER:10;
#RADARVALUES:0.879087,1.000000,0.920890,0.456142,0.438929,555.000000,107.000000,53.000000,0.000000,0.000000,0.000000,0.000000,0.000000,0.879087,1.000000,0.920890,0.456142,0.438929,555.000000,107.000000,53.000000,0.000000,0.000000,0.000000,0.000000,0.000000;
#CREDIT:;
#NOTES:
0000
0000
0000
0000
,
0011
0000
0000
1100
0000
0000
1010
0000
,
0001
0101
0000
0000
0110
1000
1001
0001
,
1000
0100
0001
1000
0010
0001
1000
0010
,
0010
0000
0100
0000
0001
0000
0010
0100
0010
0100
0010
0000
0000
0000
0000
0000
,
1100
0100
0001
0100
1000
0010
0100
0001
,
1000
0000
0100
0010
0100
1000
0100
0000
1000
0001
1000
0000
0010
0000
0100
0000
,
0001
0001
0001
1000
1000
1000
0010
0010
,
0100
0000
0001
0000
0010
0000
1000
0000
0010
0001
1000
0001
1000
0001
1000
0001
,
0200
0000
0320
0000
,
0031
0000
1000
0010
0100
0101
0000
1100
,
0000
0011
0000
0100
0100
0000
1000
0001
,
0010
0000
0110
0000
0000
0000
1000
0100
0010
0100
1000
0010
0100
0000
0001
0000
,
0010
0110
0000
1000
1100
0000
0011
0000
,
0101
0000
1000
0000
0100
0011
0000
0000
,
0001
1100
0000
0000
1000
0101
0000
1100
,
0000
1020
0000
0000
0031
0001
0010
0010
,
1000
0000
1000
0000
0001
0000
0010
0001
0010
0100
0010
0100
1000
0001
1000
0001
,
0100
0000
0001
0010
0100
1100
0000
0101
,
0000
1010
0000
0100
0100
0000
0001
1000
,
0010
0000
0110
0000
0000
0000
0001
0010
0100
0010
0001
0100
0010
0000
1000
0000
,
0100
0110
0000
0001
1001
0000
1010
0000
,
0101
0000
0001
0000
0010
0000
0000
0000
1001
0000
1000
0010
0100
0000
0010
1000
,
0001
0000
0011
0000
0000
0000
1000
0000
1100
0000
0000
0000
0011
0000
0000
0011
,
0000
0110
0000
0000
1001
0000
1000
0010
,
0100
0000
0001
0010
0001
0010
0001
0010
0001
0100
0010
1000
0001
0010
0100
1000
,
0001
0100
0010
1000
0200
0000
0000
0000
0300
0000
0000
1000
1010
0000
0000
0000
,
0110
0110
0000
0000
0001
0000
0000
0020
0000
0230
0000
0301
0000
0001
0200
0000
,
2300
0000
0000
0000
3020
0000
0001
0000
0030
0000
0001
0000
0000
0000
0020
0000
0000
0000
1030
0000
2000
0000
0000
0100
3000
0000
0010
0000
0100
0000
1000
0000
,
0001
0000
0000
0000
1000
0000
0010
1000
0020
0000
0000
0000
0000
0000
0130
0000
0000
0000
0000
0000
0001
0000
0010
0000
0210
0000
0000
0000
2300
0000
0000
0000
,
3020
0000
0000
0000
0230
0000
0300
0000
0102
0000
0000
0000
0000
0000
1000
0000
2003
0000
0000
0000
0000
0000
3010
0100
0020
0000
0000
0000
0230
0000
0000
0000
,
0301
0000
1000
0000
0001
0010
0001
0010
0100
0000
0000
0000
1000
0000
0000
0000
0100
0000
0000
0000
0110
0000
0000
0000
0000
0000
0000
0000
0011
0000
0000
0000
,
0000
1001
0000
2000
3010
0000
1000
0001
,
0010
0011
0000
1000
0010
0110
0000
0100
,
0001
1000
0100
1000
0010
0001
0010
1000
,
0100
0010
0001
0100
1000
0100
0001
0100
,
1000
0000
0100
0000
0100
0000
0010
0000
1000
0000
0100
0000
0010
0001
0010
0001
,
1000
0001
1000
0001
0100
0000
0100
0000
0000
0000
0010
0000
0010
0000
0000
0000
,
1010
0000
1010
0000
0000
0000
0011
0000
0011
0000
0000
0000
0100
0000
1000
0010
,
0100
0001
2002
0000
0000
0000
0000
0000
,
3003
0000
0001
0010
1000
0010
0100
1000
,
0001
0100
0020
1000
1030
0100
0020
0100
,
0130
0000
1000
0000
0001
0000
0010
0000
1000
0000
0010
0000
0001
0010
0100
1000
,
0100
0010
0001
0100
0020
0000
0000
0000
0000
0000
1030
0100
0002
0000
0000
0000
,
0000
0000
0003
0000
1200
0000
0000
0000
0000
0000
1300
0010
0002
0000
0000
0000
,
2003
3200
0000
0302
,
0000
0000
0000
0000
0023
0000
0000
0000
0000
0000
0000
0000
0130
0010
0100
0010
,
0000
0000
0100
0010
0001
0000
1000
0000
0010
0000
0100
0000
0001
0000
0010
0000
,
1000
0010
0100
1000
0001
0100
1000
0001
,
0010
1000
0001
0010
1000
0010
0100
0001
,
0100
0000
1000
0000
0010
0000
1000
0000
0001
0000
0100
0000
0010
1000
0001
0010
,
0100
1000
0001
0100
0020
0000
0000
0000
0032
0000
0000
0000
2003
0000
0000
0000
,
0000
3200
0302
0023
,
0230
0000
0000
0000
2300
0000
0100
0000
0100
0000
3100
1000
0002
0000
0100
0000
,
0100
0000
0103
0010
1000
0001
1000
0001
1000
0001
1000
0001
0010
0000
0000
0010
,
0000
0010
0020
0000
0000
0000
0000
0000
,
0000
0000
0000
0130
,
0011
0110
0000
0000
0000
0000
1010
0110
,
0000
0000
0000
0000
,
0101
1010
0000
0000
0000
0000
1100
0011
,
0000
0000
0000
2000
0000
0000
3001
0000
,
1010
1100
0000
0000
0101
0011
0000
0000
,
1010
0000
0000
0101
0000
0000
0011
0000
0000
1010
0000
0000
1001
0000
0100
0000
,
0020
0000
0230
0300
,
1001
0000
1000
0010
0001
0110
0000
1010
,
0000
1001
0000
0100
0100
0000
1000
0001
,
0010
0000
0110
0000
0000
0000
0001
0010
0100
1000
0001
0100
0010
0000
1000
0000
,
0100
1100
0000
0001
0101
0000
1010
0000
,
0011
0000
1001
0000
0010
1100
0000
0000
,
0010
0101
0000
0000
1000
0110
0000
1001
,
0000
0120
0000
0000
0100
0000
0100
0000
,
0130
0000
0000
0000
1000
0000
0010
0100
0010
1000
0001
1000
0001
0000
0010
0100
,
0010
0000
1001
1000
0100
0110
0000
0011
,
0000
1100
0000
0001
0001
0000
1000
0100
,
0010
0000
0011
0000
0000
0000
1000
0010
0100
0001
1000
0100
0010
0000
0001
0000
,
1000
1010
0000
0100
0101
0000
0011
0000
,
1100
0000
0000
0000
0010
0000
0000
0000
1001
0000
1000
0010
0100
0000
0001
1000
,
0010
0000
0110
0000
0000
0000
1000
0000
1100
0000
0000
0000
0101
0000
0000
0101
,
0000
0110
0000
0000
2001
0000
0100
0000
,
3100
0000
0020
0000
0001
0000
0001
0000
0001
0000
0031
0000
0100
0010
1000
0010
,
0100
0000
0001
0000
0010
0000
0100
0000
2000
0000
0000
0000
0000
0000
0000
0000
0000
0000
0000
0000
0000
0000
3001
0010
2000
0000
0000
0000
0000
0000
0000
0000
,
3010
0001
0011
0000
1010
1000
0100
0011
,
0001
0010
1100
1000
0010
0101
0001
1000
,
1001
0010
0110
0100
0100
0000
2002
0000
,
0000
0000
0000
0000
,
0000
0000
0000
0000
,
3003
0000
0000
0000
;

//---------------dance-single - ----------------
#NOTEDATA:;
#CHARTNAME:;
#STEPSTYPE:dance-single;
#DESCRIPTION:;
#CHARTSTYLE:;
#DIFFICULTY:Medium;
#METER:8;
#RADARVALUES:0.618434,0.777162,0.662696,0.507780,0.073155,367.000000,77.000000,59.000000,0.000000,0.000000,0.000000,0.000000,0.000000,0.618434,0.777162,0.662696,0.507780,0.073155,367.000000,77.000000,59.000000,0.000000,0.000000,0.000000,0.000000,0.000000;
#CREDIT:;
#NOTES:
0000
0000
0000
0000
,
0101
0000
0000
1001
0000
0000
0011
0000
,
0000
0110
0000
0000
1100
0000
1010
0000
,
0001
0100
0010
0000
1000
0010
0100
0000
,
0001
0010
0100
0010
0001
1000
0000
0000
,
1001
0000
1000
0010
1000
0000
1000
0100
,
1000
0000
0001
1000
0001
0100
0010
0000
,
1010
0000
0000
0101
0000
0000
0011
0000
,
0000
1100
0000
0000
1001
0000
0110
0000
,
2001
0000
3020
0000
,
0130
0000
0001
0000
0000
1010
0000
0101
,
0000
1001
0000
0100
0100
0000
1000
0010
,
0000
1001
0000
0001
0100
0000
1010
0000
,
0000
0101
0000
0000
0001
0000
0010
0000
,
0100
0000
1001
0000
0000
0110
0000
0000
,
0000
0101
0000
0000
0000
1100
0000
1001
,
0000
1010
0000
0000
1000
0001
0100
0001
,
1000
0000
0020
1000
1030
0000
0002
1000
,
1003
0000
0010
0000
0000
0101
0000
1100
,
0000
0110
0000
1000
1000
0000
0001
0100
,
0000
1010
0000
1000
0100
0000
0011
0000
,
0000
0110
0000
0000
1000
0000
0010
0000
,
0100
0000
1000
0000
0101
0000
0001
1000
,
0100
0000
0010
0000
0000
0000
0001
0000
1000
0000
0000
0000
0010
0000
0000
0010
,
0000
0110
0000
0000
2002
0000
3003
0000
,
0000
0020
0000
0000
0100
0000
1000
0000
,
0130
0000
0000
0000
0002
0000
0000
0000
0000
0000
0000
1000
2003
0000
0000
0000
,
3010
0010
0000
0000
2001
0000
0000
0010
0000
0010
0000
0100
3000
0000
1000
0000
,
0002
0000
0000
0100
0000
0100
0000
1000
0003
0000
0010
0000
2000
0000
0010
0000
,
3100
0000
1000
0000
0020
0000
0000
0230
0000
0000
0302
0000
0023
0000
0230
0000
,
2300
3002
0203
0000
0010
0000
0320
0001
,
0100
1030
0001
0100
0000
1010
0000
0011
,
0000
1001
0000
1000
0010
0000
0100
0001
,
1000
1001
0000
0001
0010
0100
0000
1000
,
0001
0000
1000
0100
0010
0100
1000
0010
,
0100
0010
1010
0000
1000
0100
1000
0001
,
1000
0010
0010
0000
0100
0000
0002
1000
,
1000
1003
0100
0100
0000
0010
0010
0000
,
0001
0001
0000
0100
0100
0000
0020
0000
,
1030
0002
1000
1000
,
1003
0010
1000
0100
,
1000
0000
0002
0000
0003
0001
0020
0000
,
0030
0010
0200
0000
1300
0000
0020
0000
,
0130
0001
2001
0000
0000
0100
3200
0000
,
0300
0000
0120
0000
0000
0001
0032
0000
,
1003
2200
3300
0202
,
0303
0000
0000
0000
0220
0000
0000
0000
0330
0000
0000
0000
2001
0000
0000
0001
,
0000
3001
0010
0100
1000
0000
0001
0100
,
0010
0000
1000
0010
0100
0000
0010
0100
,
0001
1000
0100
0000
0000
0100
1000
0000
,
0000
1000
0002
0000
0203
0000
0320
0000
,
0100
2030
3002
0203
,
0000
0302
0023
0230
,
2300
0000
3001
0100
0001
0100
0010
1000
,
0010
0000
1000
0000
0001
0000
0010
0000
0100
0000
1000
0000
0010
0000
0000
0010
,
0000
0010
0020
0000
0000
0000
0000
0000
,
0000
0000
0000
0130
,
0001
0001
0000
0000
0000
0000
1000
1000
,
0000
0000
0000
0000
,
0100
0100
0000
0000
0000
0000
0010
0010
,
0000
0000
0000
0000
,
1001
1001
0000
0000
0110
0110
0000
0000
,
1000
0000
0000
0010
0000
0000
0100
0000
0000
0001
0000
0000
0010
0000
0100
0000
,
2000
0000
0002
3003
,
0110
0000
0001
1000
0000
1010
0000
1010
,
0000
1001
0000
0100
0010
0000
0001
1000
,
0000
0110
0000
0001
0010
0100
1000
0001
,
0100
0010
0000
1000
0001
0000
0010
0000
,
0100
0000
0011
0000
0000
1100
0000
0000
,
0000
0110
0000
0000
0000
1001
0000
1100
,
0000
1010
0000
0000
0001
0000
0010
0000
,
0100
0000
1000
0100
0010
0100
1000
0010
,
0100
0000
1000
0001
0000
0011
0000
0011
,
0000
1001
0000
0100
0010
0000
1000
0001
,
0000
0110
0000
1000
0010
0100
0001
1000
,
0100
0010
0000
0001
1000
0000
0001
0000
,
0010
0000
0100
0000
1001
0000
1000
0001
,
0100
0000
0010
0000
0000
0000
1000
0000
0001
0000
0000
0000
0100
0000
0000
0100
,
0000
0110
0000
0000
2002
0000
0003
0000
,
0000
0000
3200
0000
1000
0000
0000
0000
1300
0000
0000
0000
0001
0000
0000
0001
,
0000
0000
0001
0000
0200
0000
0000
0000
0000
0000
0300
0010
2000
0000
3000
0000
,
0100
0000
1001
0000
0011
0000
0000
1100
,
0000
0000
1010
0000
0000
0101
0000
0000
,
1001
0110
0000
2020
,
0000
0000
0000
0000
,
0000
0000
0000
0000
,
3030
0000
0000
0000
;

//---------------dance-single - ----------------
#NOTEDATA:;
#CHARTNAME:;
#STEPSTYPE:dance-single;
#DESCRIPTION:;
#CHARTSTYLE:;
#DIFFICULTY:Easy;
#METER:5;
#RADARVALUES:0.361471,0.444093,0.129097,0.430322,0.008606,229.000000,15.000000,50.000000,0.000000,0.000000,0.000000,0.000000,0.000000,0.361471,0.444093,0.129097,0.430322,0.008606,229.000000,15.000000,50.000000,0.000000,0.000000,0.000000,0.000000,0.000000;
#CREDIT:;
#NOTES:
0000
0000
0000
0000
,
1000
0000
0000
0010
0000
0000
0100
0000
,
0000
0010
0000
0000
1000
0000
0001
0000
,
0010
0000
0000
0100
0000
0000
0010
0000
,
0000
0001
0000
0000
1000
0000
0000
0000
,
1000
0010
1000
0100
,
0010
0001
0100
0001
,
2000
0000
0000
3020
0000
0000
0230
0000
,
0000
0302
0000
0000
1003
0000
0100
0000
,
0020
0000
0230
0000
,
1300
0000
0001
0000
0000
1000
0000
1000
,
0000
0100
0000
0000
0000
0000
1000
0000
,
0000
0001
0000
0000
0100
0000
0010
0000
,
0000
0010
0000
0000
0100
0000
0001
0000
,
1000
0000
0010
0000
0000
1000
0000
0000
,
0000
0001
0000
0000
0000
0010
0000
0010
,
0000
0010
0000
0000
0001
0000
1000
0000
,
0001
1000
0010
0100
,
0001
0000
1000
0000
0000
0001
0000
0001
,
0000
0100
0000
0000
0000
0000
0001
0000
,
0000
1000
0000
0000
0100
0000
0010
0000
,
0000
0010
0000
0000
0100
0000
1000
0000
,
0001
0010
1001
1000
,
0000
0010
0000
0000
0100
0000
0002
0000
,
0000
0003
0000
0000
0220
0000
0330
0000
,
0000
2002
0000
0000
0000
0000
3003
0000
,
0000
2000
0000
3002
,
0103
2010
0100
3001
,
0010
0000
0000
0001
0000
0000
0000
1000
0000
0000
0000
0000
0010
0000
0100
0000
,
0010
2000
0000
3002
,
0000
0000
0203
0000
0320
0000
1030
1000
,
0001
0001
0010
0000
0000
0100
0000
1000
,
0000
0100
0000
0000
1000
0000
0001
0000
,
0000
0100
0000
0000
0000
0010
0000
0000
,
1000
0001
0010
1000
,
0010
0000
0001
0000
0000
0100
0000
0000
,
0010
1000
0100
0010
,
0001
0000
1000
0000
0000
0010
0000
0000
,
0100
0000
0000
0001
0000
0000
0010
0000
,
0000
0200
0000
0000
,
0000
1300
0100
0010
,
0100
2000
0000
3020
,
0000
0230
0000
0301
,
1000
0200
0000
0310
,
0000
0002
0000
1003
,
0000
0020
0000
0200
,
0330
2002
0000
3003
,
0000
1000
0100
0010
,
0100
1000
0010
0100
,
0001
1000
1000
0001
,
0001
0100
0100
0010
,
1000
0020
0230
0302
,
0003
2000
3200
0320
,
0032
2003
0000
3002
,
0000
0203
0000
0310
,
0000
2002
0000
0000
,
0000
0000
0000
3003
,
1000
0000
0000
0001
,
0000
0000
0000
0000
,
0100
0000
0000
0010
,
0000
0000
0000
0000
,
1000
0000
0001
0000
,
0010
0000
0000
0100
0000
0000
0010
0000
,
0002
0000
2003
0000
,
3000
0000
0001
0000
0000
1000
0000
1000
,
0000
0010
0000
0000
0000
0000
1000
0000
,
0000
0001
0000
0000
0010
0000
0100
0000
,
0000
0100
0000
0000
0010
0000
0001
0000
,
1000
0000
0100
0000
0000
1000
0000
0000
,
0000
0001
0000
0000
0000
0100
0000
0100
,
0000
0100
0000
0000
0001
0000
1000
0000
,
0001
1000
0100
0010
,
0001
0000
1000
0000
0000
0001
0000
0001
,
0000
0010
0000
0000
0000
0000
0001
0000
,
0000
1000
0000
0000
0010
0000
0100
0000
,
0000
0100
0000
0000
0010
0000
1000
0000
,
0001
0010
1001
1000
,
0000
0010
0000
0000
0100
0000
0002
0000
,
0000
0003
0000
0000
0220
0000
0330
0000
,
0000
2002
0000
0000
0000
0000
3003
0000
,
0000
0020
0000
0230
,
0000
0000
0310
0000
1001
0000
0000
0110
,
0000
0000
1001
0000
0000
0110
0000
0000
,
1001
1001
0000
0020
,
0000
0000
0000
0000
,
0000
0000
0000
0000
,
0030
0000
0000
0000
;
