#TITLE:ハッピーシンセサイザ;
#SUBTITLE:;
#ARTIST:EasyPop;
#TITLETRANSLIT:Happy Synthesizer;
#SUBTITLETRANSLIT:;
#ARTISTTRANSLIT:;
#GENRE:;
#CREDIT:;
#BANNER:[ROUND G] - Happy Synthesizer.png;
#BACKGROUND:[ROUND G] - Happy Synthesizer-bg.png;
#LYRICSPATH:;
#CDTITLE:cdtitle.png;
#MUSIC:[ROUND G] - Happy Synthesizer.ogg;
#OFFSET:-0.040327;
#SAMPLESTART:54.831505;
#SAMPLELENGTH:15.118111;
#SELECTABLE:YES;
#BPMS:0.000000=126.999992
;
#STOPS:
;
#BGCHANGES:;
#KEYSOUNDS:;
#ATTACKS:;

//---------------dance-single - ----------------
#NOTES:
     dance-single:
     :
     Hard:
     8:
     0.514254,0.477921,0.011179,0.268306,0.514254,322.000000,321.000000,1.000000,24.000000,0.000000,0.000000,0.514254,0.477921,0.011179,0.268306,0.514254,322.000000,321.000000,1.000000,24.000000,0.000000,0.000000:
0000
0000
0000
0000
,
0000
0000
0000
0000
,
0000
0000
0000
0000
,
0000
0000
0000
0000
,
0000
0000
0000
0000
,
1000
0000
0100
0000
0010
0000
0100
0000
1000
0000
0010
1000
0000
0001
0010
0000
,
0001
0000
0100
0000
0010
0000
0100
0000
0001
0000
0010
0001
0000
1000
0010
0000
,
1000
0000
0100
0000
0010
0000
0100
0000
1000
0000
0010
0100
0000
0001
1000
0000
,
0100
0000
0010
0000
0001
0000
0100
0000
0010
0000
1000
0001
0000
0001
1000
0000
,
0001
0000
0010
0000
0100
0000
0010
0000
0001
0000
0100
0010
0000
1000
0100
0000
,
1000
0000
0010
0000
0100
0000
0010
0000
1000
0000
0100
0010
0000
0001
0100
0000
,
0001
0000
1000
0000
0100
0000
1000
0000
0001
0000
0100
0010
0000
1000
0001
0000
,
1000
0000
0100
0000
0010
0000
0001
0000
0100
0000
0000
0100
0000
0010
1000
0000
,
0001
0000
0010
0000
0001
0000
0100
0000
0020
0000
0000
1030
0000
0000
1000
0000
,
0010
0001
0010
2000
0000
3200
0000
0310
,
0001
0000
0100
0000
0010
0000
1000
0000
0001
0010
0000
0002
0000
0000
0103
0000
,
0010
0000
1000
0100
0000
0100
0020
0000
0000
0000
0031
0000
1000
0000
0001
0000
,
1000
0000
0010
0000
1000
0000
0100
0000
0010
0001
0000
0020
0000
0000
0031
0000
,
0010
0000
1000
0000
0010
0000
0001
0000
0100
0010
0000
2000
0000
3000
0001
0000
,
1000
0000
0100
0000
0010
0000
0001
0000
0100
0010
0000
0200
0000
0000
0301
0000
,
0010
0000
0100
1000
0000
0001
1000
0002
0000
0000
1000
0000
1003
0000
0000
0000
,
0001
0000
0100
0000
0001
0000
1000
0100
0000
0010
0000
0002
0000
0000
0013
0000
,
1000
0000
0010
0001
0000
0100
0000
0010
0000
1000
0000
0002
0000
0000
0003
0000
,
1000
0000
0100
0000
1000
0000
0001
0100
0000
0010
0000
2000
0000
0000
3010
0000
,
0001
0000
0010
1000
0000
0100
0000
0020
0000
0000
0100
0000
0130
0000
0000
0000
,
1000
0000
0001
0000
1000
0000
0010
0100
0000
0001
0000
0020
0000
0000
1030
0000
,
0010
0000
0001
0100
0000
0010
0000
1000
0000
0001
0010
0002
0000
0000
0000
0000
,
1003
0000
0010
0000
1000
0000
0100
0010
0000
0001
0000
0200
0000
0000
0310
0000
,
1000
0000
1000
0001
0000
2000
0000
0002
0000
0000
0000
0000
3003
0000
0000
0000
,
1000
0000
0100
0000
0010
0000
0100
0000
1000
0000
0010
0100
0000
0100
0001
0000
,
1000
0000
0100
0000
0010
0000
0100
0000
0001
0000
0100
1000
0000
0000
1000
0000
,
0010
0000
0001
0010
0000
1000
0000
0100
0000
0010
0000
0002
0000
0000
0103
0000
,
0010
0000
1000
0000
0001
0000
0020
0000
0100
0030
0000
0010
0000
0100
1000
0000
,
0001
0000
0100
0000
0010
0000
1000
0000
0001
0010
0000
0200
0000
0000
0310
0000
,
0001
0000
0100
0000
0010
0000
0100
0000
1000
0000
0100
0001
0000
0000
0001
0000
,
0010
0000
1000
0010
0000
0001
0000
0100
0000
0010
0000
2000
0000
0000
3010
0000
,
0100
0000
0001
0000
1000
0000
0100
0000
0010
0001
0000
0001
0000
0000
0001
0000
,
1000
0000
0100
0000
0010
0000
0001
0000
1000
0000
0010
0100
0000
0100
0001
0000
,
0000
0000
1000
0000
0001
0000
0010
0000
1000
0000
0010
0001
0000
0001
0100
0000
,
0000
0000
0001
0000
0010
0000
0100
0000
1000
0000
0010
0100
0000
0000
0001
0000
,
0100
0000
1000
0000
0100
0000
0002
0000
0010
0003
0000
0010
0000
0001
1000
0000
,
0001
0000
0100
0000
0010
0000
1000
0000
0001
0000
0010
0100
0000
0100
1000
0000
,
0000
0000
0001
0000
1000
0000
0010
0000
0001
0000
0010
1000
0000
1000
0100
0000
,
0000
0000
0010
0000
0001
0000
0100
0000
0010
0000
1000
0001
0000
0000
1000
0000
,
0100
0000
0001
0000
0100
0000
2000
0000
0001
0000
3000
0001
0000
0100
0010
0000
,
0110
0000
0000
0000
;

//---------------dance-single - ----------------
#NOTES:
     dance-single:
     :
     Medium:
     5:
     0.325801,0.352152,0.067077,0.122974,0.011179,204.000000,198.000000,6.000000,11.000000,0.000000,0.000000,0.325801,0.352152,0.067077,0.122974,0.011179,204.000000,198.000000,6.000000,11.000000,0.000000,0.000000:
// measure 0
0000
0000
0000
0000
,  // measure 1
0000
0000
0000
0000
,  // measure 2
0000
0000
0000
0000
,  // measure 3
0000
0000
0000
0000
,  // measure 4
0000
0000
0000
0000
,  // measure 5
1000
0000
0100
0000
1000
0000
0010
0100
,  // measure 6
0001
0000
0100
0000
0001
0000
0010
0100
,  // measure 7
1000
0000
0010
0000
1000
0000
0010
0100
,  // measure 8
0001
0000
1000
0000
0001
0010
0100
0000
,  // measure 9
1000
0000
0001
0000
1000
0000
0100
1000
,  // measure 10
0010
0000
0100
0000
0010
0000
0100
0001
,  // measure 11
1000
0000
0100
0000
1000
0000
0010
0100
,  // measure 12
0001
0000
1000
0100
0010
0000
0000
0000
,  // measure 13
0001
0100
0001
0000
1000
0000
0010
0000
,  // measure 14
1000
0001
1000
0000
0100
0000
0010
0000
,  // measure 15
0001
1000
0001
0000
0100
0000
0010
0000
,  // measure 16
1000
0001
0010
0001
2000
0000
3000
0000
,  // measure 17
1000
0100
1000
0000
0001
0000
0010
0000
,  // measure 18
0001
1000
0001
0000
0100
0000
0010
0000
,  // measure 19
1000
0001
1000
0000
0100
0000
0010
0000
,  // measure 20
0001
0000
0000
0000
1000
0000
0000
2002
0000
0000
0000
0000
3003
0000
0000
0000
,  // measure 21
1000
0100
0010
0000
0010
0001
0100
0000
,  // measure 22
0010
0000
1000
0000
0001
1000
0100
0000
,  // measure 23
0010
0001
1000
0000
1000
0010
0100
0000
,  // measure 24
0010
1000
0010
1000
0002
0000
0003
0000
,  // measure 25
0001
0010
0100
0000
0100
1000
0010
0000
,  // measure 26
0100
0000
0001
0000
1000
0001
0010
0000
,  // measure 27
0100
1000
0001
0000
0001
0100
0010
0000
,  // measure 28
1000
0000
0000
0000
0001
0000
0000
2002
0000
0000
0000
0000
3003
0000
0000
0000
,  // measure 29
1000
0010
1000
0000
0001
0000
0001
0000
,  // measure 30
1000
0100
1000
0000
0001
0000
0100
0000
,  // measure 31
0010
1000
0100
0000
0100
1000
0010
0000
,  // measure 32
1000
0001
0010
0001
2000
0000
3000
0000
,  // measure 33
0001
0010
0001
0000
1000
0000
1000
0000
,  // measure 34
0001
0100
0001
0000
1000
0000
0100
0000
,  // measure 35
0010
0001
0100
0000
0100
0001
0010
0000
,  // measure 36
1001
0110
2002
3003
,  // measure 37
0000
1000
0100
0000
0010
0000
0001
0100
,  // measure 38
0000
0001
0100
0000
0010
0000
1000
0001
,  // measure 39
0000
1000
0001
0000
1000
0000
0100
0000
,  // measure 40
0010
0001
1000
0001
0020
0000
0030
0000
,  // measure 41
0000
0001
0100
0000
0010
0000
1000
0100
,  // measure 42
0000
1000
0100
0000
0010
0000
0001
1000
,  // measure 43
0000
0001
1000
0000
0001
0000
0100
0000
,  // measure 44
0001
1000
0100
1000
0002
0000
0003
0000
,  // measure 45
0110
0000
0000
0000
;

//---------------dance-single - ----------------
#NOTES:
     dance-single:
     :
     Easy:
     3:
     0.209215,0.226383,0.011179,0.089435,0.000000,131.000000,130.000000,1.000000,8.000000,0.000000,0.000000,0.209215,0.226383,0.011179,0.089435,0.000000,131.000000,130.000000,1.000000,8.000000,0.000000,0.000000:
// measure 0
0000
0000
0000
0000
,  // measure 1
0000
0000
0000
0000
,  // measure 2
0000
0000
0000
0000
,  // measure 3
0000
0000
0000
0000
,  // measure 4
0000
0000
0000
0000
,  // measure 5
1000
0010
1000
0000
,  // measure 6
0001
0010
0001
0000
,  // measure 7
1000
0010
1000
0000
,  // measure 8
0001
0001
1000
1000
,  // measure 9
0001
0100
0001
0000
,  // measure 10
1000
0100
1000
0000
,  // measure 11
0001
0100
0001
0000
,  // measure 12
1000
0100
0010
0000
,  // measure 13
0001
0001
0100
0000
,  // measure 14
0010
0010
1000
0000
,  // measure 15
0001
0001
1000
0000
,  // measure 16
0100
0010
0002
0003
,  // measure 17
1000
1000
0010
0000
,  // measure 18
0100
0100
0001
0000
,  // measure 19
1000
1000
0001
0000
,  // measure 20
0010
0100
2000
3000
,  // measure 21
0001
0100
0010
0000
,  // measure 22
1000
0100
0010
0000
,  // measure 23
0001
0100
0001
0100
,  // measure 24
0010
1000
0002
0003
,  // measure 25
1000
0100
0010
0000
,  // measure 26
0001
0100
0010
0000
,  // measure 27
1000
0100
0010
0001
,  // measure 28
2000
0000
3000
0000
,  // measure 29
0001
0010
0001
0010
,  // measure 30
0100
1000
0001
1000
,  // measure 31
0010
0010
1000
1000
,  // measure 32
0001
0010
0200
0300
,  // measure 33
1000
0010
1000
0010
,  // measure 34
0100
0001
1000
0001
,  // measure 35
0010
0010
0001
0001
,  // measure 36
0100
0010
2000
3000
,  // measure 37
0001
0010
0100
0000
,  // measure 38
0100
0010
0001
0000
,  // measure 39
1000
0010
0100
0001
,  // measure 40
0100
0010
2000
3000
,  // measure 41
0100
0010
0001
0000
,  // measure 42
0100
0010
1000
0000
,  // measure 43
0001
0010
0100
1000
,  // measure 44
0001
0100
0020
0030
,  // measure 45
1001
0000
0000
0000
;

//---------------dance-single - ----------------
#NOTES:
     dance-single:
     :
     Beginner:
     1:
     0.108600,0.150922,0.022359,0.011179,0.000000,68.000000,66.000000,2.000000,1.000000,0.000000,0.000000,0.108600,0.150922,0.022359,0.011179,0.000000,68.000000,66.000000,2.000000,1.000000,0.000000,0.000000:
// measure 0
0000
0000
0000
0000
,  // measure 1
0000
0000
0000
0000
,  // measure 2
0000
0000
0000
0000
,  // measure 3
0000
0000
0000
0000
,  // measure 4
0000
0000
0000
0000
,  // measure 5
1000
0000
0000
0000
,  // measure 6
0001
0000
0000
0000
,  // measure 7
1000
0000
0000
0000
,  // measure 8
0001
0000
1000
0000
,  // measure 9
0001
0000
0000
0000
,  // measure 10
1000
0000
0000
0000
,  // measure 11
0001
0000
0000
0000
,  // measure 12
1001
0000
0000
0000
,  // measure 13
1000
0000
0000
0000
,  // measure 14
0010
0000
0000
0000
,  // measure 15
0100
0000
0001
0000
,  // measure 16
1000
1000
1000
0000
,  // measure 17
0001
0000
0000
0000
,  // measure 18
0010
0000
0000
0000
,  // measure 19
0100
0000
1000
0000
,  // measure 20
0001
0001
0001
0000
,  // measure 21
1000
0000
0000
0000
,  // measure 22
0100
0000
0000
0000
,  // measure 23
1000
0000
0010
0000
,  // measure 24
0100
0100
0100
0000
,  // measure 25
0001
0000
0000
0000
,  // measure 26
0010
0000
0000
0000
,  // measure 27
0001
0000
0100
0000
,  // measure 28
0020
0000
0030
0000
,  // measure 29
1000
0000
0000
0000
,  // measure 30
0001
0000
0000
0000
,  // measure 31
0010
0000
0001
0000
,  // measure 32
0100
0100
0100
0000
,  // measure 33
0001
0000
0000
0000
,  // measure 34
1000
0000
0000
0000
,  // measure 35
0010
0000
1000
0000
,  // measure 36
0100
0100
0100
0000
,  // measure 37
0000
0000
0010
0010
,  // measure 38
0000
0000
0001
0001
,  // measure 39
0000
0000
1000
0000
,  // measure 40
0010
0010
0010
0000
,  // measure 41
0000
0000
0010
0010
,  // measure 42
0000
0000
1000
1000
,  // measure 43
0000
0000
0001
0000
,  // measure 44
0010
0010
0010
0000
,  // measure 45
1001
0000
0000
0000
;
