#VERSION:0.81;
#TITLE:Yabis Starlight;
#SUBTITLE:;
#ARTIST:DAJI;
#TITLETRANSLIT:;
#SUBTITLETRANSLIT:;
#ARTISTTRANSLIT:;
#GENRE:;
#ORIGIN:;
#CREDIT:;
#BANNER:[ROUND F] - Yabis Starlight.bn-png;
#BACKGROUND:[ROUND F] - Yabis Starlight.bg-png;
#PREVIEWVID:;
#JACKET:[ROUND F] - Yabis Starlight-jacket.png;
#CDIMAGE:;
#DISCIMAGE:;
#LYRICSPATH:;
#CDTITLE:;
#MUSIC:[ROUND F] - Yabis Starlight.ogg;
#OFFSET:-0.063000;
#SAMPLESTART:61.492599;
#SAMPLELENGTH:11.428577;
#SELECTABLE:YES;
#BPMS:0.000=168.000;
#STOPS:170.000=0.357,
313.000=0.358;
#DELAYS:;
#WARPS:;
#TIMESIGNATURES:0.000=4=4;
#TICKCOUNTS:0.000=4;
#COMBOS:0.000=1;
#SPEEDS:0.000=1.000=0.000=0;
#SCROLLS:0.000=1.000;
#FAKES:;
#LABELS:0.000=Song Start;
#BGCHANGES:;
#KEYSOUNDS:;
#ATTACKS:
;

//---------------dance-single - ----------------
#NOTEDATA:;
#CHARTNAME:;
#STEPSTYPE:dance-single;
#DESCRIPTION:;
#CHARTSTYLE:;
#DIFFICULTY:Hard;
#METER:9;
#RADARVALUES:0.710946,0.761340,0.100369,0.476752,0.150553,526.000000,12.000000,57.000000,0.000000,0.000000,0.000000,0.000000,0.000000,0.710946,0.761340,0.100369,0.476752,0.150553,526.000000,12.000000,57.000000,0.000000,0.000000,0.000000,0.000000,0.000000;
#CREDIT:;
#NOTES:
// measure 0
0000
0000
0000
0000
,  // measure 1
0000
0000
0000
0000
,  // measure 2
0000
0000
0000
0000
,  // measure 3
0000
0000
0000
0000
,  // measure 4
0000
1000
0100
1000
0001
0100
0010
1000
,  // measure 5
0001
0010
0100
0010
0001
0100
0010
1000
,  // measure 6
0000
0100
0010
0001
0100
0010
1000
0001
,  // measure 7
0100
1000
0100
0001
1000
0100
0010
0002
,  // measure 8
1000
0000
1000
0000
0003
0000
0000
0000
1000
0000
0000
1000
0001
0000
1000
0000
,  // measure 9
2010
0000
0000
0000
,  // measure 10
0000
3200
0320
0032
,  // measure 11
0203
0000
0000
0000
,  // measure 12
0000
0320
2030
3002
,  // measure 13
0023
0000
0000
0000
,  // measure 14
0000
0230
2300
3002
,  // measure 15
0203
0000
0320
0000
,  // measure 16
2030
0000
0000
0000
0000
3002
0023
0230
,  // measure 17
2300
0000
3010
1000
0200
0000
0310
0001
,  // measure 18
2000
0000
3010
0100
0002
0000
0023
0000
,  // measure 19
0230
0000
0310
0001
2000
0000
3010
0100
,  // measure 20
0020
0000
1030
0000
0001
1000
0100
0010
,  // measure 21
0001
1000
0001
0100
0010
1000
0100
0010
,  // measure 22
0001
0010
0100
0010
0001
1000
0010
0100
,  // measure 23
0001
0010
0100
1000
0001
0100
0010
1000
,  // measure 24
0200
0000
0000
0000
0000
0000
0000
0000
0000
0000
1300
0001
1000
0000
0000
0000
,  // measure 25
0010
0100
0001
0100
1000
0100
0001
0010
,  // measure 26
0200
0000
0310
0002
0000
0013
1000
0010
,  // measure 27
0001
0100
0010
1000
0000
0100
0010
0001
,  // measure 28
2000
0000
3100
0010
0000
0010
0100
1000
,  // measure 29
0001
0000
0021
0000
0130
1000
0001
0100
,  // measure 30
0020
0000
1030
0002
0000
1003
0200
0000
,  // measure 31
0310
0010
0100
0010
0001
1000
0001
0100
,  // measure 32
0010
1010
1100
0011
,  // measure 33
0001
1000
0200
0000
0310
0100
0000
0010
,  // measure 34
0001
0000
1000
0100
0000
0100
1000
0010
,  // measure 35
0100
0000
0200
0000
0000
0000
0310
0000
0000
0000
1000
0000
0001
0000
1000
0001
,  // measure 36
2000
0000
3010
0100
0000
0100
1000
0100
,  // measure 37
0002
0013
0100
1000
,  // measure 38
0010
1000
0010
1000
0100
0010
0100
0010
0001
0010
0001
0010
0100
0000
0000
0000
,  // measure 39
1000
0100
0000
1000
0001
0100
0000
0010
,  // measure 40
0000
0000
1000
0000
0001
0000
0000
0010
0001
0000
1000
0000
0100
0000
1000
0100
,  // measure 41
1000
0000
0010
1000
0001
0100
0000
0010
,  // measure 42
0000
0000
0100
0000
0001
0000
1000
0001
1000
0000
0000
0000
1000
0000
0001
0000
,  // measure 43
0010
0100
1000
0001
0100
1000
0000
1000
,  // measure 44
0100
0001
1000
0100
0001
0100
2000
0100
,  // measure 45
3001
0000
2000
0000
0100
0000
3001
0000
2000
0000
3100
0000
1000
0000
0001
1000
,  // measure 46
0001
0000
0010
0000
0000
0000
0100
1000
0100
0000
0010
0000
0110
0000
0010
0000
,  // measure 47
0001
2000
0000
3010
0100
0001
0100
0001
,  // measure 48
0010
0100
1000
0001
1000
0010
0100
0001
,  // measure 49
0100
0001
0010
0001
1000
0001
0000
1000
,  // measure 50
0001
0000
1000
0000
0010
0100
0010
0100
0010
0100
0010
0100
0002
0000
0010
0000
,  // measure 51
0013
0200
1000
1300
0002
0100
0000
0103
,  // measure 52
1000
0100
0010
1000
0100
0010
0100
1000
,  // measure 53
0001
0000
0100
0000
1000
0000
0100
0000
0001
0000
1000
0000
0000
0000
1000
0100
,  // measure 54
1000
0000
0001
0000
0100
0010
0100
0010
0100
0010
0100
0010
1000
0000
0100
0000
,  // measure 55
1000
0001
0100
0001
0010
0100
0010
0001
,  // measure 56
1000
0000
0001
0000
0100
0000
0010
0000
1000
0000
0001
1000
0200
0000
0000
0000
,  // measure 57
0000
2300
0000
0000
3002
0000
0000
1003
,  // measure 58
0100
0000
0010
0000
0001
0000
0100
0010
1000
0001
0100
0010
1000
0000
1000
0000
,  // measure 59
0010
0001
1000
0100
0001
1000
0010
0001
,  // measure 60
1000
0100
0001
0010
0001
0100
0000
1000
,  // measure 61
0100
0001
1000
0100
0001
1000
0010
0001
,  // measure 62
1000
0100
0001
0100
1000
0001
0100
0100
,  // measure 63
0001
0100
0001
0100
1000
0100
0010
0100
,  // measure 64
0010
0000
1000
0100
1000
0000
0010
0000
0100
0000
0001
0000
1000
0000
0100
0000
,  // measure 65
1000
0000
0100
0000
1000
0000
0100
0000
0010
0000
0001
1000
0001
0000
0010
0000
,  // measure 66
0100
0000
0000
1000
0001
0000
1000
0000
0010
0000
0100
0000
0100
0000
0010
0000
,  // measure 67
1000
0000
0100
0000
0010
0000
0100
1000
0100
0000
1000
0000
0010
0000
0100
0000
,  // measure 68
0001
2000
0000
3100
0010
0001
0001
0100
,  // measure 69
0010
1000
0001
1000
0100
0020
0000
0031
,  // measure 70
0010
1000
0010
0001
1000
0100
0200
0000
,  // measure 71
1300
0010
0100
0001
0010
0001
0100
0010
,  // measure 72
0000
0000
0000
0000
0000
0000
0000
0000
0000
0000
0000
0000
0000
0000
0000
0000
0000
0000
0000
0000
0000
0000
0000
0000
0010
0000
0000
0000
0000
0000
0000
0000
0000
0000
0000
0000
0000
0000
0000
0000
0000
0000
0000
0000
0000
0000
0000
0000
1000
0000
0000
0000
0000
0000
0000
0000
0000
0000
0000
0000
0000
0000
0000
0000
0000
0000
0000
0000
0000
0000
0000
0000
0000
0000
0000
0000
0000
0000
0000
0000
0000
0100
0000
0000
0000
0000
0000
0000
0000
0000
0000
0000
0000
0000
0000
0000
0000
0000
0000
0000
0000
0000
0000
0000
0000
0000
0000
0000
0000
0000
0000
0000
0000
0000
0000
0000
0000
0000
0000
0000
0000
0000
0000
0000
0100
0000
0000
0000
0000
0000
0000
0000
0000
0000
0000
0000
0000
0000
0000
0000
0000
0000
0000
0000
0020
0000
0000
0000
0000
0000
0000
0000
0000
0000
0000
0000
0000
0000
0000
0000
0000
0000
0000
0000
0000
0000
0000
0000
0000
0000
0000
0000
0000
0000
0000
0000
0000
0000
0000
0000
0000
0000
0000
0000
0000
0000
0000
0000
0000
0000
0000
0000
,  // measure 73
0031
1000
0020
0000
0130
0001
0100
0010
,  // measure 74
0100
0000
0000
0010
1000
0000
0001
0000
0100
0000
0001
0000
0020
0000
0100
0000
,  // measure 75
0000
0031
1000
0010
0000
0100
0000
0100
,  // measure 76
0000
0000
0010
0000
1000
0000
0001
0000
0000
0000
0010
0100
0010
0000
0000
0000
,  // measure 77
0000
0001
1000
0010
0000
0100
0000
0100
,  // measure 78
0001
0000
0000
0000
1000
0000
1000
0100
1000
0000
1000
0000
0000
0000
1100
0000
,  // measure 79
0100
0000
0110
0010
0000
0011
0001
0000
,  // measure 80
1001
1000
0010
1000
1010
0010
0100
0001
,  // measure 81
0001
0010
0100
0100
1000
0010
0010
0100
,  // measure 82
0001
0010
0100
2002
0000
0000
3003
0000
;

//---------------dance-single - ----------------
#NOTEDATA:;
#CHARTNAME:;
#STEPSTYPE:dance-single;
#DESCRIPTION:;
#CHARTSTYLE:;
#DIFFICULTY:Medium;
#METER:6;
#RADARVALUES:0.546054,0.587419,0.393111,0.568757,0.000000,342.000000,47.000000,68.000000,0.000000,0.000000,0.000000,0.000000,0.000000,0.546054,0.587419,0.393111,0.568757,0.000000,342.000000,47.000000,68.000000,0.000000,0.000000,0.000000,0.000000,0.000000;
#CREDIT:;
#NOTES:
// measure 0
0000
0000
0000
0000
,  // measure 1
0000
0000
0000
0000
,  // measure 2
0000
0000
0000
0000
,  // measure 3
0000
0000
0000
0000
,  // measure 4
1000
1000
0000
0100
0100
0000
0010
0010
,  // measure 5
0000
0001
0001
0000
1000
1000
0000
0010
,  // measure 6
0100
0100
0000
0010
0010
0000
1000
1000
,  // measure 7
0000
0001
0001
0000
0010
0100
1000
0002
,  // measure 8
0000
0003
0000
0000
,  // measure 9
1200
0000
0000
0000
,  // measure 10
0000
0320
0032
2003
,  // measure 11
3020
0000
0000
0000
,  // measure 12
0000
0230
0302
2003
,  // measure 13
3200
0000
0000
0000
,  // measure 14
0000
0320
0230
0320
,  // measure 15
0032
0000
0203
0000
,  // measure 16
0320
0000
0000
0000
0030
1000
0100
0010
,  // measure 17
0002
0103
0020
1030
,  // measure 18
0002
0013
0200
2300
,  // measure 19
3020
0130
2000
3100
,  // measure 20
0002
0000
0010
0000
1003
0100
1000
0100
,  // measure 21
0010
0000
0001
0000
0100
0000
0010
1000
,  // measure 22
0001
0000
0010
0000
0100
0000
0010
0001
,  // measure 23
1000
0000
0010
0000
0100
0000
0001
0010
,  // measure 24
0200
0000
0000
0000
0000
1000
1300
0000
,  // measure 25
0001
0000
0100
0000
1000
0100
0000
0001
,  // measure 26
0200
0000
0000
0320
0000
0000
0230
0000
,  // measure 27
0301
1000
0000
0100
0000
1000
0000
0010
,  // measure 28
0100
0000
0100
0001
0000
0001
0010
0100
,  // measure 29
1000
0002
1003
0001
,  // measure 30
0200
0000
0000
0320
0000
0000
2030
0000
,  // measure 31
3001
0010
0000
0100
0000
1000
0001
1000
,  // measure 32
0002
0203
0320
2030
,  // measure 33
3001
0000
0020
0000
0130
0010
0000
0001
,  // measure 34
1000
0000
0001
0100
0000
0010
1000
0001
,  // measure 35
2000
0100
0001
3010
,  // measure 36
0200
0000
0310
1000
0000
0100
0010
0001
,  // measure 37
2000
3001
0011
0110
,  // measure 38
1100
1010
0110
0101
,  // measure 39
1001
0000
0000
0100
0001
1000
0000
0001
,  // measure 40
0000
0001
1000
0000
0001
0010
0000
0100
,  // measure 41
0110
0000
0000
1000
0001
0100
0000
0010
,  // measure 42
0000
1000
0001
0000
1001
0000
1100
0000
,  // measure 43
0000
0101
0000
0000
1100
0000
0000
0101
,  // measure 44
0000
1100
0101
1010
,  // measure 45
0000
1100
0000
0000
0011
0000
0000
0001
,  // measure 46
0010
0200
0000
1300
0001
1000
1010
0000
,  // measure 47
0000
0110
0000
0000
0101
0000
0000
1001
,  // measure 48
0000
1100
0101
0110
,  // measure 49
0000
1001
0000
0000
0110
0000
0000
1000
,  // measure 50
0001
0100
0020
0000
2030
0000
3001
0000
,  // measure 51
0000
0011
0000
0000
0110
0000
0000
1100
,  // measure 52
0000
0101
0110
1010
,  // measure 53
0000
1001
0000
0000
0110
0000
0000
1000
,  // measure 54
0001
0000
0100
0010
0100
0010
1000
0000
,  // measure 55
0000
1001
0000
0000
1100
0000
0000
1001
,  // measure 56
0000
0101
1001
2200
,  // measure 57
3300
0220
0000
0330
0022
0000
0033
0001
,  // measure 58
1000
0001
0100
0010
1000
0000
0001
0010
,  // measure 59
0100
0000
0010
0000
0001
0000
1000
0001
,  // measure 60
0100
0000
0010
1000
0001
0000
0010
0001
,  // measure 61
0100
0000
0010
0000
1000
0000
0001
1000
,  // measure 62
0100
0000
0010
0001
0100
0010
2000
0000
,  // measure 63
0100
3100
0020
0032
,  // measure 64
1003
0020
0130
0002
,  // measure 65
0010
0000
0013
0000
0100
1000
2000
0000
,  // measure 66
0001
0000
0001
0000
3001
0000
1000
0100
,  // measure 67
0010
0000
0001
0100
0010
0000
1000
0100
,  // measure 68
0010
0001
0000
0010
0100
0010
0000
0100
,  // measure 69
1000
0100
1000
0000
0010
2000
0000
0000
,  // measure 70
0100
0100
3100
0012
,  // measure 71
1000
0100
1000
0103
,  // measure 72
0010
1000
0100
0000
0010
0001
0200
0000
,  // measure 73
1000
0320
0001
2030
,  // measure 74
0100
0000
3002
0000
0023
0032
0023
0230
,  // measure 75
0000
1000
1000
0000
0000
0001
0000
1000
,  // measure 76
1000
0000
0001
0000
0300
1000
1020
0000
,  // measure 77
0000
0001
0001
0001
0000
1000
0000
1000
,  // measure 78
0000
0100
0130
0000
0001
0010
0000
0100
,  // measure 79
1000
0000
0001
0100
0000
0010
1000
0000
,  // measure 80
0100
0010
0001
1000
0010
0100
0000
0001
,  // measure 81
1000
0000
0100
0010
0000
0001
0100
0010
,  // measure 82
1000
0001
0010
0220
0000
0330
0000
0000
;

//---------------dance-single - ----------------
#NOTEDATA:;
#CHARTNAME:;
#STEPSTYPE:dance-single;
#DESCRIPTION:;
#CHARTSTYLE:;
#DIFFICULTY:Easy;
#METER:4;
#RADARVALUES:0.315445,0.378945,0.025092,0.443296,0.000000,208.000000,3.000000,53.000000,0.000000,0.000000,0.000000,0.000000,0.000000,0.315445,0.378945,0.025092,0.443296,0.000000,208.000000,3.000000,53.000000,0.000000,0.000000,0.000000,0.000000,0.000000;
#CREDIT:;
#NOTES:
0000
0000
0000
0000
,
0000
0000
0000
0000
,
0000
0000
0000
0000
,
0000
0000
0000
0000
,
0000
0000
0000
0000
,
0000
0000
0000
0000
,
0000
0000
0000
0000
,
0000
0000
0000
0000
,
0000
0000
0000
0000
,
2000
0000
0000
0000
,
0000
3002
0023
0230
,
2300
0000
0000
0000
,
0000
3002
0203
0320
,
2030
0000
0000
0000
,
0000
3002
2003
3200
,
0320
0000
0230
0000
,
2300
0000
0000
3001
,
0200
0000
0320
0000
,
2030
0000
3200
0320
,
0032
0000
2003
0000
,
3020
0000
0030
0100
,
0001
1000
0100
0010
,
0001
1000
0001
0100
,
0010
1000
0100
0010
,
1001
0000
0000
0110
,
0002
0000
1003
0001
,
2000
0000
3001
0100
,
0010
1000
1000
1000
,
0100
0000
0010
0100
,
0010
0002
0000
1003
,
0001
0000
0100
0000
,
0010
0010
0000
0010
,
1000
1000
1000
1000
,
0001
0010
0000
0010
,
0100
0000
0100
1000
,
0002
0000
0103
0000
,
0100
0000
0100
0010
,
2000
0000
3200
0320
,
0032
0203
0320
2030
,
3002
0000
1000
0000
,
1003
0001
1000
0000
,
2000
0000
0001
0000
,
3001
1000
0001
1000
,
0000
0001
0000
0000
1000
0000
0000
0001
,
0000
1000
0001
1000
,
0000
0001
0000
0000
1000
0000
0001
0000
,
0100
0000
0001
0001
,
0000
1000
0000
0000
0001
0000
0000
1000
,
0000
0001
1000
0001
,
0000
1000
0000
0000
0001
0000
0000
0000
,
0010
0200
0000
1300
,
0000
1000
0000
0000
0001
0000
0000
0001
,
0000
1000
0001
1000
,
0000
1000
0000
0000
0001
0000
0000
0000
,
0100
0020
0000
1030
,
0000
0100
0000
0000
0010
0000
0000
0001
,
0000
1000
0001
0200
,
0300
0020
0000
0030
2000
0000
0000
3000
,
0001
1000
0001
1000
,
1000
0100
0010
0001
,
1000
0001
0100
0100
,
0010
1000
0100
0010
,
0001
0010
0100
2000
,
0100
0000
0100
3002
,
0000
0203
0000
0320
,
0000
0000
0000
1030
,
0100
0010
0001
1000
,
0010
0100
0010
1000
,
0200
0000
0320
0000
,
0031
1000
0002
0000
,
0103
0000
0100
0020
,
1000
0000
1000
0000
,
1030
0100
0010
0002
,
0000
2003
0000
3020
,
0000
0230
0000
0301
,
0000
1000
0000
0001
,
1000
0100
0000
1000
,
0000
0001
0000
1000
,
0001
0000
0100
0000
0010
0000
0000
0010
,
0000
0000
1000
0000
0000
1000
0000
0000
,
0001
0000
1000
0000
0001
0000
0000
0001
,
0000
0000
0010
0000
0000
0010
0000
0000
,
0100
0000
0000
1001
0000
0000
0000
0000
;

//---------------dance-single - ----------------
#NOTEDATA:;
#CHARTNAME:;
#STEPSTYPE:dance-single;
#DESCRIPTION:;
#CHARTSTYLE:;
#DIFFICULTY:Beginner;
#METER:2;
#RADARVALUES:0.132630,0.171986,0.000000,0.092005,0.000000,100.000000,0.000000,11.000000,0.000000,0.000000,0.000000,0.000000,0.000000,0.132630,0.171986,0.000000,0.092005,0.000000,100.000000,0.000000,11.000000,0.000000,0.000000,0.000000,0.000000,0.000000;
#CREDIT:;
#NOTES:
0000
0000
0000
0000
,
0000
0000
0000
0000
,
0000
0000
0000
0000
,
0000
0000
0000
0000
,
0000
0000
0000
0000
,
0000
0000
0000
0000
,
0000
0000
0000
0000
,
0000
0000
0000
0000
,
0000
0000
0000
0000
,
1000
0000
0000
0000
,
0000
0000
0000
0000
,
0001
0000
0000
0000
,
0000
0000
0000
0000
,
0100
0000
0000
0000
,
0000
0000
0000
0000
,
0010
0000
0010
0000
,
0010
0000
0000
0000
,
1000
0000
0000
0000
,
0001
0000
0000
0000
,
0010
0000
0000
0000
,
0100
0000
0000
0000
,
1000
0000
1000
0000
,
1000
0000
0000
0000
,
0001
0000
0001
0000
,
0001
0000
0000
0000
,
0100
0000
0000
0000
,
0010
0000
0000
0000
,
1000
0000
1000
0000
,
1000
0000
0000
0000
,
0001
0000
0000
0000
,
0010
0000
0010
0000
,
0010
0000
0000
0000
,
0100
0000
0100
0000
,
0100
0000
0000
0000
,
1000
0000
1000
0000
,
1000
0000
0000
0000
,
0001
0000
0001
0000
,
0001
0000
0100
0000
,
0001
0000
0100
0000
,
2000
3000
0000
0000
,
0002
0003
0000
0000
,
0020
0030
0000
0000
,
0200
0300
0000
1000
,
0000
0000
1000
0000
,
0000
1000
0000
0001
,
0000
0000
0001
0001
,
0000
0000
0000
1000
,
0000
0000
1000
0000
,
0000
1000
0000
0001
,
0000
0000
0001
0000
,
1000
1000
0000
0100
,
0000
0000
0100
0000
,
0000
0100
0000
0010
,
0000
0000
0010
0000
,
0010
0010
0000
0001
,
0000
0000
0001
0000
,
0000
0001
0000
1000
,
0000
0000
2000
3000
,
0100
0100
0000
0010
,
0000
0010
0000
0010
,
0000
0000
0000
0001
,
0000
0001
0000
0001
,
0000
0000
0000
2000
,
3000
0000
0000
0010
,
0000
0010
0000
0020
,
0030
0000
0000
2000
,
3000
0000
0000
0001
,
0000
0001
0000
0001
,
0000
0000
0000
1000
,
0000
1000
0000
1000
,
0000
0000
0000
0200
,
0300
0000
0000
0100
,
0000
0100
0000
0100
,
0000
1000
0000
0001
,
0000
0000
0000
0200
,
0300
0000
0000
0000
,
0000
0000
0000
0020
,
0030
0000
0000
0000
,
0000
0000
1000
0000
,
0000
1000
0000
0000
,
1000
0000
0001
0000
,
0000
0001
0000
0000
,
0001
0001
0000
0000
;
