#TITLE:With you...;
#SUBTITLE:;
#ARTIST:Sota Fujimori;
#TITLETRANSLIT:;
#SUBTITLETRANSLIT:;
#ARTISTTRANSLIT:;
#GENRE:;
#CREDIT:;
#BANNER:With You-bn.png;
#BACKGROUND:With You-bg.png;
#LYRICSPATH:;
#CDTITLE:loodeecdtitle.png;
#MUSIC:With you.ogg;
#OFFSET:-0.546;
#SAMPLESTART:59.200;
#SAMPLELENGTH:16.000;
#SELECTABLE:YES;
#BPMS:0.000=135.000;
#STOPS:;
#BGCHANGES:;
#KEYSOUNDS:;

//---------------dance-single - Loodee----------------
#NOTES:
     dance-single:
     Loodee:
     Challenge:
     10:
     0.924,0.784,0.575,0.445,0.951:
0000
0000
0000
0000
,
0012
0000
0000
1003
0010
0000
0100
0000
0001
0010
0001
1000
0010
0100
0000
0000
,
2001
0000
0000
3010
0100
0000
0001
0000
0010
0001
0100
0000
0010
1000
0000
0000
,
1020
0000
0000
0130
0001
0000
0010
0000
0100
1000
0100
0010
0001
0000
1000
0000
,
0201
0000
0000
0310
0100
0010
1000
0000
0100
0010
0001
0000
0011
0000
1000
0000
,
1020
0000
0000
0130
0001
0000
1000
0000
0100
0010
0100
1000
0001
0100
0000
0000
,
0201
0000
0000
0310
1000
0100
0010
0000
0001
1000
0010
0000
0100
0010
0000
0000
,
1002
0000
0000
0013
0100
0000
1000
0000
0100
1000
0010
0100
0001
0100
0010
1000
,
0200
0000
0000
0310
0200
0000
0000
0310
0100
1000
0001
1000
0010
0000
0100
0000
,
0101
0000
0000
0000
1010
0000
0000
0000
1000
0100
0010
0001
1000
0010
1000
0000
,
1100
0000
0000
0000
0011
0000
0000
0000
0001
0100
0010
1000
0100
0010
0001
0000
,
0011
0000
0000
0000
0101
0000
0000
0000
0100
0001
1000
0010
1000
0100
0010
0000
,
0100
0000
0000
0000
0000
0000
0000
0000
0100
0000
0000
0000
0000
1000
0000
0000
0001
0000
0000
0000
0000
0100
0000
0000
0010
0000
0000
0000
0000
0200
0000
0000
0000
0000
0000
0000
0000
0000
0000
0000
0310
0000
0000
0000
0000
0000
0000
0000
1000
0000
0000
0000
0000
0001
0000
0000
1000
0000
0000
0000
0000
0000
0000
0000
,
1100
0000
0000
0000
0000
0000
0000
0000
0000
0000
0000
0000
1000
0000
0000
0000
0100
0000
0000
0000
0000
1000
0000
0000
0001
0000
0000
0000
0000
0000
0000
0000
0101
0000
0000
0000
0000
0000
0000
0000
0100
0000
0000
0000
0000
0000
0000
0000
0010
0000
0000
0000
0000
1000
0000
0000
0001
0000
0000
0000
0000
0000
0000
0000
,
1001
0000
0000
0000
0000
0000
0000
0000
0000
0000
0000
0000
0001
0000
0000
0000
0010
0000
0000
0000
0000
0100
0000
0000
0010
0000
0000
0000
0000
0000
0000
0000
0011
0000
0000
0000
0000
0000
0000
0000
0001
0000
0000
0000
0000
0000
0000
0000
1000
0000
0000
0000
0000
0010
0000
0000
0100
0000
0000
0000
0000
0000
0000
0000
,
0110
0000
0000
0000
0000
0000
0000
0000
0010
0000
0000
0000
0000
0000
0000
0000
0100
0000
0000
0000
0000
0000
0000
0000
0010
0000
0000
0000
0000
0000
0000
0000
0002
0000
0000
0000
0000
0000
0000
0000
0000
0000
0000
0000
0000
0000
0000
0000
0013
0000
0000
0000
0000
1000
0000
0000
0010
0000
0000
0000
0000
0000
0000
0000
,
1000
0000
0000
0000
0000
0001
0000
0000
0000
0000
0000
0000
0010
0000
0000
0000
0000
0000
0000
0000
0100
0000
0000
0000
0000
0000
0000
0000
1000
0000
0000
0000
0000
0000
0000
0000
0001
0000
0000
0000
0100
0000
0000
0000
0010
0000
0000
0000
0100
0000
0000
0000
0001
0000
0000
0000
1000
0000
0000
0000
0000
0000
0000
0000
,
0200
0000
0320
0000
0130
2000
0000
3001
,
0201
0000
0000
0000
0000
0000
0000
0000
0000
0000
0000
0000
0300
0000
0000
0000
0110
0000
0000
0000
0000
0000
0000
0000
0010
0000
0000
0000
0000
0000
0000
0000
1000
0000
0000
0000
0000
0000
0000
0000
1000
0000
0000
0000
0000
0001
0000
0000
0000
0000
0000
0000
0000
0001
0000
0000
0010
0000
0000
0000
0000
0000
0000
0000
,
0100
0000
0010
0001
0000
1000
0000
0010
0000
0100
0010
0000
1010
0000
0000
0000
,
0001
0000
0000
0000
0000
0010
0000
0000
0100
0000
0000
0000
0000
0000
0000
0000
0010
0000
0000
0000
0000
0100
0000
0000
1000
0000
0000
0000
0000
0000
0000
0000
0001
0000
0000
0000
0000
0100
0000
0000
0010
0000
0000
0000
0000
0000
0000
0000
1001
0000
0000
0000
0000
0000
0000
0000
0000
0000
0000
0000
0000
0000
0000
0000
,
1000
0000
0000
0000
0000
0100
0000
0000
0010
0000
0000
0000
0000
0000
0000
0000
0011
0000
0000
0000
0000
0000
0000
0000
0001
0000
0000
0000
0000
0000
0000
0000
1000
0000
0000
0000
0000
0000
0000
0000
0020
0000
0000
0000
0000
0000
0000
0000
0000
0000
0000
0000
0000
1030
0000
0000
0001
0000
0000
0000
0000
0000
0000
0000
,
0010
0000
0200
0000
0000
0000
0310
0000
2000
0000
3010
0002
0000
1003
0001
0000
,
0100
0000
0000
0000
0000
0000
0000
0000
0010
0000
0000
0000
0100
0000
0000
0000
0001
0000
0000
0000
0000
0000
0000
0000
1000
0000
0000
0000
0000
0000
0000
0000
0100
0000
0000
0000
0010
0000
0000
0000
0010
0000
0000
0000
0000
0000
0000
0000
0001
0000
0000
0000
0000
1000
0000
0000
0001
0000
0000
0000
0000
0000
0000
0000
,
0101
0000
0100
0010
1000
0001
1000
0000
0100
1000
0010
0000
0101
0000
0000
0000
,
1001
0000
0000
0000
0000
0000
0000
0000
0000
0000
0000
0000
0000
0000
0000
0000
1200
0000
0000
0000
0000
0000
0000
0000
0000
0000
0000
0000
0000
0000
0000
0000
0310
0000
0000
0000
0000
0000
0000
0000
0001
0000
0000
0000
0000
1000
0000
0000
0000
0000
0000
0000
0000
0010
0000
0000
1000
0000
0000
0000
0000
0001
0000
0000
,
0010
0000
0000
0000
0000
0000
0000
0000
0010
0000
0000
0000
0000
0000
0000
0000
0100
0000
0000
0000
0000
0000
0000
0000
0010
0000
0000
0000
0000
0000
0000
0000
0001
0000
0000
0000
0000
0000
0000
0000
0000
0000
0000
0000
0000
0000
0000
0000
0101
0000
0000
0000
0000
0100
0000
0000
0010
0000
0000
0000
0000
1000
0000
0000
,
0001
0100
0010
0001
0020
0130
1010
0001
,
1200
0000
0000
0000
0000
0000
0000
0000
0000
0000
0000
0000
0000
0000
0000
0000
0310
0000
0000
0000
0000
0000
0000
0000
0100
0000
0000
0000
0010
0000
0000
0000
0001
0000
0000
0000
0000
0000
0000
0000
1000
0000
0000
0000
0010
0000
0000
0000
0100
0000
0000
0000
0001
0000
0000
0100
0000
0000
0000
0000
0000
0000
0000
0000
,
0220
0000
0000
0000
0000
0000
0000
0330
1001
0000
0000
0000
0000
0000
0000
0000
0001
0000
0010
0000
0100
0000
1000
0000
0010
0000
0010
0000
0100
0000
0000
0000
,
0202
0000
0000
0303
1001
0000
0000
0000
1000
0100
0010
0000
0012
0000
0000
0003
,
2000
0000
0000
0000
0000
0000
0000
0000
0000
0000
0000
0000
0000
0000
0000
0000
3010
0000
0000
0000
0000
0000
0000
0000
0100
0000
0000
0000
0000
0000
0000
0000
0110
0000
0000
0000
0000
0000
0000
0000
0001
0000
0000
0000
0000
0000
0000
0000
1010
0000
0000
0000
0000
0000
0000
0000
0001
0000
0000
0000
0000
0010
0000
0000
,
0100
0000
0000
0000
0000
0010
0000
0000
0000
0000
0000
0000
1000
0000
0000
0000
0000
0000
0000
0000
0010
0000
0000
0000
0100
0000
0000
0000
1000
0000
0000
0000
0001
0000
0000
0000
0000
0010
0000
0000
0001
0000
0000
0000
0000
0100
0000
0000
0010
0000
0000
0000
0000
0000
0000
0000
0000
0000
0000
0000
0000
0000
0000
0000
,
1001
0000
0000
0000
0000
1000
0000
0000
0100
0000
0000
0000
0000
0000
0000
0000
0011
0000
0000
0000
0000
0000
0000
0000
0001
0000
0000
0000
0000
0000
0000
0000
0100
0000
0000
0000
0000
0000
0000
0000
0010
0000
0000
0000
0100
0000
0000
0000
0000
0000
0000
0000
0000
0001
0000
0000
1000
0000
0000
0000
0000
0001
0000
0000
,
0010
0000
0000
0000
0000
0000
0000
0000
0010
0000
0000
0000
0000
0000
0000
0000
0110
0000
0000
0000
0000
0000
0000
0000
0100
0000
0000
0000
0000
0010
0000
0000
0001
0000
0000
0000
0000
1000
0000
0000
0001
0000
0000
0000
0000
0000
0000
0000
0101
0000
0000
0000
0000
0000
0000
0000
0100
0000
0000
0000
0000
0000
0000
0000
,
0010
0000
0000
0000
0000
1000
0000
0000
0010
0000
0000
0000
0000
0000
0000
0000
1001
0000
0000
0000
0000
0000
0000
0000
1000
0000
0000
0000
0000
0100
0000
0000
0010
0000
0000
0000
0000
0000
0000
0000
2000
0000
0000
0000
0000
0000
0000
0000
0000
0000
0000
0000
3000
0000
0000
0000
0010
0000
0000
0000
0000
0000
0000
0000
,
0010
0000
0000
0000
0000
0000
0000
0000
0001
0000
0000
0000
0000
0000
0000
0000
1010
0000
0000
0000
0000
0000
0000
0000
0001
0000
0000
0000
0000
0100
0000
0000
0010
0000
0000
0000
1000
0000
0000
0000
0010
0000
0000
0000
0000
0000
0000
0000
0110
0000
0000
0000
0000
0000
0000
0000
0100
0000
0000
0000
0001
0000
0000
0000
,
1000
0000
0000
0000
0000
0100
0000
0000
0010
0000
0000
0000
0000
0000
0000
0000
0011
0000
0000
0000
0000
0000
0000
0000
0001
0000
0000
0000
0000
0000
0000
0000
1000
0000
0000
0000
0000
0000
0000
0000
0010
0000
0000
0000
0000
0100
0000
0000
0000
0000
0000
0000
0000
0001
0000
0000
0000
0000
0000
0000
0000
1000
0000
0000
,
0001
0000
0000
0000
0000
0010
0000
0000
0100
0000
0000
0000
0000
0000
0000
0000
1100
0000
0000
0000
0000
0000
0000
0000
1000
0000
0000
0000
0000
0000
0000
0000
0020
0000
0000
0000
0000
0000
0000
0000
0230
0000
0000
0000
0000
0000
0000
0000
0000
0000
0000
0000
0000
0000
0000
0000
0301
0000
0000
0000
0000
0000
0000
0000
,
0021
0000
0000
0000
0000
0000
0000
0000
0130
0000
0000
0000
2000
0000
0000
0000
0000
0000
0000
0000
0000
3001
0000
0000
0100
0000
0000
0000
0000
0000
0000
0000
0010
0000
0000
0000
1000
0000
0000
0000
0010
0000
0000
0000
0000
0000
0000
0000
1100
0000
0000
0000
0000
0000
0000
0000
0100
0000
0000
0000
0000
0000
0000
0000
,
0110
0000
0000
0000
0000
0000
0000
0000
0001
0000
0000
0000
0000
0000
0000
0000
1000
0000
0000
0000
0000
0010
0000
0000
1000
0000
0000
0000
0000
0000
0000
0000
0002
0000
0000
0000
0000
0000
0000
0000
0000
0000
0000
0000
0000
0000
0000
0000
0013
0000
0000
0000
0000
0100
0000
0000
1000
0000
0000
0000
0000
0000
0000
0000
,
0020
0000
0000
0000
0000
0000
0000
0000
0230
0000
0000
0000
0000
0000
0000
0000
0000
0000
0000
0000
0300
0000
0000
0000
0100
0000
0000
0000
0000
0000
0000
0000
1001
0000
0000
0000
0000
0000
0000
0000
0001
0000
0000
0000
0010
0000
0000
0000
0000
0000
0000
0000
0000
0001
0000
0000
0000
0000
0000
0000
2000
0000
0000
0000
,
0010
0000
0000
0000
0000
0000
0000
0000
3001
0000
0000
0000
0000
0000
0000
0000
0100
0000
0000
0000
0000
0001
0000
0000
0100
0000
0000
0000
0000
0000
0000
0000
0010
0000
0000
0000
0000
1000
0000
0000
0100
0000
0000
0000
0000
0010
0000
0000
0001
0000
0000
0000
0000
2000
0000
0000
0000
0000
0000
0000
0000
0000
0000
0000
,
3001
0000
0000
0000
0000
0000
0000
0000
0100
0000
0000
0000
0000
0010
0000
0000
0100
0000
0000
0000
0000
0000
0000
0000
0001
0000
0000
0000
0000
1000
0000
0000
0000
0000
0000
0000
0000
0000
0000
0000
0200
0000
0000
0000
0000
0000
0000
0000
0000
0000
0000
0000
0000
0000
0000
0000
0310
0000
0000
0000
0000
0000
0000
0000
,
0002
0000
0000
0000
0000
0000
0000
0000
1003
0000
0000
0000
0000
0000
0000
0000
0010
0000
0000
0000
0000
0100
0000
0000
0010
0000
0000
0000
0000
0000
0000
0000
0001
0000
0000
0000
0000
0000
0000
0000
0010
0000
0000
0000
0000
0000
0000
0000
0110
0000
0000
0000
0000
0000
0000
0000
2000
0000
0000
0000
0000
0000
0000
0000
,
0001
0000
0000
0000
0000
0000
0000
0000
3100
0000
0000
0000
0000
0000
0000
0000
0110
0000
0000
0000
0000
0000
0000
0000
0001
0000
0000
0000
0000
0000
0000
0000
2000
0000
0000
0000
0000
0000
0000
0000
3010
0000
0000
0000
0000
0100
0000
0000
0000
0000
0000
0000
0000
0100
0000
0000
0001
0000
0000
0000
0000
0000
0000
0000
,
0021
0000
0000
0000
0000
0000
0000
0000
0230
0000
0000
0000
0000
0000
0000
0000
0000
0000
0000
0000
0000
0000
0000
0000
0310
0000
0000
0000
0000
0000
0000
0000
0100
0000
0000
0000
0000
0000
0000
0000
1000
0000
0000
0000
0000
0000
0000
0000
0010
0000
0000
0000
0000
0100
0000
0000
0010
0000
0000
0000
0000
0000
0000
0000
,
0002
0000
0000
0000
0000
0000
0000
0000
0000
0000
0000
0000
0000
0000
0000
0000
0023
0000
0000
0000
0000
0000
0000
0000
0000
0000
0000
0000
0000
0000
0000
0000
0130
0000
0000
0000
0000
0000
0000
0000
0001
0000
0000
0000
0000
1000
0000
0000
0000
0000
0000
0000
0000
1000
0000
0000
0001
0000
0000
0000
0000
0000
0000
0000
,
0021
0000
0032
0000
0000
0000
1003
0000
0010
0100
0001
1000
0100
0000
0100
0000
,
0110
0000
0000
0010
0001
0000
0100
0000
1000
0000
0100
0000
0110
0000
0010
1000
,
0001
0020
0000
0130
0010
0000
0001
0000
1000
0010
0100
0000
0010
0100
0001
1000
,
0200
0000
0000
0310
0001
1000
0000
0000
1010
0000
0101
0000
1010
0000
1000
0001
,
0020
0000
0000
0000
0000
0000
0000
0000
0000
0000
0000
0000
0130
0000
0000
0000
1000
0000
0000
0000
0000
0000
0000
0000
0010
0000
0000
0000
0000
0000
0000
0000
0100
0000
0000
0000
0001
0000
0000
0000
1000
0000
0000
0000
0000
0001
0000
0000
1000
0000
0000
0000
0000
0000
0000
0000
0100
0000
0000
0000
0000
0000
0000
0000
,
0010
0000
0000
0000
0001
0000
0000
0000
0100
0000
0000
0000
0001
0000
0000
0000
1000
0000
0000
0000
0000
0000
0000
0000
0011
0000
0000
0000
0000
0000
0000
0000
0110
0000
0000
0000
0000
0000
0000
0000
0011
0000
0000
0000
0000
0000
0000
0000
1000
0000
0000
0000
0000
0010
0000
0000
0000
0000
0000
0000
0001
0000
0000
0000
,
0000
0010
0200
0000
0301
0000
1000
0000
0100
0010
0100
0000
1000
0001
0000
0000
,
0100
0000
0010
0000
1000
0000
0100
0000
0010
0000
0001
1000
0001
1000
0001
1000
0010
0000
0000
0000
0010
0000
0000
0000
1001
0000
0000
0000
1000
0000
0000
0000
,
1100
0000
0100
1000
0001
0000
0001
0100
0000
0110
0000
0101
0000
0000
0000
0000
,
1100
0000
0100
0010
0000
0001
0000
0100
1000
0000
0100
0000
0001
0010
0000
0100
,
1000
0000
0000
0010
0000
0000
0000
0000
0000
0002
0000
0000
0000
0000
0000
0013
0000
0000
1000
0000
0010
0000
0100
0000
0001
0000
0000
0000
0000
0000
0010
0000
0000
0000
0000
0000
0100
0000
0000
0010
0000
0000
0001
0000
0000
1000
0000
0000
,
0001
0000
0000
0000
0000
0200
0000
0000
0000
0000
0000
0000
0000
0300
0000
0000
0110
0000
0000
0000
0000
0000
0000
0000
0001
0000
0000
0000
0000
0000
0000
0000
1000
0000
0000
0000
0100
0000
0000
0000
0000
0000
0000
0000
0010
0000
0000
0000
0000
0000
0000
0000
0100
0000
0000
0000
0000
0000
0000
0000
0000
0010
0000
0000
,
0001
0000
0000
0000
0000
1000
0000
0000
0001
0000
0000
0000
0000
1000
0000
0000
0010
0000
0000
0000
0100
0000
0000
0000
0001
0000
0000
0000
1000
0000
0000
0000
0010
0000
0000
0000
0100
0000
0000
0000
0001
0000
0000
0000
0010
0000
0000
0000
0100
0000
0000
0000
0010
0000
0000
0000
0001
0000
0000
0000
1000
0000
0000
0000
,
0000
0000
0000
0000
0000
0000
0000
0000
0000
0000
0000
0000
0001
0000
0000
0000
1000
0000
0000
0000
0010
0000
0000
0000
0000
0000
0000
0000
0100
0000
0000
0000
0010
0000
0000
0000
0000
0010
0000
0000
1000
0000
0000
0000
0000
0000
0000
0000
0001
0000
0000
0000
0010
0000
0000
0000
0100
0000
0000
0000
0010
0000
0000
0000
,
0001
0100
0010
1000
0100
0010
0100
1000
0010
0100
0001
0000
1000
0100
0010
0001
,
1000
0000
0000
0000
0010
0000
0000
0000
0100
0000
0000
0000
1000
0000
0000
0000
0000
0000
0000
0000
0000
0100
0000
0000
0000
0000
0000
0000
0002
0000
0000
0000
1000
0000
0000
0000
0000
0013
0000
0000
0000
0000
0000
0000
0200
0000
0000
0000
1000
0000
0000
0000
0000
0000
0000
0000
0310
0000
0000
0000
0000
0000
0000
0000
,
0001
0100
0000
0010
1000
0001
0100
0010
1000
0001
0010
0100
1000
0100
0010
0000
,
0001
0000
1000
0000
0010
1000
0000
0001
0010
0000
0100
0010
0000
0001
1000
0010
,
0100
0010
0100
0000
0101
0000
0001
0010
0100
0000
1000
0100
0000
0010
0001
0000
,
0010
0000
0001
0000
0100
0010
0000
0010
1000
0000
0100
0010
0000
0001
0010
0100
,
1000
0100
1000
0000
1001
0000
0001
0100
0010
0000
0002
0000
0013
0000
1000
0001
,
0010
0000
0100
0000
1000
0001
0000
0001
0100
0000
0010
1000
0000
0100
0000
0010
,
0001
1000
0001
0000
0101
0000
0100
0010
0100
0000
0001
1000
0000
0100
0010
0000
,
0011
0000
0010
0000
0010
0100
0000
0100
1000
0000
0010
1000
0001
1000
0100
0010
,
0100
0000
1000
0000
1001
0000
0010
0000
0101
0000
0001
1000
0200
0000
0000
0000
,
0300
0000
0000
0000
;

//---------------dance-single - Loodee----------------
#NOTES:
     dance-single:
     Loodee:
     Hard:
     9:
     0.727,0.644,0.391,0.330,0.533:
0000
0000
0000
0000
,
1100
0000
0000
0000
0011
0000
0000
0000
0001
0100
0001
0100
0010
0000
0000
0000
,
1000
0000
0000
0000
0101
0000
0000
0000
0100
0010
0100
0000
1001
0000
0000
0000
,
0001
0000
0000
0000
1010
0000
0000
0000
0010
1000
0001
1000
0001
0000
0010
0000
,
0100
0000
0000
0000
1100
0000
0000
0000
1000
0001
0100
0000
0110
0000
0000
0000
,
0001
0000
0000
0000
0011
0000
0000
0000
0010
0100
1000
0100
1000
0000
0000
0000
,
0010
0000
0000
0000
0110
0000
0000
0000
0100
0001
1000
0000
1001
0000
0000
0000
,
0001
0000
0000
0000
0101
0000
0000
0000
0100
0010
0100
0010
1000
0000
0001
0000
,
1000
0000
0000
0000
1100
0000
0000
0000
0100
0010
0100
0000
1000
0000
0010
0000
,
0101
0000
0000
0000
0210
0000
0000
0000
0310
0000
1000
0000
0000
0001
1000
0000
,
1100
0000
0000
0000
0021
0000
0000
0000
0031
0000
0010
0000
0000
0100
0010
0000
,
0001
0000
2001
0000
3010
0100
1000
0100
,
0001
0000
0000
0000
0000
0000
0000
0000
1000
0000
0000
0000
0001
0000
0000
0000
1000
0000
0000
0000
0000
0000
0000
0000
0100
0000
0000
0000
0000
0000
0000
0000
0010
0000
0000
0000
0000
0000
0000
0000
0001
0000
0000
0000
0000
0000
0000
0000
0100
0000
0000
0000
0000
0001
0000
0000
0100
0000
0000
0000
0000
0000
0000
0000
,
0010
0000
0000
0000
0000
0000
0000
0000
0000
0000
0000
0000
0000
0000
0000
0000
1000
0000
0000
0000
0000
0001
0000
0000
1000
0000
0000
0000
0000
0000
0000
0000
0200
0000
0000
0000
0000
0000
0000
0000
0310
0000
0000
0000
0000
0000
0000
0000
0001
0000
0000
0000
0000
1000
0000
0000
0001
0000
0000
0000
0000
0000
0000
0000
,
0100
0000
0000
0000
0000
0000
0000
0000
0000
0000
0000
0000
0000
0000
0000
0000
0010
0000
0000
0000
0000
0100
0000
0000
0010
0000
0000
0000
0000
0000
0000
0000
2000
0000
0000
0000
0000
0000
0000
0000
3001
0000
0000
0000
0000
0000
0000
0000
0010
0000
0000
0000
0000
0100
0000
0000
0010
0000
0000
0000
0000
0000
0000
0000
,
0001
0100
1000
0100
0020
0000
1030
0001
,
0010
0000
0000
0000
0000
0100
0000
0000
0000
0000
0000
0000
0010
0000
0000
0000
0000
0000
0000
0000
0001
0000
0000
0000
0000
0000
0000
0000
1000
0000
0000
0000
0000
0000
0000
0000
0000
0000
0000
0000
0010
0000
0000
0000
0000
0000
0000
0000
0100
0000
0000
0000
0000
0001
0000
0000
0100
0000
0000
0000
0000
0000
0000
0000
,
0020
0000
0000
0000
2030
0000
0000
0000
3001
0000
0020
0000
0000
0030
0010
0000
,
0002
0000
0000
0003
1010
0000
0010
0000
0100
0000
0100
0001
0000
0001
1000
0000
,
0200
0000
0000
0000
0000
0000
0000
0000
0310
0000
0000
0000
0000
0001
0000
0000
0000
0000
0000
0000
0000
1000
0000
0000
0000
0000
0000
0000
0000
0010
0000
0000
0000
0000
0000
0000
0100
0000
0000
0000
0010
0000
0000
0000
0000
0000
0000
0000
1000
0000
0000
0000
0000
0000
0000
0000
0000
0000
0000
0000
0000
0000
0000
0000
,
0001
0000
0000
0000
0000
1000
0000
0000
0001
0000
0000
0000
0000
0000
0000
0000
0010
0000
0000
0000
0000
0100
0000
0000
0010
0000
0000
0000
0000
0000
0000
0000
0001
0000
0000
0000
0000
1000
0000
0000
0001
0000
0000
0000
0000
0000
0000
0000
0101
0000
0000
0000
0000
0000
0000
0000
0000
0000
0000
0000
0000
0000
0000
0000
,
0100
0000
0000
0000
0000
0000
0000
0000
0010
0000
0000
0000
0000
0000
0000
0000
1000
0000
0000
0000
0000
0000
0000
0000
0001
0000
0000
0000
0000
0000
0000
0000
1000
0000
0000
0000
0000
0000
0000
0000
0200
0000
0000
0000
0000
0000
0000
0000
0000
0000
0000
0000
0300
0010
0000
0000
0001
0000
0000
0000
0000
0000
0000
0000
,
1000
0000
0020
0000
0000
0000
0130
0000
1000
0000
0100
0010
0000
0000
0100
0000
,
0001
0000
0000
0000
0000
0000
0000
0000
1000
0000
0000
0000
0000
0000
0000
0000
1100
0000
0000
0000
0000
0000
0000
0000
0000
0000
0000
0000
0000
0000
0000
0000
0000
0000
0000
0000
0000
0001
0000
0000
0100
0000
0000
0000
0000
0000
0000
0000
0010
0000
0000
0000
0000
0000
0000
0000
1000
0000
0000
0000
0000
0000
0000
0000
,
0001
0000
0000
0000
0000
0000
0000
0000
1000
0000
0000
0000
0000
0100
0000
0000
1000
0000
0000
0000
0000
0000
0000
0000
0100
0000
0000
0000
0000
0000
0000
0000
0010
0000
0000
0000
0000
0000
0000
0000
0001
0000
0000
0000
0000
0000
0000
0000
0101
0000
0000
0000
0000
0000
0000
0000
0000
0000
0000
0000
0000
0000
0000
0000
,
0110
0000
0000
0000
1010
0000
0000
0000
0001
0000
0010
0001
0000
1000
0010
0000
,
0100
0100
0010
0100
0001
0000
1001
1000
,
0100
1000
0010
0001
0010
0100
0001
0010
,
2000
0000
0000
0000
3010
0000
0100
0010
0100
0000
1000
0001
1000
0000
0000
0000
,
0020
0000
0000
0030
1001
0000
0000
0000
0001
1000
0001
1000
0100
0000
0010
0000
,
0200
0000
0000
0300
1001
0000
0000
0000
1000
0000
0100
0000
0100
0000
0010
0000
,
0200
0000
0000
0000
0000
0000
0000
0000
0000
0000
0000
0000
0300
0000
0000
0000
1100
0000
0000
0000
0000
0000
0000
0000
0001
0000
0000
0000
0000
0000
0000
0000
1100
0000
0000
0000
0000
0000
0000
0000
0001
0000
0000
0000
0000
0000
0000
0000
0100
0000
0000
0000
0000
0000
0000
0000
0010
0000
0000
0000
0000
1000
0000
0000
,
0002
0010
0103
0110
,
1001
0000
0000
0000
1000
0000
0100
0000
0001
0000
0200
0000
0000
0310
0001
0000
,
1000
0000
0000
0000
0000
0000
0000
0000
1000
0000
0000
0000
0000
0000
0000
0000
0010
0000
0000
0000
0000
0000
0000
0000
0100
0000
0000
0000
0000
0001
0000
0000
1000
0000
0000
0000
0000
0001
0000
0000
1000
0000
0000
0000
0000
0000
0000
0000
0100
0000
0000
0000
0000
0000
0000
0000
0010
0000
0000
0000
0000
0000
0000
0000
,
0001
0000
0000
0000
0000
1000
0000
0000
0001
0000
0000
0000
0000
0000
0000
0000
0100
0000
0000
0000
0000
0000
0000
0000
0010
0000
0000
0000
0000
0000
0000
0000
0100
0000
0000
0000
0000
0000
0000
0000
2000
0000
0000
0000
0000
0000
0000
0000
0000
0000
0000
0000
0000
0000
0000
0000
3100
0000
0000
0000
0000
0000
0000
0000
,
0001
0000
0010
0000
1000
0000
0010
0200
0000
0000
0300
0000
1100
0000
1000
0000
,
0001
0000
0000
0000
0000
0100
0000
0000
0010
0000
0000
0000
0000
0000
0000
0000
0100
0000
0000
0000
0000
0000
0000
0000
0001
0000
0000
0000
0000
0000
0000
0000
1000
0000
0000
0000
0000
0000
0000
0000
0100
0000
0000
0000
0000
0000
0000
0000
0000
0000
0000
0000
0000
0000
0000
0000
0000
0000
0000
0000
0000
0000
0000
0000
,
1000
0000
0000
0000
0000
0001
0000
0000
0100
0000
0000
0000
0000
0000
0000
0000
0010
0000
0000
0000
0000
0000
0000
0000
0100
0000
0000
0000
0000
0000
0000
0000
0010
0000
0000
0000
0000
0000
0000
0000
0002
0000
0000
0000
0000
0000
0000
0000
0000
0000
0000
0000
0000
0000
0000
0000
0013
0000
0000
0000
0000
0000
0000
0000
,
1000
0000
0100
0020
0000
0031
1000
0000
0010
0100
0010
0000
1001
0000
0000
0000
,
0001
0000
0000
0000
0000
0000
0000
0000
0010
0000
0000
0000
0000
0000
0000
0000
0100
0000
0000
0000
0000
1000
0000
0000
0100
0000
0000
0000
0000
0000
0000
0000
2000
0000
0000
0000
0000
0000
0000
0000
0000
0000
0000
0000
0000
0000
0000
0000
3010
0000
0000
0000
0000
0000
0000
0000
0000
0000
0000
0000
0000
0000
0000
0000
,
0100
0000
0020
0000
0000
0030
0010
0000
0010
0000
1000
0010
0000
1000
0000
0002
,
0000
0000
0000
0000
0000
0000
0000
0000
0013
0000
0000
0000
0000
0000
0000
0000
0100
0000
0000
0000
0000
1000
0000
0000
0100
0000
0000
0000
0000
0000
0000
0000
1000
0000
0000
0000
0000
0010
0000
0000
0100
0000
0000
0000
0000
0000
0000
0000
0001
0000
0000
0000
0000
0000
0000
0000
0000
0000
0000
0000
0000
0000
0000
0000
,
0011
0000
0010
0000
0100
0000
0010
0001
0000
0000
0200
0000
0000
0000
1300
0000
,
0001
0000
0000
0000
0000
0000
0000
0000
0010
0000
0000
0000
0000
0000
0000
0000
1000
0000
0000
0000
0000
0010
0000
0000
1000
0000
0000
0000
0000
0000
0000
0000
0001
0000
0000
0000
0000
0000
0000
0000
0010
0000
0000
0000
0000
0000
0000
0000
0100
0000
0000
0000
0000
0000
0000
0000
0020
0000
0000
0000
0000
0000
0000
0000
,
0000
0000
0130
0000
0100
0000
1000
0000
0010
0000
0100
0010
0000
0010
1000
0000
,
0001
0000
0000
0000
0000
0000
0000
0000
0020
0000
0000
0000
0000
0000
0000
0000
0000
0000
0000
0000
0000
0000
0000
0000
0130
0000
0000
0000
0000
0000
0000
0000
0010
0000
0000
0000
0000
0000
0000
0000
0001
0000
0000
0000
0000
0000
0000
0000
1000
0000
0000
0000
0000
0010
0000
0000
0100
0000
0000
0000
0000
0000
0000
0000
,
0201
0000
0000
0000
0320
0000
0000
0000
1030
0000
0001
1000
0000
1000
0100
0000
,
0010
0000
0200
0000
0000
0000
1300
0000
0001
0100
0001
0000
0020
0000
0130
0000
,
1001
0000
0000
0001
0100
0000
0010
0000
0001
0000
0010
0000
1000
0000
0001
0010
,
0001
0010
0000
0000
0010
0000
0100
0000
1000
0000
0010
0000
1010
0000
0000
0000
,
2000
0000
0000
3100
0010
0000
0100
0000
1000
0000
1000
0000
1001
0000
0000
0000
,
0002
0000
0000
0103
0010
0000
0000
0000
1000
0100
1000
0100
0010
0000
0001
0000
,
1000
0000
0000
0000
0000
0010
0000
0000
1000
0000
0000
0000
0000
0010
0000
0000
1000
0000
0000
0000
0000
0000
0000
0000
0001
0000
0000
0000
0000
0000
0000
0000
0010
0000
0000
0000
0000
0000
0000
0000
0100
0000
0000
0000
0000
0000
0000
0000
0010
0000
0000
0000
0100
0000
0000
0000
0000
0000
0000
0000
1000
0000
0000
0000
,
0000
0001
0200
0000
0010
0000
0000
0000
0301
0000
1000
0000
1100
0000
0000
0000
,
0100
0000
0000
0000
0000
0010
0000
0000
0100
0000
0000
0000
0000
0010
0000
0000
0001
0000
0000
0000
0000
0000
0000
0000
1000
0000
0000
0000
0000
0000
0000
0000
0010
0000
0000
0000
0000
0000
0000
0000
0010
0000
0000
0000
0000
0000
0000
0000
0101
0000
0000
0000
0000
0000
0000
0000
0000
0000
0000
0000
0000
0000
0000
0000
,
0100
0000
0001
1000
0100
0000
1000
0001
0000
1001
0000
1001
0000
0000
0000
0000
,
0101
0000
0000
0001
0000
1000
0000
0100
0010
0000
0100
0000
1000
0001
0000
0100
,
0010
0000
0000
0000
0000
0100
0000
0000
0000
0000
0000
0000
0002
0000
0000
0000
0000
0000
0000
0000
0000
0000
0000
0000
0000
0000
0000
0000
0000
0000
0000
0000
1003
0000
0000
0000
0000
0000
0000
0000
0100
0000
0000
0000
0000
0000
0000
0000
1000
0000
0000
0000
0100
0000
0000
0000
0010
0000
0000
0000
0001
0000
0000
0000
,
1000
0001
0000
0000
0100
0000
0001
0000
1000
0001
0000
0010
0000
0001
0000
0100
,
0040
0000
0000
0000
1030
0000
0001
0000
1000
0000
0010
0000
1000
0100
0010
0001
,
0000
0000
0000
1000
0001
0100
0000
0001
0100
0001
0100
0000
0001
1000
0001
1000
,
0100
0000
0000
0000
0110
0000
0000
0000
0001
1000
0010
0000
0100
0010
0100
0000
,
0001
0000
0000
0000
1001
0000
0000
1000
0000
0200
0000
0000
1300
0000
0010
0000
,
0100
0001
0000
0100
0001
1000
0001
1000
0100
0000
0010
0000
0001
0000
0010
0000
,
0001
0000
1000
0000
1010
0000
0000
1000
0002
0000
1003
0001
0000
0100
0010
0100
,
0010
0000
0000
0000
1010
0000
1000
0001
1000
0000
0100
0000
0010
0001
0100
0000
,
0010
0000
1000
0000
0001
0010
0000
0001
2000
0000
3010
1000
0000
0001
0010
0001
,
0010
0000
0000
0000
0110
0000
0000
0100
1000
0000
0010
0000
0100
0000
0000
0000
,
0001
0000
1000
0000
0100
0010
0000
0100
2000
0000
3001
1000
0000
0010
1000
0010
,
1000
0000
0000
0000
0011
0000
0001
1000
0001
0000
0100
0000
0010
1000
0010
0000
,
0110
0000
0000
0000
1010
0000
0102
0000
0000
0000
0000
0000
1003
0100
0010
0001
,
1000
0000
0010
0000
0100
0000
0001
0000
0100
0000
0010
1000
0002
0000
0000
0000
,
0003
0000
0000
0000
;

//---------------dance-single - Loodee----------------
#NOTES:
     dance-single:
     Loodee:
     Medium:
     6:
     0.531,0.476,0.284,0.368,0.000:
0000
0000
0000
0000
,
0012
0000
1003
0000
0010
0010
1000
0000
,
0002
0000
0013
0000
0001
0001
1000
0000
,
2000
0000
3001
0000
1000
1000
0001
0000
,
0020
0000
0130
0000
1000
1000
0010
0000
,
0020
0000
0130
0000
0001
0001
0010
0000
,
0200
0000
1300
0000
0001
0001
1000
0000
,
0020
0000
0130
0000
0001
0001
0010
0000
,
0200
0000
0320
0000
0030
0001
1000
0010
,
0100
0000
0110
0000
0010
1000
0100
0010
,
0001
0000
0011
0000
0001
1000
0010
1000
,
0100
0000
1100
0000
1000
0100
0010
0100
,
2000
0000
0001
0000
3010
0100
0010
0000
,
0100
0101
0001
1001
,
1000
1100
0100
1001
,
0001
0010
0001
0010
0200
0000
2300
0000
,
3020
0100
0130
1001
,
0002
0000
0023
0000
0130
2000
0000
3001
,
2000
0000
3010
0100
0010
0010
0100
0000
,
0001
0010
0100
0000
1000
0000
1010
0000
,
0010
0100
0001
0100
0010
0000
1001
0000
,
0001
0010
0001
1000
0001
1000
0010
0100
,
0001
2000
0000
3001
0010
0000
0110
0000
,
0100
1000
0000
0000
0001
0100
0010
0100
,
0001
1000
0100
0010
0001
0000
0011
0000
,
1001
0000
2000
0000
3010
0100
0010
1000
,
0001
0001
0010
0001
0100
0000
1010
0000
,
0010
0100
0001
1000
0100
0010
0100
0000
,
0002
0203
1300
0001
,
0200
0000
0020
0000
0330
0000
1000
0001
,
0020
0000
0200
0000
0330
1000
0002
0000
,
0203
0000
0310
1000
0001
0010
0100
0010
,
0002
1000
0103
0110
,
1001
0000
1000
0010
0100
0001
0100
0000
,
0010
0010
0100
0001
1000
0100
0010
0100
,
1000
0000
0001
0100
0001
2000
0000
3100
,
0010
0010
0001
0100
0010
0000
1000
1000
,
1000
0000
0001
0010
0001
1000
0010
0000
,
0100
0000
0001
1000
0010
2000
0000
3001
,
0020
0230
2300
3001
,
0101
0000
0101
0000
2001
0000
3001
0010
,
0002
0000
0103
0010
0100
0010
1000
0010
,
0100
0001
0001
0000
1000
0100
0100
1000
,
0001
0100
0100
0000
0010
0000
1000
0000
,
0001
0020
0000
0130
1000
0000
1001
0000
,
0002
0000
0103
0010
0100
0010
1000
0000
,
0100
0020
0000
0031
0010
0000
0011
0000
,
0002
0000
0203
0000
0310
1000
0010
0000
,
1000
0200
0000
1300
0001
0001
0001
0100
,
0010
0000
0110
0000
0100
0001
1000
0100
,
0010
0000
0011
0000
0001
0010
0011
0000
,
1000
0000
1100
0000
0100
1000
0001
1000
,
0010
0000
0110
0000
0100
0010
0110
0000
,
0001
0001
0001
0000
0010
0100
1000
0100
,
2000
0000
3010
0000
0100
0001
0100
0000
,
0010
0010
0010
0000
1000
1000
1000
0000
,
0110
0110
0000
0000
,
1001
0000
0001
0000
0100
0010
0100
0010
,
1000
0000
0100
0000
0010
0001
0010
0001
,
1000
0010
0100
1000
,
0100
0010
0100
0010
1000
0001
1000
0001
,
0010
0000
0100
0000
0010
0010
0010
0001
,
1000
0010
0100
0001
1000
0010
0100
0001
,
1000
0000
0100
0100
0100
0010
0001
0000
,
1000
0000
1000
0000
0001
0000
0001
0010
,
0001
0101
0200
0310
,
1000
0000
1001
0000
0002
0000
0013
0100
,
1000
1010
0020
0130
,
0001
0000
0011
0000
0010
0100
0010
0000
,
0001
1000
0010
1000
0002
0000
1003
0100
,
1000
1000
0001
0000
0200
0000
0301
0000
,
0101
0000
1010
0000
1000
0001
1000
0100
,
0010
0010
0001
1000
0001
0001
0200
0000
,
0300
0000
0000
0000
;

//---------------dance-single - Loodee----------------
#NOTES:
     dance-single:
     Loodee:
     Easy:
     4:
     0.344,0.307,0.061,0.161,0.000:
0000
0000
0000
0000
,
0001
0000
0001
0000
1000
0010
1000
0000
,
0100
0000
0100
0000
1000
0001
1000
0000
,
0001
0000
0001
0000
0100
0010
0100
0000
,
0010
0000
0010
0000
1000
0001
1000
0000
,
0100
0000
0100
0000
0010
0100
0010
0000
,
0001
0000
0001
0000
1000
0001
1000
0000
,
0010
0000
0010
0000
0100
0010
0100
0000
,
0002
2003
3000
0000
,
1100
0200
0310
0010
,
0001
2000
3010
0010
,
0100
0020
0130
0100
,
0001
1000
0001
0000
0010
0000
0000
0000
,
0001
0000
0000
0000
0001
0100
0001
0000
,
1000
0000
0000
0000
0001
0100
0001
0000
,
1000
0100
0010
0100
,
0010
0001
0000
1000
,
0002
2003
3200
0300
,
2000
0000
3010
0000
0100
0010
0100
0000
,
0001
0010
0100
1000
,
0100
0100
0100
0000
1000
0000
0000
0000
,
0001
0100
0020
0000
,
1030
0000
0001
0000
1000
0001
1000
0000
,
0100
0000
1000
1000
,
0001
0000
0000
0000
0001
0010
0001
0000
,
0100
0010
1000
0000
,
0001
1000
0001
0000
0010
0000
0000
0000
,
0100
0100
1000
0010
,
0200
0301
0001
0001
,
0010
1001
0000
0000
,
0010
1001
0000
0000
,
1000
0000
1000
0100
1000
0000
0001
0000
,
0200
0000
0000
0310
,
1001
0000
0001
0001
,
1000
0001
1000
0000
0100
0000
0010
0000
,
0100
0000
1000
0001
2000
0000
0000
3000
,
0010
0010
0100
0100
,
0001
0000
1000
0001
1000
0000
0000
0000
,
0010
0000
0100
0010
0100
0000
0001
0000
,
1000
0100
0010
0000
,
0001
0001
1000
0000
0020
0000
0030
0000
,
2000
0000
3100
0100
,
0010
0001
0000
1000
,
0010
0100
0010
0000
1000
0000
0000
0000
,
0001
1000
0001
0000
0010
0000
0010
0000
,
0001
0000
1000
0001
1000
0000
0100
0000
,
1000
1000
0010
0000
,
2000
3002
1003
0000
,
0001
0000
0010
0000
0001
0001
1000
0000
,
0020
0000
0030
0000
1000
0100
0010
0000
,
0002
0013
0100
0100
,
2000
0000
3000
0000
0010
0100
0001
0000
,
2000
3100
0100
0010
,
0001
0100
0001
0000
1000
0000
1000
0000
,
0100
0000
0010
0000
0001
0001
1000
0000
,
0010
0100
0010
0000
0100
0010
0100
0000
,
1001
1001
0000
0000
,
0110
0000
0000
0000
0001
0001
1000
1000
,
0001
0100
0100
0100
,
0010
0000
0010
1000
0001
0000
1000
0000
,
0100
0100
1000
0000
,
0010
0010
0010
0010
,
1000
0000
1000
0000
0100
0010
0100
0000
,
1000
0000
0001
0000
0100
0001
0100
0000
,
0001
0000
1000
0000
,
0001
0001
0010
0000
0000
0000
0000
0000
,
0001
1000
0000
1000
,
0100
0100
1000
0000
0001
0000
0000
0000
,
1000
0001
0000
0001
,
0010
0010
0001
0000
1000
0000
0000
0000
,
0010
0100
0010
0000
1000
0000
0000
0000
,
0011
0000
0000
0000
1000
0001
1000
0000
,
0010
0000
0010
0000
0100
0001
1000
0000
;
