#VERSION:0.83;
#TITLE:WOW WAR TONIGHT;
#SUBTITLE:~時には起こせよムーヴメント;
#ARTIST:PolyphonicBranch feat. 鏡音リン・レン;
#TITLETRANSLIT:;
#SUBTITLETRANSLIT:~Toki ni wa Okose yo Movement;
#ARTISTTRANSLIT:PolyphonicBranch feat. Kagamine Rin & Len;
#GENRE:;
#ORIGIN:;
#CREDIT:;
#BANNER:;
#BACKGROUND:;
#PREVIEWVID:;
#JACKET:;
#CDIMAGE:;
#DISCIMAGE:;
#LYRICSPATH:;
#CDTITLE:;
#MUSIC:[ROUND F] - WOW WAR TONIGHT.ogg;
#OFFSET:-0.350000;
#SAMPLESTART:58.306000;
#SAMPLELENGTH:16.000000;
#SELECTABLE:YES;
#BPMS:0.000=120.000,
116.000=240.000,
378.000=120.000;
#STOPS:378.000=0.500;
#DELAYS:;
#WARPS:;
#TIMESIGNATURES:0.000=4=4;
#TICKCOUNTS:0.000=4;
#COMBOS:0.000=1;
#SPEEDS:0.000=1.000=0.000=0;
#SCROLLS:0.000=1.000;
#FAKES:;
#LABELS:0.000=Song Start;
#BGCHANGES:;
#KEYSOUNDS:;
#ATTACKS:
;

//---------------dance-single - ----------------
#NOTEDATA:;
#CHARTNAME:;
#STEPSTYPE:dance-single;
#DESCRIPTION:;
#CHARTSTYLE:;
#DIFFICULTY:Beginner;
#METER:3;
#RADARVALUES:0.157129,0.327446,0.059859,0.142164,0.000000,147.000000,139.000000,8.000000,19.000000,0.000000,0.000000,0.000000,0.000000,0.000000,0.157129,0.327446,0.059859,0.142164,0.000000,147.000000,139.000000,8.000000,19.000000,0.000000,0.000000,0.000000,0.000000,0.000000;
#CREDIT:;
#NOTES:
0000
0000
0000
0000
,
0000
0000
0000
0000
,
1001
0000
0000
0000
,
0000
0000
0000
0000
,
1000
0000
0100
0000
,
0010
0000
0001
0000
,
0001
0000
0100
0000
,
0010
0000
1000
0000
,
0100
0000
0010
0000
,
0001
0000
1000
0000
,
0010
0000
0100
0000
,
1000
0000
0001
0000
,
0010
0000
0000
0000
,
1000
0000
1000
0000
,
0100
0000
0010
0000
,
0001
0000
0001
0000
,
0010
0000
0100
0000
,
1000
0000
0010
0000
,
0100
0000
0001
0000
,
0010
0000
0100
0000
,
1000
0000
0001
0000
,
1000
1000
1000
1000
,
1000
0000
0110
0000
,
0001
0001
0001
0001
,
0001
0000
1001
0000
,
0010
0010
0010
0000
,
0100
0100
0100
0000
,
0001
1000
0001
1000
,
0001
0000
1001
0000
,
1000
0000
0000
0000
,
0010
0000
0000
0000
,
0100
0000
0000
0000
,
0001
0000
0000
0000
,
1000
0000
0000
0000
,
0100
0000
0000
0000
,
0010
0000
0000
0000
,
0001
0000
0000
0000
,
0100
0000
0000
0000
,
0010
0000
0000
0000
,
1000
0000
0000
0000
,
0001
0000
0000
0000
,
0010
0000
0000
0000
,
0100
0000
0000
0000
,
1000
0000
0000
0000
,
0001
0000
0000
0000
,
0100
0000
0100
0000
,
0100
0000
0000
0000
,
0010
0000
0010
0000
,
0010
0000
0000
0000
,
1000
0000
1000
0000
,
1000
0000
0000
0000
,
0001
0000
0001
0000
,
0001
0000
0000
0000
,
0010
0000
0000
0000
,
0100
0000
0000
0000
,
0010
0000
0000
0000
,
0100
0000
0000
0000
,
1000
0000
0000
0000
,
0001
0000
0000
0000
,
1000
0000
0000
0000
,
0001
0000
0000
0000
,
0010
0000
0100
0000
,
0220
0000
0330
0000
,
1001
0000
0000
0000
,
1000
0000
0100
0000
,
1000
0000
0000
0000
,
0010
0000
0000
0000
,
0100
0000
0001
0000
,
0100
0000
0001
0000
,
0100
0000
0000
0000
,
1001
0000
0000
0000
,
0001
0000
0100
0000
,
0001
0000
0000
0000
,
1000
0000
0010
0000
,
1000
0000
0000
0000
,
0100
0000
0010
0000
,
0100
0000
0010
0000
,
0100
0000
0000
0000
,
1001
0000
0000
0000
,
2000
0000
3000
0000
,
0002
0000
0003
0000
,
0020
0000
0030
0000
,
0200
0000
0300
0000
,
2000
0000
3000
0000
,
0002
0000
0003
0000
,
0200
0000
0300
0000
,
0020
0000
0030
0000
,
2000
0000
3000
0000
,
0020
0000
0030
0000
,
0200
0000
0300
0000
,
0002
0000
0003
0000
,
0020
0000
0030
0000
,
0200
0000
0300
0000
,
2000
0000
3000
0000
,
0002
0000
0003
0000
,
0100
0000
0010
0000
,
2000
0000
0000
0000
,
0000
3000
0000
0000
;

//---------------dance-single - ----------------
#NOTEDATA:;
#CHARTNAME:;
#STEPSTYPE:dance-single;
#DESCRIPTION:;
#CHARTSTYLE:;
#DIFFICULTY:Easy;
#METER:5;
#RADARVALUES:0.290742,0.509360,0.216988,0.209506,0.000000,272.000000,243.000000,29.000000,28.000000,0.000000,0.000000,0.000000,0.000000,0.000000,0.290742,0.509360,0.216988,0.209506,0.000000,272.000000,243.000000,29.000000,28.000000,0.000000,0.000000,0.000000,0.000000,0.000000;
#CREDIT:;
#NOTES:
0000
0000
0000
0000
,
0000
0000
0000
0000
,
1001
0000
0000
0000
,
0000
0000
0000
0000
,
1000
0100
0010
0100
,
1000
0010
0100
0010
,
0001
0010
0100
0001
,
0010
0100
0010
0001
,
1000
0100
0010
1000
,
0010
0001
0100
0010
,
0001
0010
1000
0100
,
0001
0100
0010
1001
,
0200
0000
0300
0000
,
1000
0100
1000
0010
,
0100
0010
1000
0000
,
0001
0010
0001
0100
,
0010
0100
0001
0000
,
1000
0100
0010
0001
,
0100
0010
1000
0001
,
0010
0100
1000
0001
,
0100
0010
2000
3002
,
0103
0100
0100
0110
,
1010
1000
1000
1100
,
0110
0010
0010
0011
,
1001
0100
0010
0100
,
0001
0010
1000
0010
,
0001
0100
1000
0100
,
0001
0010
0100
1000
,
0010
0100
0010
1001
,
2000
0000
0000
3100
,
2000
0000
0000
3100
,
0002
0000
0000
0103
,
0020
0000
0001
0000
,
0032
0000
0000
0013
,
0002
0000
0000
0013
,
2000
0000
0000
3001
,
0100
0000
0110
0000
,
2000
0000
0000
3100
,
2000
0000
0000
3001
,
0200
0000
0000
0301
,
0020
0000
0001
0000
,
0032
0000
0000
0013
,
0002
0000
0000
1003
,
0020
0000
0000
1030
,
0200
0000
0320
0000
,
0031
0000
0100
0000
,
0010
1000
0100
0000
,
1000
0000
0010
0000
,
0100
0001
0010
0000
,
0100
0000
0010
0000
,
0001
1000
0001
0000
,
1000
0000
0100
0000
,
0010
0100
0010
0000
,
0001
0000
0010
0000
,
0100
1000
0010
0000
,
1000
0000
0100
0000
,
0010
0001
0100
0000
,
0010
0100
0010
0000
,
1000
0001
1000
0000
,
0100
0010
0100
0010
,
0001
1000
0001
0000
,
2000
0000
3200
0000
,
0320
0000
0032
0000
,
1003
0000
1000
0000
,
0001
0000
0001
0000
,
0100
0000
0010
0000
,
0010
0000
0100
0000
,
0001
0000
0010
0000
,
0100
0000
0010
0000
,
1000
0000
0010
0000
,
0001
0000
0100
0000
,
0010
0000
1000
0000
,
0010
0000
0010
0000
,
0100
0000
0001
0000
,
0100
0000
0100
0000
,
0010
0000
1000
0000
,
1000
0000
0001
0000
,
0001
0000
0100
0000
,
0110
0000
1001
0000
,
1000
0000
1010
0000
,
0001
0000
0011
0000
,
1000
0000
0101
0000
,
0001
0000
1100
0000
,
0010
0000
1010
0000
,
0100
0000
1100
0000
,
0100
0000
0101
0000
,
0010
0000
0011
0000
,
0010
0000
1001
0000
,
0100
0000
1001
0000
,
1000
0000
0110
0000
,
0001
0000
0110
0000
,
1000
0000
1001
0000
,
0001
0000
1001
0000
,
0110
0000
1001
0000
,
0010
0100
0220
0300
,
2000
0030
3002
0000
,
0200
0003
0000
0000
,
0000
0300
0000
0000
;

//---------------dance-single - ----------------
#NOTEDATA:;
#CHARTNAME:;
#STEPSTYPE:dance-single;
#DESCRIPTION:;
#CHARTSTYLE:;
#DIFFICULTY:Challenge;
#METER:12;
#RADARVALUES:0.819851,1.091487,0.231953,0.097270,0.632258,767.000000,736.000000,31.000000,13.000000,0.000000,0.000000,0.000000,0.000000,0.000000,0.819851,1.091487,0.231953,0.097270,0.632258,767.000000,736.000000,31.000000,13.000000,0.000000,0.000000,0.000000,0.000000,0.000000;
#CREDIT:;
#NOTES:
0000
0000
0000
0000
,
0000
0000
0000
0000
0000
0000
0000
0000
0000
0000
0000
0000
0000
0000
0010
0100
,
1001
0000
1000
0100
0000
0010
0000
0100
0000
0100
1000
0001
0010
0000
0100
0000
,
0010
0000
0001
1000
0000
0100
0000
0010
0000
0001
0100
0001
0010
0100
0010
0001
,
1000
0000
1100
0000
0100
0000
0010
0100
1000
0100
0010
0000
0100
1000
0010
0100
,
0001
0000
0000
0100
0000
0000
0001
0000
0000
0000
0000
0000
0100
0000
0000
0000
0000
0000
0010
0000
0000
0100
0000
0000
0001
0000
0000
0010
0000
0000
0100
0000
0000
0000
0000
0000
1000
0000
0001
0000
1000
0000
0001
0000
1000
0000
0001
0000
,
1000
0000
0100
0000
0010
0000
0001
0100
1000
0100
0010
0000
1000
0100
0010
0001
,
0100
0000
0000
0001
0000
0000
0100
0000
0000
0000
0000
0000
0010
0000
0000
0000
0000
0000
1000
0000
0000
0010
0000
0000
0001
0000
0000
0010
0000
0000
0100
0000
0000
0000
0000
0000
0010
0000
0100
0000
0010
0000
0100
0000
0010
0000
0100
0000
,
0001
0010
0001
0010
0001
0000
1000
0100
1000
0100
1000
0000
0001
0000
0100
0000
,
0010
1000
0010
1000
0010
0000
0100
0001
0100
0001
0100
0000
0010
0000
1000
0000
,
0100
0010
0100
0010
0100
0000
1000
0001
1000
0001
1000
0000
0010
0000
0100
0000
,
0001
1000
0001
1000
0001
0000
0010
0100
0010
0100
0010
0000
0001
0000
0000
0000
,
0010
0001
0010
0001
0000
0000
0010
0100
0010
0100
0000
0000
0000
0000
0000
1000
0100
1000
0010
0000
0000
0100
0000
0000
,
0001
1000
0001
1000
0001
0000
0100
0001
0010
0100
0000
0000
1000
0010
1000
0010
,
0100
1001
0000
0010
1000
0100
0010
0001
,
0001
0000
0100
0010
0100
0001
0010
0100
1000
0100
1000
0010
0000
0100
0001
0010
,
0100
0000
0000
0000
0010
0000
0100
0110
0000
0000
0001
0000
0100
0000
0010
0000
,
1000
0000
0100
0000
0010
0000
0100
1000
0010
0100
0010
1000
0000
0000
0000
0000
,
0001
0000
0100
0000
0010
0100
0001
0000
0010
0100
0010
0001
0000
0000
0000
0000
,
0100
0001
0000
1000
0010
1000
0100
0000
0010
0001
0100
0010
0000
0100
0001
1000
,
0000
0000
0100
1000
0010
0000
0100
0001
0020
0000
0000
0000
0230
0000
0000
0000
,
1300
0100
1000
0100
0010
0001
0010
0001
0100
0001
0100
0001
1000
0010
1000
0010
,
0100
0001
1000
0000
0000
0000
0001
0000
0100
0000
0010
0000
1000
0000
0000
0000
,
0001
0010
0000
0010
0100
0010
0000
0010
1000
0010
0100
2000
0000
0000
3010
0000
,
0100
0000
0000
0000
0001
0000
0010
0110
0000
1000
0100
0010
0100
1000
0010
0000
,
0100
0001
0100
0001
1000
0100
1000
0100
0010
0001
0010
0001
0000
0000
0000
0000
,
1000
0010
0000
1000
0010
0100
0001
0100
0010
0000
1000
0100
0000
0000
0000
0000
,
0100
0000
1000
0100
0010
0001
0100
0001
0010
0100
1000
0001
0000
0100
0001
0010
,
0000
0000
0000
0000
0000
0000
0100
0000
0000
0010
0000
0000
0001
0000
0000
0000
0000
0000
1000
0000
0000
0000
0000
0000
0001
0000
1000
0000
0001
0000
1000
0000
0001
0000
1000
0000
0001
0000
0000
0000
0000
0000
0000
0000
0000
0000
0000
0000
,
1000
0000
0100
0010
0000
0100
0010
0100
,
1000
0000
0001
0100
0000
0010
0100
0001
,
0010
0000
0100
0010
0000
0001
1000
0010
,
0100
0000
0001
0100
1000
0100
0001
0000
,
1000
0000
0010
0100
0000
0001
0010
0100
,
0010
0000
0001
1000
0000
0010
0100
0001
,
1000
0000
0100
1000
0000
0010
0100
0001
,
0010
0000
1000
0010
0001
0010
1000
0001
,
0100
0000
1000
0010
0000
0100
0010
0001
,
1000
0000
0100
0001
0000
0100
0010
1000
,
0001
0000
0010
1000
0000
0010
0100
1000
,
0001
0000
0010
0001
0010
1000
0001
0000
,
0100
0000
1000
0100
0000
0010
0001
0100
,
0010
0000
1000
0010
0000
0100
0001
0010
,
0100
0010
0100
0000
1000
0010
1000
0000
,
0001
0100
0001
0010
0100
0000
0000
0000
,
1000
0100
1000
0000
0100
0000
0010
0000
0001
0010
0001
0000
0100
0000
0010
0000
,
1000
0010
1000
0000
0010
0000
0100
0000
0001
0100
0001
0000
1000
0000
0100
0000
,
0020
0000
0000
0000
0000
0000
0031
1000
0020
0000
0000
0000
0000
0000
1030
0001
,
0010
0000
0100
0000
1000
0000
0010
0000
0100
0001
0100
0001
0100
0000
0000
0000
,
0001
1000
0010
1000
0100
0010
0001
0010
0100
1000
0010
0100
,
0001
1000
0100
1000
0010
0100
0001
0100
0010
1000
0100
0010
,
0001
0100
0010
1000
0010
1000
0100
1000
,
0100
0010
0100
0010
0001
0100
0001
0000
,
1000
0100
1000
0100
1000
0100
0010
0100
0010
0100
0010
0100
,
0010
0001
0010
0001
0010
0001
1000
0000
0000
0200
0000
0000
,
1300
0010
0100
0001
1000
0010
0100
0001
,
0010
0100
1000
0001
0010
0100
1000
0000
,
0010
1000
0100
1000
0010
1000
0100
0000
,
0010
0001
0100
0001
0010
0100
1000
0001
,
0020
0000
0000
0000
0000
0000
0031
0100
0001
0000
0010
0000
0100
0000
1000
0000
,
0200
0000
0310
0000
,
1100
0000
0000
0101
0000
0000
1001
0000
,
1000
0100
0001
0100
1000
0010
0001
0010
,
1010
0000
0000
0011
0000
0000
1001
0000
,
1000
0100
0010
0001
0100
0001
1000
0010
,
1000
0100
0010
0001
0000
0000
0100
0000
,
1010
0101
1010
0101
,
1000
0100
0010
0001
0010
0001
0100
0001
,
0100
0001
1000
0010
1000
0010
1000
0100
,
1000
0000
0000
0000
0110
0000
0100
0001
,
0000
0001
0100
0010
1000
0000
1001
0000
,
1000
0100
0000
0010
0000
0100
1000
0001
,
0010
0001
0100
0010
0000
0000
0100
0000
,
0001
0100
0010
0000
1000
0100
0010
0000
,
0001
1000
0010
0100
0000
0000
0000
0000
,
0001
1000
0100
1000
0010
0100
0001
0100
,
0001
0010
0100
0010
0000
0100
1000
0001
,
0000
1100
0110
0011
,
1001
0110
1001
0000
,
1000
0100
0000
0100
0110
0000
0000
0000
,
0001
0100
0000
0100
0110
0000
0000
0000
,
0010
1000
0000
1000
1001
0000
0000
0000
,
0100
0001
0000
0001
1001
0000
0000
0000
,
1000
0100
0000
0010
0011
0000
0000
0000
,
0001
0100
0000
0010
1010
0000
0000
0000
,
1000
0010
0000
0100
0101
0000
0000
0000
,
0001
0010
0000
0100
1100
0000
0000
0000
,
1000
0001
0100
0001
1000
0001
0100
0001
,
1000
0010
1000
0001
1000
0100
1000
0001
,
0100
0010
1000
0010
0100
0010
0001
0010
,
0100
0001
0100
1000
0100
0010
0100
0000
,
0001
0010
0100
1000
0100
0010
0001
1000
,
0010
0100
0001
0100
0010
1000
0100
0010
,
0001
0100
1000
0100
0001
0010
1000
0010
,
0001
0000
0000
0100
0000
0000
0010
0000
0000
2000
0000
0000
0002
0000
0000
3003
0000
0000
0100
0010
0100
0010
0100
0010
,
2000
0000
3200
0000
,
0302
0000
0000
0000
,
0000
0003
0000
0000
;

//---------------dance-single - ----------------
#NOTEDATA:;
#CHARTNAME:;
#STEPSTYPE:dance-single;
#DESCRIPTION:;
#CHARTSTYLE:;
#DIFFICULTY:Medium;
#METER:7;
#RADARVALUES:0.473525,0.618509,0.314258,0.127200,0.000000,443.000000,401.000000,42.000000,17.000000,0.000000,0.000000,0.000000,0.000000,0.000000,0.473525,0.618509,0.314258,0.127200,0.000000,443.000000,401.000000,42.000000,17.000000,0.000000,0.000000,0.000000,0.000000,0.000000;
#CREDIT:;
#NOTES:
0000
0000
0000
0000
,
0000
0000
0000
0000
,
1001
0000
1000
0100
1000
0100
0010
0100
,
0010
0000
0001
0100
0001
0100
0010
0100
,
0001
0010
0100
0010
0001
0100
0010
0000
,
1000
0100
0010
0100
1000
0010
0200
0000
,
0301
1000
0010
0100
1000
0001
0010
0100
,
0001
0010
0100
1000
0010
0100
1001
0000
,
1000
0100
0010
0100
1000
0010
0100
0001
,
0001
0010
0100
0010
0001
0100
0010
1000
,
0100
0010
0100
0010
0001
1000
0001
1000
,
0100
1000
0010
0100
0001
0010
0100
1000
,
0020
0000
0230
0000
,
0301
0010
0100
1000
0010
0000
1000
0010
,
0100
0010
1000
0000
1001
0000
0110
0000
,
1000
0100
0010
0001
0100
0010
0100
0001
,
1000
1100
0110
0011
,
0001
0100
0010
1000
0010
0100
0001
0000
,
1000
0010
0100
0001
0100
0010
1000
0000
,
0100
1000
0010
0100
0010
1000
0001
0010
,
0100
0110
0002
2003
,
3100
1000
0010
1000
0100
0010
0100
1000
,
0010
0100
0001
0000
1000
0001
1000
0000
,
0001
1100
0101
1010
,
0011
0000
1000
0100
0010
0001
0100
0000
,
0001
1000
0001
0010
0100
1000
0001
0000
,
1000
0001
1000
0100
0010
0001
0100
0000
,
0001
0010
0100
1000
0010
1000
0001
0100
,
1000
0000
0100
0001
0020
0000
0230
0000
,
1300
0100
1000
0000
,
0001
0100
0001
0000
,
0010
0100
0010
0100
,
1000
0010
0100
0000
,
0001
0100
0001
0000
,
1000
0100
1000
0000
,
0100
0010
0100
0010
,
0001
0100
0010
0000
,
1000
0100
0001
0000
,
1000
0010
0001
0000
,
1000
0010
0001
0000
,
1000
0100
0001
0000
,
1000
0100
0010
1000
,
0010
0100
1000
0010
,
0100
0001
0010
0100
,
0010
0001
0100
0000
,
0010
0000
0110
0000
,
1100
0110
1100
0000
,
0100
0010
0001
0100
,
0101
1001
0101
0000
,
1000
0000
0001
0000
,
0110
1001
0110
0000
,
1000
0100
0010
0001
,
0100
0100
0020
0000
,
1030
0100
1000
0100
,
0010
0001
0010
0000
,
0001
0100
0001
0100
,
0010
1000
0010
0000
,
1000
0100
0010
0001
,
0100
1000
0100
0001
,
0010
1000
0010
0001
,
1000
0010
0100
0001
,
1001
0000
0000
0110
0000
0000
1001
0000
,
0020
0000
2030
0000
3002
0000
0203
0300
,
0110
0000
0000
1001
0000
0000
0110
0000
,
1000
0100
0010
0001
,
0100
0010
1000
0000
,
0001
1000
0001
0000
,
1000
0100
0010
0100
,
1000
0001
0010
0100
,
0001
0000
0100
0010
,
1001
0000
0100
0100
,
0100
0010
0001
1000
,
0010
0100
0010
0000
,
1000
0010
0100
0001
,
0010
0100
0010
0000
,
0001
0100
1000
0100
,
0010
1000
0001
0010
,
1000
0000
0010
0100
,
1000
0001
0010
0000
,
0001
0100
0101
0000
,
1000
0100
1100
0000
,
0001
0010
0011
0000
,
1000
0010
1010
0000
,
0010
0100
0110
0000
,
1000
0001
1001
0000
,
0001
1000
1001
0000
,
0100
0010
0110
0000
,
1000
0100
0110
0000
,
0001
0010
0110
0000
,
0100
1000
1001
0000
,
0010
0001
1001
0000
,
1000
0100
0010
0001
,
0100
1000
0100
0001
,
0010
1000
0010
0001
,
0100
0010
2002
3000
,
2000
0003
0200
3000
,
0020
0000
0000
0000
,
0000
0330
0000
0000
;

//---------------dance-single - ----------------
#NOTEDATA:;
#CHARTNAME:;
#STEPSTYPE:dance-single;
#DESCRIPTION:;
#CHARTSTYLE:;
#DIFFICULTY:Hard;
#METER:10;
#RADARVALUES:0.626379,0.764041,0.187059,0.179576,0.138423,586.000000,561.000000,25.000000,24.000000,0.000000,0.000000,0.000000,0.000000,0.000000,0.626379,0.764041,0.187059,0.179576,0.138423,586.000000,561.000000,25.000000,24.000000,0.000000,0.000000,0.000000,0.000000,0.000000;
#CREDIT:;
#NOTES:
// measure 0
0000
0000
0000
0000
,  // measure 1
0000
0000
0000
0000
0000
0000
0000
0000
0000
0000
0000
0000
0000
0000
0010
0100
,  // measure 2
0010
0000
1000
0100
0000
0100
0000
0100
0000
0000
1000
0000
0010
0000
0100
0010
,  // measure 3
1000
0000
0001
0100
0000
0100
0000
0100
0000
0000
0001
0000
1000
0000
0010
0100
,  // measure 4
0001
0000
0010
0000
0100
0000
0010
0000
0001
0100
0001
0000
1000
0000
0010
0000
,  // measure 5
0100
0000
0001
0000
1000
0000
0100
0000
0010
0000
0100
0000
1000
0001
1000
0001
,  // measure 6
1000
0000
0010
0000
0100
0000
0010
0000
1000
0100
1000
0000
0001
0000
0100
0000
,  // measure 7
0010
0000
1000
0000
0001
0000
0010
0000
0100
0000
1000
0000
0010
0100
0010
0100
,  // measure 8
0001
0000
1000
0000
0100
0000
1000
0000
0010
0100
0010
0000
1000
0000
0100
0000
,  // measure 9
0010
0000
0001
0000
0100
0000
0001
0000
1000
0000
0100
0000
0010
0100
0010
0100
,  // measure 10
1000
0001
0100
0010
0001
1000
0100
0010
,  // measure 11
1000
0100
0010
0001
0100
0010
0001
1000
,  // measure 12
0200
0320
2030
3002
,  // measure 13
0013
0100
1000
0100
0010
0010
0001
1000
,  // measure 14
0100
0100
0000
0110
0000
1001
0000
0101
,  // measure 15
0100
0010
1000
0010
0100
0001
0100
0010
,  // measure 16
1000
0000
0000
0000
0100
0000
1000
0010
0000
0000
0100
0000
0001
0000
0000
0000
,  // measure 17
1000
0000
0100
0000
0001
0000
0100
0000
0010
0000
0001
1000
0000
0000
0000
0000
,  // measure 18
0001
0000
0100
0000
1000
0000
0100
0000
0010
0000
1000
0001
0000
0000
0000
0000
,  // measure 19
1000
0000
0100
0000
1000
0000
0001
0000
0010
0000
0100
1000
0000
0001
0000
1000
,  // measure 20
0000
0000
0100
1000
0000
0001
0100
0000
0020
0000
0000
0000
0230
0000
0000
0000
,  // measure 21
0301
0100
0001
0000
1000
0100
1000
0000
0010
1000
0010
0000
0100
0001
0100
0000
,  // measure 22
0001
1000
0000
1100
0000
0110
0000
1001
,  // measure 23
1000
0000
0000
0100
0010
0000
0000
0001
1000
0000
0100
0000
0001
0000
0100
0000
,  // measure 24
1000
0000
0000
0000
0100
0000
1000
0010
0000
0000
0100
0000
0001
0000
0000
0000
,  // measure 25
0001
0001
1000
1000
0010
0010
0100
0000
,  // measure 26
0100
0010
0000
0100
0001
0000
1000
0000
0010
0000
0100
0000
0001
0000
0000
0000
,  // measure 27
1000
0100
0010
1000
0010
0100
1000
0001
,  // measure 28
0100
0000
0000
0000
0001
0000
1000
0000
0010
0100
0010
0100
0010
0000
0000
0000
,  // measure 29
1000
0000
0100
0000
0010
0100
0010
0000
,  // measure 30
0001
0000
0100
0000
0010
0100
0010
0000
,  // measure 31
1000
0000
0010
0000
0100
0010
0100
0000
,  // measure 32
0001
0000
0010
0000
0100
0010
0100
0000
,  // measure 33
0010
0000
0001
0000
1000
0001
1000
0000
,  // measure 34
0100
0000
1000
0000
0001
1000
0001
0000
,  // measure 35
0010
0000
0001
0000
1000
0001
1000
0000
,  // measure 36
0010
1000
0100
0000
0010
0001
0100
0000
,  // measure 37
0001
0000
1000
0000
0100
1000
0010
0000
,  // measure 38
1000
0000
0001
0000
0100
0001
0010
0000
,  // measure 39
0001
0000
1000
0000
0010
1000
0100
0000
,  // measure 40
0010
0001
0100
0000
0001
1000
0001
0000
,  // measure 41
1000
0000
0100
0000
0010
0001
0100
0000
,  // measure 42
0001
0000
0100
0000
0010
1000
0100
0000
,  // measure 43
1000
0001
1000
0000
0010
0100
0010
0000
,  // measure 44
0100
0001
0010
0100
0010
0001
1000
0000
,  // measure 45
0100
1000
0100
1000
0010
0100
0010
0100
,  // measure 46
0001
0010
0001
0010
0100
1000
0001
0010
,  // measure 47
0200
0000
0000
1300
0002
0000
0000
0103
,  // measure 48
0020
0000
2030
0000
,  // measure 49
3010
1000
0010
0100
0001
0100
0010
0000
,  // measure 50
1000
0100
1000
0001
0010
0001
1000
0000
,  // measure 51
0100
0010
0000
0010
0000
0001
0010
0100
,  // measure 52
1000
0010
1000
0100
0020
0000
0000
0000
,  // measure 53
0031
0100
0010
1000
0010
0100
0001
1000
,  // measure 54
0010
0100
0001
0100
0010
1000
0100
0000
,  // measure 55
0100
1000
0001
0010
0100
1000
0001
0010
,  // measure 56
0001
0100
0010
1000
0001
1000
0100
0000
,  // measure 57
1000
0010
1000
0010
0001
0010
0001
0010
,  // measure 58
1000
0100
1000
0100
0001
0100
0001
0100
,  // measure 59
0020
0000
0000
0031
0010
0001
0100
0010
,  // measure 60
2000
0000
3002
0003
,  // measure 61
1200
0000
0300
0120
0000
0030
0012
0000
,  // measure 62
0103
0010
0100
0010
0100
0010
0100
0000
,  // measure 63
1010
0000
0000
0110
0000
0000
0101
0000
,  // measure 64
0001
0100
0010
0000
1000
0001
0100
0000
,  // measure 65
0001
1000
0100
0010
0000
0000
0110
0000
,  // measure 66
0000
1100
0000
0011
,  // measure 67
0001
0100
0010
1000
0100
0010
0001
0010
,  // measure 68
0100
1000
0010
0100
0001
0000
1000
0000
,  // measure 69
0100
0000
0010
0000
0100
0000
0010
0001
,  // measure 70
0000
1000
0100
0000
0110
0000
1001
0000
,  // measure 71
1000
0100
0000
0100
1000
0010
0100
0001
,  // measure 72
0010
0001
0000
0010
0000
0000
0000
0000
,  // measure 73
0001
0100
0001
0000
1000
0010
1000
0000
,  // measure 74
0100
0010
0000
0010
0000
0000
0000
0000
,  // measure 75
0001
0010
1000
0000
0010
0001
0100
0000
,  // measure 76
1000
0100
0010
1000
0000
0100
0000
0010
,  // measure 77
0000
0001
0100
0010
,  // measure 78
1000
0100
0020
0000
,  // measure 79
0031
0001
0101
0100
,  // measure 80
0100
0100
0110
0010
,  // measure 81
0010
0010
1010
1000
,  // measure 82
1000
1000
2001
0000
,  // measure 83
3100
0100
0110
0010
,  // measure 84
0010
0010
0011
0001
,  // measure 85
0001
0001
1001
1000
,  // measure 86
1000
1000
0110
0000
,  // measure 87
0001
0000
0100
0000
0010
0100
0000
0001
,  // measure 88
0000
0001
0000
0001
0010
0000
0100
0000
,  // measure 89
1000
0000
0010
0000
0100
0010
0000
1000
,  // measure 90
0000
1000
0000
1000
0100
0000
0010
0000
,  // measure 91
0001
0000
1000
0000
1000
0001
0000
0010
,  // measure 92
0000
0100
0000
0100
0010
0000
0001
0000
,  // measure 93
1000
0100
0010
0001
0100
0010
1000
0001
,  // measure 94
0010
1000
0001
0100
2000
0000
3002
0000
,  // measure 95
0023
0000
2000
0030
,  // measure 96
0002
0000
0000
0000
,  // measure 97
0000
3003
0000
0000
;
