#TITLE:TRICKL4SH 220;
#SUBTITLE:;
#ARTIST:Lite Show Magic;
#TITLETRANSLIT:;
#SUBTITLETRANSLIT:;
#ARTISTTRANSLIT:;
#CREDIT:;
#BANNER:[ROUND F] - TRICKL4SH 220.png;
#BACKGROUND:[ROUND F] - TRICKL4SH 220-bg.png;
#LYRICSPATH:;
#CDTITLE:;
#MUSIC:[ROUND F] - TRICKL4SH 220.ogg;
#OFFSET:-0.040;
#SAMPLESTART:45.843;
#SAMPLELENGTH:17.523;
#SELECTABLE:YES;
#DISPLAYBPM:110.000:220.000;
#BPMS:0.000=110.000,16.000=220.000,18.000=109.999,20.000=220.000,26.000=110.000,28.000=220.000,96.000=110.000,114.500=220.000,140.000=439.997,146.000=220.000,172.000=439.997,176.500=220.000,220.000=219.920,240.000=165.000,241.000=329.999,242.000=54.999,242.250=390.000,244.000=220.000,256.000=2619.999,257.000=666.655,260.000=220.000,284.000=439.997,288.500=220.000,306.000=440.004,307.000=220.000,316.000=440.002,320.500=220.000,321.000=879.995,323.000=220.000,333.000=439.997,334.000=220.000,342.000=109.999;
#STOPS:16.000=0.200
,17.000=0.200
,17.500=0.120
,17.563=0.040
,20.000=0.200
,20.750=0.200
,21.500=0.200
,22.250=0.200
,23.000=0.140
,23.500=0.140
,24.000=0.200
,24.750=0.200
,25.500=0.120
,25.563=0.040
,28.000=0.200
,28.750=0.200
,29.500=0.200
,30.250=0.200
,31.000=0.280
,114.500=0.140
,115.000=0.140
,115.500=0.140
,140.000=0.200
,141.500=0.140
,142.500=0.140
,143.500=0.320
,172.000=0.200
,173.500=0.140
,174.500=0.140
,175.500=0.140
,256.000=0.800
,284.000=0.200
,285.500=0.140
,286.500=0.140
,287.500=0.140
,306.000=0.140
,316.000=0.200
,317.500=0.140
,318.500=0.140
,319.500=0.120
,321.000=0.420
,324.000=0.200
,324.750=0.200
,325.500=0.120
,325.563=0.020
,330.000=0.200
,330.750=0.200
,331.500=0.200
,332.250=0.200
,333.000=0.220
,333.500=0.200
,334.000=0.200
,334.750=0.200
,335.500=0.120
,335.563=0.020
,335.563=0.020
,340.000=0.200
,340.750=0.140
,341.250=0.140
,341.750=0.060
;
#BGCHANGES:;

//---------------dance-single - ----------------
#NOTES:
     dance-single:
     :
     Hard:
     10:
     0.921,1.000,0.652,0.581,0.445: // measure 1
M000
0000
0000
0000
,  // measure 2
M000
0000
0000
0000
0000
0000
0000
0000
0000
0000
0000
0000
0000
0101
0000
0000
,  // measure 3
2002
0000
0000
3003
,  // measure 4
1010
0000
0101
0000
0110
0000
1010
0000
0100
1000
0100
0010
0000
0002
0003
0000
,  // measure 5
0101
0000
0000
1010
0000
0000
0110
0000
1000
0100
0001
0100
0010
1000
0001
0200
,  // measure 6
0301
0000
0000
0110
0000
0000
1010
0000
0000
1001
0000
0000
1100
0000
0010
0000
,  // measure 7
0011
0000
0000
0000
0000
0000
0110
0000
0000
0000
0000
0000
1100
0000
0000
0000
0010
0000
0001
0000
0100
0000
2000
0000
3100
0000
0020
0030
0002
0003
0020
0000
,  // measure 8
0130
0000
0000
0011
0000
0000
101M
0000
0000
M101
0000
0000
022M
0000
0330
0000
,  // measure 9
0001
0100
0001
0010
0100
0010
0001
0100
,  // measure 10
0010
0001
0010
0100
0001
1000
0100
0010
,  // measure 11
0100
0000
0000
0010
0000
0000
0100
0000
1000
0100
1000
0100
1000
0000
0100
0000
,  // measure 12
0010
0000
0000
0100
0000
0000
0010
0000
0001
0000
0100
0000
0110
0000
0000
0000
,  // measure 13
0100
0001
0100
0010
1000
0100
0001
0100
,  // measure 14
0010
0001
0010
0100
1000
0001
0010
0001
,  // measure 15
1000
0000
0000
0001
0000
0000
1000
0000
0001
0010
0001
0010
0001
0000
1000
0000
,  // measure 16
0020
0000
0200
0330
,  // measure 17
0010
0100
0001
0100
0010
0100
0010
1000
,  // measure 18
1100
0000
0000
0110
0000
0000
1100
0000
0010
0000
0001
0000
0020
0000
0030
0000
,  // measure 19
0100
0010
0100
1000
0001
0100
0001
1000
,  // measure 20
0010
0000
0100
0000
0000
1001
0000
0000
0000
1000
0100
0000
0010
0000
0001
0000
,  // measure 21
0010
0001
0100
0010
0100
0001
1000
0100
,  // measure 22
1000
0100
0010
0001
0100
1000
0100
0001
,  // measure 23
0200
0310
2000
3100
0020
0031
0200
0310
,  // measure 24
2000
0000
0000
010M
0000
320M
0020
0330
,  // measure 25
0200
0000
0000
0000
0000
0000
0310
0001
0200
0000
0000
0000
0310
0000
0000
0000
,  // measure 26
1000
0000
0000
0100
0000
0000
0001
0000
0100
0000
0000
0020
1030
0000
0001
0000
,  // measure 27
0200
0000
0000
0000
0000
0000
1300
0100
0020
0000
0000
0000
0031
0000
0000
0000
,  // measure 28
0100
0000
0000
0010
0000
0000
0100
0000
1000
0000
0000
0001
0000
0000
0010
0000
,  // measure 29
2002
0000
0000
0000
0000
00M0
00M0
30M3
,  // measure 30
1000
0000
0100
0000
1000
0000
0010
0000
0100
0001
0100
0001
1000
0000
0010
0000
,  // measure 31
1000
0000
0010
0000
0200
0000
0300
0000
0010
0100
0010
0100
0001
0000
1000
0000
,  // measure 32
0100
1000
0100
1000
0100
0010
0100
0010
,  // measure 33
0001
0000
0000
0000
0100
0000
0000
0000
0001
0000
0000
0000
0100
0000
0000
0000
0010
0000
0000
0000
0100
0000
0000
0000
0020
0030
0000
0000
0000
0000
0000
0000
,  // measure 34
0100
0000
0001
0000
0100
0000
0010
0000
1000
0100
1000
0100
1000
0000
0010
0000
,  // measure 35
0100
0000
0010
0000
2000
0000
3000
0000
0100
1000
0100
1000
0100
0000
0010
0000
,  // measure 36
0011
0000
0000
1100
0000
0110
0000
0202
,  // measure 37
0300
0000
0000
0000
0003
0000
0000
0000
0100
0000
0001
0010
0001
0000
1000
0000
,  // measure 38
0100
0000
1000
0000
0010
0000
0100
0000
0001
1000
0001
1000
0100
0000
0010
0000
,  // measure 39
0100
0000
1000
0000
0002
0000
0003
0000
0100
0001
0100
0001
1000
0000
0001
0000
,  // measure 40
1000
0100
0010
0001
1000
0100
0010
0001
,  // measure 41
0100
0000
0000
0000
0010
0000
0000
0000
1000
0000
0000
0000
0001
0000
0000
0000
0100
0000
0000
0000
0010
0000
0000
0000
2000
3000
0000
0000
0000
0000
0000
0000
,  // measure 42
0001
0000
0100
0000
0001
0000
1000
0000
0010
0100
0010
0100
0010
0000
1000
0000
,  // measure 43
0001
0000
0010
0000
0200
0000
0300
0000
0010
0001
0010
0001
0010
0000
0001
0000
,  // measure 44
0101
0000
0000
1010
0000
0110
0000
0101
,  // measure 45
0000
0200
0002
0303
,  // measure 46
1000
0000
0110
0000
1000
0100
1000
0000
,  // measure 47
0001
0000
0010
0000
1000
0000
0010
0000
0100
0000
0010
0001
0000
0000
0000
0000
,  // measure 48
1000
0000
0100
1000
0100
0000
0010
0000
0001
0000
0010
0001
1000
0000
0010
0000
,  // measure 49
1000
0100
0010
0001
0202
0303
2020
3030
,  // measure 50
0100
0000
1001
0000
0010
1000
0100
0000
,  // measure 51
1000
0000
0010
0000
0001
0000
0010
0000
0100
0000
0010
1000
0000
0000
0000
0000
,  // measure 52
0100
0000
0010
0100
1000
0000
0010
0000
0100
0000
0001
0010
0001
0000
0100
0000
,  // measure 53
0020
0000
0200
0330
,  // measure 54
0011
0000
1100
0000
1000
0100
1000
0000
,  // measure 55
0001
0000
0100
0000
0010
0000
0001
0000
0010
0000
0100
0001
0000
0000
0000
0000
,  // measure 56
1000
0000
0100
1000
0000
0100
1000
0000
0100
0010
0100
0010
0100
0000
0010
0000
,  // measure 57
0001
0000
0000
0100
0000
0000
0001
0000
1000
0001
1000
0001
1000
0000
0000
0000
,  // measure 58
0101
0000
1001
0000
0001
0100
0010
0000
,  // measure 59
1000
0000
0100
0000
0010
0000
1000
0000
0010
0000
0001
0100
0000
0000
0000
0000
,  // measure 60
0010
1000
0100
1000
0010
1000
0100
1000
,  // measure 61
0200
0000
0310
0000
,  // measure 62
0001
0000
0100
0000
0010
0000
1000
0000
0100
1000
0100
1000
0010
0000
0100
0000
,  // measure 63
0020
0000
2030
0000
3200
0000
0320
0000
0031
0010
0001
0010
0001
0000
1000
0000
,  // measure 64
0010
0000
0100
0000
0001
0000
0100
0000
0001
0010
0001
0010
0100
0000
0010
0000
,  // measure 65
2002
3003
0000
0000
,  // measure 66
1000
0000
0100
0000
0010
0000
0001
0000
0100
0001
0100
0001
0100
0000
0010
0000
,  // measure 67
1000
0000
0000
0000
0220
0000
0330
0000
1000
0100
1000
0000
0100
0000
0010
0000
,  // measure 68
0001
0100
0001
0100
0010
0100
0010
0100
,  // measure 69
0001
0000
0000
0000
1000
0000
0000
0000
0001
0000
0000
0000
1000
0000
0000
0000
0010
0000
0000
0000
1000
0000
0000
0000
0020
0030
0000
0000
0000
0000
0000
0000
,  // measure 70
0100
0000
0001
0000
0010
0000
0001
0000
0100
0010
0100
0010
0100
0000
0001
0000
,  // measure 71
1000
0000
0000
0000
2002
0000
3003
0000
0001
0100
0001
0010
0100
0000
1000
0000
,  // measure 72
1001
0000
0000
0101
0000
0110
0000
2200
,  // measure 73
0000
0000
0300
3100
,  // measure 74
1000
0000
0001
0000
0010
0000
0100
0000
1000
0010
1000
0010
0100
0000
0001
0000
,  // measure 75
0010
0000
1000
0000
0010
0000
0001
0000
0100
0010
0100
0010
1000
0000
0100
0000
,  // measure 76
1001
0000
0000
0110
0000
0000
0101
0000
1001
0000
0000
0101
0000
0000
0110
0000
,  // measure 77
1000
0000
0000
0000
0000
0000
0000
0000
0001
0000
0000
0000
0000
0000
0000
0000
1000
0000
0000
0000
0000
0000
0000
0000
0001
0000
0000
0000
0000
0000
0000
0000
0200
0000
0000
0000
0000
0000
0000
0000
0000
0000
0000
0000
0000
0000
0000
0000
0020
0330
0000
0000
0000
0000
0000
0000
0000
0000
0000
0000
0000
0000
0000
0000
,  // measure 78
1000
0000
0100
0000
1000
0000
0001
0000
0010
0001
0010
0001
0100
0000
0010
0000
,  // measure 79
0100
0000
0001
0000
0010
0000
0001
0000
1000
0100
1000
0000
0010
0000
0100
0000
,  // measure 80
1001
0000
0000
0101
0000
0110
0000
1100
,  // measure 81
0000
0202
M000
M303
,  // measure 82
01M1
0000
0000
1M10
0000
0000
M110
0000
0001
0000
0100
0000
1000
0000
0100
0010
,  // measure 83
M100
0000
0010
0000
100M
0010
1000
0200
1300
0000
0000
0110
0000
0000
1010
0000
,  // measure 84
0000
1001
0000
0000
0011
0000
1100
0000
01M1
0000
0000
011M
0000
0000
0M11
0000
,  // measure 85
1000
0000
0100
0000
0001
0000
0100
0010
0001
0000
1000
0000
00M1
1000
0M01
2000
,  // measure 86
3001
0000
0000
0000
0000
0000
1010
0000
0000
0000
0101
0000
0000
0000
1000
0000
0002
0000
0003
0000
0010
0000
0000
0000
0220
0330
0000
0000
0000
0000
0000
0000
;

//---------------dance-single - ----------------
#NOTES:
     dance-single:
     :
     Medium:
     9:
     0.768,0.944,0.370,0.485,0.145: // measure 1
0000
0000
0000
0000
,  // measure 2
0000
0000
0000
0000
0000
0000
0000
0000
0000
0000
0000
0000
0000
0010
0000
0000
,  // measure 3
0020
0000
0000
0030
,  // measure 4
1000
0000
0100
0000
1000
0000
0100
0000
1000
0000
1000
0010
0000
0200
0000
0000
,  // measure 5
0301
0000
0000
1000
0000
0000
0001
0000
1000
0100
1000
0010
1000
0100
1000
0010
,  // measure 6
1000
0000
0000
0100
0000
0000
1000
0000
0000
0100
0000
0000
1000
0000
0100
0000
,  // measure 7
0010
0000
0000
0100
0000
0000
0010
0000
0001
0100
0001
0010
0001
0100
0001
0010
,  // measure 8
0100
0000
0000
0000
0000
0000
0010
0000
0000
0000
0000
0000
010M
0000
0000
0000
0000
0000
10M0
0000
0000
0000
0000
0000
0M02
0003
0000
0000
0000
0000
0000
0000
,  // measure 9
1000
0000
0100
0000
1000
0100
0001
0000
,  // measure 10
0100
0010
1000
0001
0100
0010
0100
0000
,  // measure 11
0010
0100
0010
0100
1000
0001
1000
0010
,  // measure 12
0100
0010
0001
1000
0001
0010
0100
0000
,  // measure 13
0010
0000
0100
0000
0010
1000
0100
0000
,  // measure 14
0010
0100
0010
0001
0100
1000
0100
0000
,  // measure 15
0010
0100
1000
0100
0010
1000
0100
0010
,  // measure 16
0002
0000
2000
3003
,  // measure 17
0001
1000
0010
1000
0100
0010
0001
1000
,  // measure 18
0001
0000
0000
0010
0000
0000
0001
0000
1000
0000
0000
0000
1001
0000
0000
0000
,  // measure 19
1000
0100
1000
0001
1000
0010
0100
0001
,  // measure 20
1000
0000
0110
0000
0000
0000
0101
0000
0000
0001
0000
0000
0100
0000
1000
0000
,  // measure 21
0100
0000
0001
0000
0100
0010
0100
0000
,  // measure 22
0001
0010
1000
0010
0100
0001
0100
0000
,  // measure 23
0010
0100
0010
0100
0010
0100
0010
0100
,  // measure 24
0020
0000
0000
M001
0000
M002
0033
0000
,  // measure 25
0200
0000
0000
0000
0000
0000
0010
0000
0002
0300
0000
0000
0023
0000
0000
0000
,  // measure 26
0130
0000
0000
1000
0000
0000
0010
0000
0001
0000
0000
0010
0100
0000
0010
0000
,  // measure 27
0200
0000
0000
0000
0000
0000
0010
0000
0002
0300
0000
0000
0023
0000
0000
0000
,  // measure 28
1030
0000
0000
0010
0000
0000
0100
0000
0001
0000
0000
0100
0000
0000
0010
0000
,  // measure 29
0002
0000
0000
0000
0000
M000
0M00
00M3
,  // measure 30
0100
0001
0100
0010
0100
0001
0010
0100
,  // measure 31
1000
0000
0200
0300
1000
0100
0010
0001
,  // measure 32
0100
0010
0100
0001
0010
0100
0010
0001
,  // measure 33
0100
0010
0100
0001
0010
0100
0020
0000
,  // measure 34
0130
1000
0100
0010
0001
0100
0010
1000
,  // measure 35
0100
0000
2000
3000
0100
1000
0010
0100
,  // measure 36
1010
0000
0000
0101
0000
0110
0000
2002
,  // measure 37
0000
0000
3003
0000
,  // measure 38
1000
0100
1000
0010
0100
0001
1000
0100
,  // measure 39
1000
0000
0020
0030
0100
0001
0010
0100
,  // measure 40
1000
0100
0010
0100
1000
0010
0100
0010
,  // measure 41
1000
0100
1000
0010
0100
0010
2000
0000
,  // measure 42
3100
0010
0001
0100
0010
0100
0001
1000
,  // measure 43
0100
0000
0020
0030
0100
1000
0001
0100
,  // measure 44
0110
0000
0000
0101
0000
1010
0000
2002
,  // measure 45
3003
2000
3200
0302
,  // measure 46
1003
0000
0010
0000
1000
0010
0100
0000
,  // measure 47
0010
0100
1000
0010
0100
0001
0010
0000
,  // measure 48
0001
0100
1000
0100
1000
0100
0001
0010
,  // measure 49
0001
0100
0010
0100
2002
3003
0202
0303
,  // measure 50
1000
0000
0100
0000
1000
0100
0001
0000
,  // measure 51
0100
0001
0100
0010
0100
1000
0100
0000
,  // measure 52
1000
0001
1000
0010
0100
0001
0010
0100
,  // measure 53
2000
0000
0020
0030
,  // measure 54
3001
0000
0010
0000
0001
0100
1000
0000
,  // measure 55
0100
0010
0001
0010
0100
0001
0100
0000
,  // measure 56
0001
0000
0000
0100
0000
0000
0001
0000
0010
0000
1000
0000
0010
0000
0100
0000
,  // measure 57
1000
0000
0000
0010
0000
0000
0100
0000
1000
0000
0100
0000
0020
0000
0000
0000
,  // measure 58
1030
0000
0100
0000
1000
0010
0100
0000
,  // measure 59
0010
0100
0001
0010
0001
0100
1000
0000
,  // measure 60
0100
0001
0100
0010
1000
0100
1000
0010
,  // measure 61
0200
0000
0000
0000
0000
0000
0000
0000
0002
0303
0000
0000
0000
0000
0000
0000
,  // measure 62
1000
0100
1000
0100
0010
0001
0100
0010
,  // measure 63
2000
3200
0320
0032
0203
0320
2030
3200
,  // measure 64
0310
0100
1000
0100
0010
0001
0100
1000
,  // measure 65
0200
0300
0000
0000
,  // measure 66
0001
0100
0010
0100
0010
0001
0010
0100
,  // measure 67
0001
0000
2000
3000
0100
1000
0010
0100
,  // measure 68
0001
1000
0001
1000
0010
0100
0010
0100
,  // measure 69
0001
1000
0100
0010
0001
0100
0020
0000
,  // measure 70
0130
0010
0100
0001
0010
1000
0010
0100
,  // measure 71
0001
0000
0200
0300
1000
0100
0010
0001
,  // measure 72
0101
0000
0000
1100
0000
1010
0000
0022
,  // measure 73
0030
0003
0100
0001
0010
0000
0100
0000
,  // measure 74
1000
0100
1000
0010
1000
0100
1000
0010
,  // measure 75
0100
0001
0100
0010
0100
0001
0100
0010
,  // measure 76
0101
0000
0000
0101
0000
0000
0101
0000
1010
0000
0000
1010
0000
0000
1010
0000
,  // measure 77
0100
0001
0010
0100
1002
0000
1003
0000
,  // measure 78
0001
0010
0001
0100
0001
0010
0001
0100
,  // measure 79
0010
1000
0010
0100
0010
1000
0010
0100
,  // measure 80
0101
0000
0000
1010
0000
0101
0000
1001
,  // measure 81
0000
0220
M000
M330
,  // measure 82
1M01
0000
0000
M110
0000
0000
01M1
0000
1000
0000
0010
0000
0100
0000
0001
0000
,  // measure 83
0M10
0000
1000
0000
0M10
0000
0001
0000
0100
0000
0000
0110
0000
0000
1001
0000
,  // measure 84
0000
0101
0000
0000
1010
0000
0100
0000
M110
0000
0000
01M1
0000
0000
1M01
0000
,  // measure 85
0010
0100
0010
0001
M010
0100
M001
0010
,  // measure 86
0100
0000
0000
0110
0000
0101
0000
0000
2002
0000
0000
0000
3003
0000
0000
0000
;

//---------------dance-single - ----------------
#NOTES:
     dance-single:
     :
     Beginner:
     3:
     0.279,0.340,0.220,0.000,0.009:
0000
0000
0000
0000
,
0000
0000
0000
0000
,
1000
0000
0000
0000
,
0010
0010
1001
0000
,
1001
0000
1000
0001
,
0100
0000
0000
0000
,
0010
0000
0100
0110
,
0010
000M
000M
000M
,
1000
0000
0001
0000
,
1000
1000
0001
0000
,
1000
0001
1000
0000
,
0100
0010
0100
0000
,
0100
0000
0010
0000
,
0100
0100
0010
0000
,
1000
1000
0001
0001
,
1000
0000
0110
0000
,
0001
0001
1000
1000
,
0010
0000
0110
0000
,
0100
0100
0010
0010
,
1000
0000
1001
0000
,
1000
0000
0001
0000
,
1000
1000
0001
0000
,
0100
0010
0100
0010
,
0110
0000
000M
000M
,
1000
0000
0000
0000
,
0001
0000
0100
0010
,
0100
0000
0010
0000
,
0100
0000
0001
1000
,
1001
00M0
00M0
00M0
,
1000
0000
1000
0000
,
0001
0000
0001
0000
,
0100
0010
0100
0010
,
1000
0001
1000
0000
,
0001
0000
1000
0000
,
0001
0000
0100
0000
,
0110
0000
0000
0000
,
0000
0000
1000
0000
,
1001
0000
1000
0000
,
0010
0010
0100
0000
,
0001
1000
0001
1000
,
0001
1000
0001
0000
,
0010
0000
0100
0000
,
0010
0000
1000
0000
,
1001
0000
0000
0000
,
0000
0000
1000
0000
,
0100
0000
0100
0000
,
0010
0010
0100
0000
,
0001
0000
1000
0000
,
0001
0001
1001
0000
,
1000
0000
0001
0000
,
0100
0100
0010
0000
,
0100
0000
0001
0000
,
1000
0000
1001
0000
,
0010
0000
0100
0000
,
0010
0010
0100
0000
,
0010
0000
0100
0000
,
0001
0001
1000
0000
,
0100
0000
0010
0000
,
1000
0001
1000
0000
,
0001
1000
0001
1000
,
1001
0000
0000
0000
,
1000
0000
0001
0000
,
1000
0000
0010
0000
,
0100
0000
0010
0000
,
0110
0000
0000
0000
,
1000
0000
0001
0000
,
1000
0000
0001
0000
,
0100
0100
0010
0000
,
0010
0010
0110
0000
,
0001
0000
1000
0000
,
0001
0000
1000
0000
,
1001
0000
0000
0000
,
0000
0000
0000
0000
,
1000
1000
1000
0000
,
0001
0001
0001
0000
,
1000
0001
1000
0001
,
1000
0001
1001
0000
,
0100
0010
0100
0010
,
0100
0010
0110
0000
,
1001
0000
0000
0000
,
0000
0000
M000
M000
,
011M
0000
0000
000M
0000
0000
000M
0000
1000
0000
0000
0000
0M01
0000
00M0
0000
,
1000
0001
1001
0000
,
0000
0000
0000
0000
0000
0000
0000
0000
011M
0000
0000
000M
0000
0000
000M
0000
,
M010
0100
M010
0100
,
0110
0000
1000
1001
;

//---------------dance-single - ----------------
#NOTES:
     dance-single:
     :
     Easy:
     6:
     0.461,0.565,0.273,0.291,0.022:
0000
0000
0000
0000
,
0000
0000
0000
0000
,
0220
0000
0000
0330
,
1000
0000
0001
0000
1000
0000
0001
0000
0200
0000
0000
0000
0000
0300
0000
0000
,
1001
0000
0000
0000
0010
0001
1000
0010
,
0100
0000
0000
1001
0000
0000
0110
0000
,
1000
0000
0000
0000
1000
0100
0001
0100
,
M010
0000
0000
1M01
0000
0000
011M
0000
,
1000
0100
1000
0001
,
0010
0100
1000
0010
,
0100
0100
0001
0010
,
1000
1000
0100
0110
,
0010
0001
0100
0010
,
1000
0100
1000
0001
,
0100
0100
0001
1000
,
0002
0003
2000
3000
,
0001
0100
0010
0100
,
0001
0000
1001
0000
,
1000
0100
0010
0100
,
1000
0000
0000
1001
0000
0000
0000
0000
,
0100
0010
0001
1000
,
0001
0100
0010
1000
,
0100
1000
0010
0100
,
0001
0000
0000
1000
0000
0001
0000
0000
,
2000
3000
0200
0300
,
0001
0000
0000
0100
0000
0000
0010
0000
0001
0000
0000
0000
0100
0000
0000
0000
,
2000
3000
0200
0300
,
0001
0000
0000
0010
0000
0000
0100
0000
1000
0000
0000
0100
0000
0000
0010
0000
,
0200
0000
0000
0000
0000
000M
030M
000M
,
1000
0010
1000
0100
,
0010
1001
0001
0100
,
0010
0100
0001
0100
,
0010
0010
1000
1000
,
0100
1000
0010
0100
,
0010
1001
1000
0100
,
1001
0000
0000
1000
0000
0001
0000
0220
,
0000
0000
0330
0000
,
0001
0100
0010
0100
,
0001
0110
0100
1000
,
0100
1000
0010
0100
,
0010
0010
0001
0001
,
0100
1000
0001
0100
,
0010
1001
1000
0100
,
0110
0000
0000
0001
0000
0100
0000
2000
,
0000
0000
3000
0000
,
0001
0000
1001
0000
,
0100
0010
0100
0000
,
0001
0010
0001
0100
,
0010
1000
0001
0001
,
1000
0000
0001
0000
,
0100
0010
1000
0000
,
0001
1000
0100
0010
,
0200
0300
0020
0030
,
0001
0100
1000
0100
,
0001
0010
0100
0010
,
0100
0000
0010
0000
0100
0010
0100
0010
,
0100
0010
0001
1001
,
0010
1000
0100
0001
,
0100
0010
0001
0100
,
0010
0100
0010
0100
0010
0100
0010
0100
,
0010
0000
0110
0000
,
1000
0100
1000
0100
,
2000
3000
0200
0300
0002
0003
0020
0030
,
1000
0001
0100
0010
,
2002
3003
0000
0000
,
1000
0100
1000
0010
,
1000
1001
1000
0100
,
0001
0100
1000
0010
,
0001
0010
1000
1000
,
0010
1000
0100
0001
,
0100
0110
0100
0001
,
0110
0000
0000
1000
0000
0100
0000
0020
,
0000
0000
0000
0030
,
1000
0100
1000
0100
1000
0000
0100
0000
,
0010
0001
0010
0001
0010
0000
0100
0000
,
2002
0000
0000
0003
0000
0000
3000
0000
0220
0000
0000
0030
0000
0000
0300
0000
,
0010
0100
0002
0003
,
1000
0001
1000
0001
1000
0001
1000
0000
,
0100
0010
0100
0010
0100
0000
0010
0000
,
1001
0000
0000
1001
0000
0110
0000
1001
,
0000
0020
0M00
0M30
,
2M02
0000
0000
00M0
0000
0000
3M03
0000
0001
0000
0000
0000
0100
0000
0000
0000
,
100M
0000
0M10
0000
0001
0000
0000
0010
,
0000
0000
0000
0000
0001
0000
0000
0000
022M
0000
0000
M000
0330
0000
000M
0000
,
1000
0100
M001
0M10
,
2000
0000
0000
0000
0000
3000
0000
0000
0001
0000
0000
0000
0000
0000
0000
0000
;
