#VERSION:0.83;
#TITLE:Stepmania;
#SUBTITLE:;
#ARTIST:Darwin;
#TITLETRANSLIT:;
#SUBTITLETRANSLIT:;
#ARTISTTRANSLIT:;
#GENRE:;
#ORIGIN:;
#CREDIT:;
#BANNER:[ROUND F] - Stepmania.png;
#BACKGROUND:[ROUND F] - Stepmania-bg.png;
#PREVIEWVID:;
#JACKET:;
#CDIMAGE:;
#DISCIMAGE:;
#LYRICSPATH:;
#CDTITLE:;
#MUSIC:[ROUND F] - Stepmania.ogg;
#OFFSET:-2.742857;
#SAMPLESTART:49.309765;
#SAMPLELENGTH:16.457142;
#SELECTABLE:YES;
#BPMS:0.000=175.000,
68.000=87.500,
70.000=175.000,
102.000=43.750,
110.000=175.000,
186.000=87.500,
188.000=175.000,
200.000=87.500,
202.000=175.000,
215.000=87.500,
216.500=175.000;
#STOPS:;
#DELAYS:;
#WARPS:;
#TIMESIGNATURES:0.000=4=4;
#TICKCOUNTS:0.000=4;
#COMBOS:0.000=1;
#SPEEDS:0.000=1.000=0.000=0;
#SCROLLS:0.000=1.000;
#FAKES:;
#LABELS:0.000=Song Start;
#BGCHANGES:;
#KEYSOUNDS:;
#ATTACKS:
;

//---------------dance-single - ----------------
#NOTEDATA:;
#CHARTNAME:;
#STEPSTYPE:dance-single;
#DESCRIPTION:;
#CHARTSTYLE:;
#DIFFICULTY:Beginner;
#METER:1;
#RADARVALUES:0.097304,0.268194,0.000000,0.000000,0.000000,71.000000,71.000000,0.000000,0.000000,0.000000,0.000000,0.000000,0.000000,0.000000,0.097304,0.268194,0.000000,0.000000,0.000000,71.000000,71.000000,0.000000,0.000000,0.000000,0.000000,0.000000,0.000000,0.000000;
#CREDIT:;
#NOTES:
0000
0000
0000
0000
,
0000
0000
0000
0000
,
0000
0000
0000
0000
,
0000
0000
0000
0000
,
0000
0000
0000
0000
,
0000
0000
0000
0000
,
1000
0000
0000
0000
,
0001
0000
0000
0000
,
1000
0000
0000
0000
,
0001
0000
0000
0000
,
1000
0000
0000
0000
,
0010
0000
0000
0000
,
0100
0000
0000
0000
,
0001
0000
0000
0000
,
1000
0000
0000
0000
,
0100
0000
0000
0000
,
0010
0000
0000
0000
,
0001
0000
1000
0000
,
0000
0000
0100
0000
,
0000
0000
0010
0000
,
0000
0000
0001
0000
,
0000
0000
1000
0000
,
0000
0000
0100
0000
,
0000
0000
0010
0000
,
0000
0000
0100
0000
,
0000
0000
1000
0001
,
1000
0001
0100
0001
,
0100
0001
1000
0000
,
0000
0000
1000
0000
,
0000
0000
0001
0000
,
0001
0000
0100
0100
,
0100
0100
0001
0000
,
0000
0000
1000
0000
,
0000
0000
0100
0000
,
0000
0000
0010
0000
,
0000
0000
0001
0000
,
0000
0000
1000
0000
,
0000
0000
0010
0000
,
0000
0000
0100
0000
,
0000
0000
0010
0000
,
0000
0000
1000
0000
,
0000
0000
0001
0000
,
0000
0000
0010
0000
,
0000
0000
0100
0000
,
0000
0000
1000
0000
,
0000
0000
0001
0000
,
0000
0000
1000
0000
,
0001
0000
0000
0000
,
0100
0000
0000
0000
,
0010
0000
0000
0000
,
1000
0000
0001
0000
,
0000
0000
0100
0000
,
0000
0000
0010
0000
,
0000
0000
0100
0000
,
0000
0001
0000
0000
0000
0000
0000
0000
,
0000
0010
0000
0000
0000
0000
0000
0000
,
0000
0100
0000
0000
0000
0000
0000
0000
,
0000
1000
0000
0000
0000
0000
0000
0000
,
0000
0010
0000
0000
0000
0000
0000
0000
,
0000
0100
0000
0000
0000
0000
0000
0000
,
0000
0001
0000
0000
0000
1000
0000
0000
,
0000
0001
0000
0000
0000
1000
0000
0000
,
0000
0001
0000
0000
0000
0000
0000
0000
;

//---------------dance-single - ----------------
#NOTEDATA:;
#CHARTNAME:;
#STEPSTYPE:dance-single;
#DESCRIPTION:;
#CHARTSTYLE:;
#DIFFICULTY:Easy;
#METER:4;
#RADARVALUES:0.278207,0.476789,0.211053,0.278207,0.000000,203.000000,181.000000,22.000000,29.000000,0.000000,0.000000,0.000000,0.000000,0.000000,0.278207,0.476789,0.211053,0.278207,0.000000,203.000000,181.000000,22.000000,29.000000,0.000000,0.000000,0.000000,0.000000,0.000000;
#CREDIT:;
#NOTES:
0000
0000
0000
0000
,
0000
0000
0000
0000
,
0000
0000
0000
0000
,
0000
0000
0000
0000
,
0000
0000
0000
0000
,
0000
0000
0000
0000
,
0010
0000
0000
0000
,
0100
0000
0000
0000
,
1000
0000
0000
0000
,
0001
0000
0000
0000
,
0100
0000
0100
0000
,
0010
0000
0010
0000
,
1000
0000
1000
0000
,
0001
0000
0001
0000
,
0100
0000
0100
0000
,
0010
0000
0010
0000
,
0100
0000
0100
0000
,
0001
0000
1000
0000
,
0100
0010
0001
0000
,
0100
0001
1000
0000
,
0001
0100
0010
0000
,
1000
0001
0100
0000
,
0010
1000
0100
0000
,
0010
0100
1000
0000
,
0001
1000
0010
0010
,
0100
0100
0001
1000
,
0100
0010
0001
0100
,
0010
1000
0001
0100
,
0010
1000
0010
0100
,
0010
1000
0001
0100
,
1000
0100
0001
0010
,
1000
0001
0100
0010
,
0100
0010
0001
1000
,
0001
1000
0010
0100
,
0010
0100
0001
1000
,
0001
1000
0010
1000
,
0001
0100
0010
1000
,
0100
0010
0001
1000
,
0100
0010
0100
0000
,
0000
0000
1000
0010
,
0001
0010
1000
0100
,
0001
0100
0010
0001
,
0100
1000
0100
0010
,
1000
0001
1000
0100
,
0001
1000
0001
0100
,
1000
0001
1000
0010
,
0001
1000
0001
0010
,
2000
3200
0320
0230
,
0320
0230
0320
0230
,
2300
3020
0230
0320
,
2030
3002
2003
3020
,
0032
0023
0032
0023
,
0032
0023
2030
3200
,
0302
0203
0302
0203
,
1300
1001
0000
1001
0000
1001
0000
0000
,
0000
0101
0000
0101
0000
0101
0000
0000
,
0000
0110
0000
0110
0000
0110
0000
0000
,
0000
1010
0000
0000
0000
0000
0000
0000
,
0000
1001
0000
1001
0000
1001
0000
1000
,
0000
1010
0000
1010
0000
1010
0000
0010
,
0000
0110
0000
0000
0000
0011
0000
0000
,
0000
0101
0000
1010
0000
1200
0000
0310
,
0000
0011
0000
0000
0000
0000
0000
0000
;

//---------------dance-single - ----------------
#NOTEDATA:;
#CHARTNAME:;
#STEPSTYPE:dance-single;
#DESCRIPTION:;
#CHARTSTYLE:;
#DIFFICULTY:Medium;
#METER:7;
#RADARVALUES:0.361806,0.536388,0.086340,0.335767,0.134307,264.000000,255.000000,9.000000,35.000000,0.000000,0.000000,0.000000,0.000000,0.000000,0.361806,0.536388,0.086340,0.335767,0.134307,264.000000,255.000000,9.000000,35.000000,0.000000,0.000000,0.000000,0.000000,0.000000;
#CREDIT:;
#NOTES:
0000
0000
0000
0000
,
0000
0000
0000
0000
,
0000
0000
0000
0000
,
0000
0000
0000
0000
,
0000
0000
0000
0000
,
0000
0000
0000
0000
0000
0000
0000
0000
0000
0000
0000
0010
,
0000
0000
0000
0000
0000
0000
0000
0000
0000
0000
0000
0100
,
0000
0000
0000
0000
0000
0000
0000
0000
0000
0000
0000
0001
,
0000
0000
0000
0000
0000
0000
0000
0000
0000
0000
0000
1000
,
0000
0000
0000
0000
,
0100
0000
0000
0010
0000
0000
0100
0000
0000
1000
0000
0001
,
0000
0000
0000
0000
0000
0000
0100
0000
0000
0010
0000
0001
,
0000
0000
0000
0000
0000
0000
0010
0000
0000
1000
0000
0100
,
0000
0000
0000
0000
0000
0000
0010
0000
0000
0100
0000
1000
,
0000
0000
0000
0000
0000
0000
0001
0000
0000
0100
0000
0010
,
0000
0000
0000
0000
0000
0000
0100
0000
0000
0001
0000
0010
,
0000
0000
0100
1000
,
0001
0001
0100
0010
1000
0000
0001
0000
,
0100
0000
0000
0010
0000
0001
0000
0000
0000
0010
0000
0000
,
1000
0000
0000
0100
0000
0010
0000
0000
0000
0001
0000
0000
,
0010
0000
0000
1000
0000
0010
0000
0000
0000
0100
0000
0000
,
1000
0000
0000
0010
0000
0001
0000
0000
0000
0010
0000
0000
,
0100
0000
0000
0001
0000
1000
0000
0000
0000
0100
0000
0000
,
0010
0000
0000
0100
0000
1000
0000
0000
0000
0001
0000
0000
,
0100
0010
1000
1000
,
0001
0000
0000
0000
0000
0000
0000
0000
0000
0000
0000
0000
1000
0000
0000
0000
0000
0000
0000
0000
0000
0000
0000
0000
1001
0000
0000
0000
0000
0000
0000
0000
0000
0000
0000
0100
0000
0000
0000
0000
0000
0000
0000
0000
0000
0000
0000
0010
,
0000
0000
0000
0000
0000
0000
0000
0000
0000
0000
0000
1000
0000
0000
0000
0000
0000
0000
0000
0000
0000
0000
0000
0010
0000
0000
0000
0000
0000
0000
0000
0000
0000
0000
0000
0001
0000
0000
0000
0000
0000
0000
0000
0000
0000
0000
0000
0010
,
0000
0000
0000
0000
0000
0000
0000
0000
0000
0000
0000
0100
0000
0000
0000
0000
0000
0000
0001
0000
0000
1000
0000
0000
0001
0000
0000
0000
0000
0000
0000
0000
0000
0000
0000
0000
0001
0000
0000
0000
0000
0000
0000
0000
0000
0000
0000
0000
,
0100
0100
0010
0010
,
1000
1000
0001
0100
,
1000
0000
0010
0000
0001
1000
0001
1000
,
0001
1000
0001
1000
0001
0000
0001
0000
,
0100
0001
1000
0000
0010
1000
0010
0000
,
0010
1000
0100
0000
0010
0000
0001
0010
,
0001
0010
0100
0000
0010
0000
0001
0000
,
0100
0110
1000
1000
,
0010
1000
0001
0000
0100
0001
0100
0000
,
0100
0001
0010
0000
0100
0000
1000
0100
,
1000
0100
0010
0000
0100
1000
0000
1000
,
0001
1000
0001
0000
1000
0000
0010
0000
,
0001
0010
1000
0000
0100
0010
0100
0000
,
0100
0010
0001
0000
0100
0000
0001
0100
,
1000
0100
0001
0000
1000
0000
1000
0000
,
0001
1001
0001
0010
,
1000
0010
0001
0000
0100
0010
0100
0000
,
0100
0010
1000
0000
0100
0000
1000
0100
,
0001
0000
0100
0000
1000
0000
0000
0000
0002
1000
0000
1000
0000
1000
0000
1003
,
0002
0203
2300
3200
,
0320
0230
0320
0230
,
0302
0023
2030
3020
,
0230
2300
3020
0230
0302
0000
0203
0000
,
0320
0032
0023
0230
,
0320
0230
0302
2003
,
3200
0000
0320
0000
0230
0000
2300
3002
,
2003
3001
0000
0001
0000
0001
0000
0001
,
0100
1000
0000
1000
0000
1000
0000
1000
,
0100
0010
0000
0010
0000
0010
0000
0010
,
1000
0100
0010
0000
0100
1000
0001
1000
,
0000
0001
1000
0001
1000
0001
1000
0001
,
1000
0010
0100
0010
0100
0010
0100
0010
,
0100
1010
0000
0000
0000
1100
0000
0000
,
0000
0110
0000
0011
0000
0201
0000
0320
,
0030
0110
0000
0000
0000
0000
0000
0000
;

//---------------dance-single - ----------------
#NOTEDATA:;
#CHARTNAME:;
#STEPSTYPE:dance-single;
#DESCRIPTION:;
#CHARTSTYLE:;
#DIFFICULTY:Hard;
#METER:10;
#RADARVALUES:0.723612,1.460166,0.297394,0.278207,0.791450,528.000000,497.000000,31.000000,29.000000,0.000000,0.000000,0.000000,0.000000,0.000000,0.723612,1.460166,0.297394,0.278207,0.791450,528.000000,497.000000,31.000000,29.000000,0.000000,0.000000,0.000000,0.000000,0.000000;
#CREDIT:;
#NOTES:
// measure 0
0000
0000
0000
0000
,  // measure 1
0000
0000
0000
0000
,  // measure 2
0000
0000
0000
0000
,  // measure 3
0000
0000
0000
0000
,  // measure 4
0000
0000
0000
0000
,  // measure 5
0000
0000
0000
0000
0000
0000
0000
0000
1000
0200
0000
0310
,  // measure 6
0000
0000
0100
1000
0000
0010
0100
0000
0001
0200
0000
0310
,  // measure 7
0000
0000
0100
0001
0000
0010
0100
0000
1000
0200
0000
0310
,  // measure 8
0000
0000
0010
0001
0000
0100
0010
0000
1000
0020
0000
0130
,  // measure 9
0000
0000
0010
1000
0000
0100
0010
0000
0001
0010
0000
0100
,  // measure 10
1000
0000
0000
1000
0000
0000
1000
0010
0100
0001
0000
0100
,  // measure 11
0010
0000
0100
0001
0000
0100
0010
1000
0100
0010
0000
0100
,  // measure 12
1000
0000
0100
0010
0000
0100
1000
0001
0100
0010
0000
0100
,  // measure 13
0001
0000
0100
0010
0000
0100
0001
1000
0100
0010
0000
0100
,  // measure 14
1000
0000
0100
0010
0000
0100
0001
0100
0010
0001
0000
0100
,  // measure 15
0001
0000
0100
0010
0000
0100
1000
0100
0010
1000
0000
0010
,  // measure 16
1000
0000
0010
0100
0000
0010
0001
0010
0100
0001
0000
0010
,  // measure 17
0100
0000
0010
0001
0000
0000
0100
0000
0001
0100
0010
1000
1001
0000
0000
0000
0000
0000
0000
0000
0000
0000
0000
0000
,  // measure 18
0001
1000
0100
0020
0000
1030
0000
0000
0000
1000
0000
0000
,  // measure 19
0010
0001
0100
0020
0000
0031
0000
0000
0000
0001
0000
0000
,  // measure 20
0010
0100
0001
2000
0000
3100
0000
0000
0000
0100
0000
0000
,  // measure 21
0001
0100
0010
0002
0000
1003
0000
0000
0000
1000
0000
0000
,  // measure 22
0010
0001
0010
0200
0000
0301
0000
0000
0000
0001
0000
0000
,  // measure 23
1000
0100
0010
2000
0000
3010
0000
0000
0000
0010
0000
0000
,  // measure 24
0100
1000
0001
0100
0000
0010
1000
0000
1000
0001
0000
0001
,  // measure 25
0100
0000
0000
0000
0000
0000
0000
0000
0100
0000
0000
0000
0010
0000
0000
0000
0000
0000
0000
0000
0010
0000
0000
0000
1000
0000
0000
0000
0000
0000
0001
0100
0010
2000
0000
3010
2000
0000
0000
0000
0000
0000
3100
0010
0100
2000
0000
3001
,  // measure 26
2000
0000
0000
0000
0000
0000
3010
1000
0001
0200
0000
0310
0200
0000
0000
0000
0000
0000
0301
0010
0100
0020
0000
0031
0020
0000
0000
0000
0000
0000
0130
1000
0010
0200
0000
0310
0200
0000
0000
0000
0000
0000
0310
0100
0001
2000
0000
3100
,  // measure 27
2000
0000
0000
0000
0000
0000
3100
0010
0001
0020
0000
0031
0020
0000
0000
0000
0000
0000
0031
1000
0010
2000
0000
3001
1000
0000
0000
0000
0000
0000
0000
0000
0000
0000
0000
0000
0010
0000
0000
0000
0000
0000
0000
0000
0000
0000
0000
0000
,  // measure 28
0100
0001
0100
0010
,  // measure 29
1000
0000
0100
0000
0010
0010
0100
1000
,  // measure 30
0001
0000
0001
0000
1000
0000
0010
0000
0100
0010
1000
0100
0010
0001
0100
0010
,  // measure 31
1000
0100
0010
0001
0100
0010
1000
0001
0100
0000
0010
0000
0100
0000
0001
0000
,  // measure 32
0100
0010
1000
0010
0001
0010
0100
0001
,  // measure 33
1000
0000
0100
0000
0010
0000
0100
0010
0100
0000
1000
0000
0001
0000
0001
0000
,  // measure 34
0001
0100
0010
0100
0001
1000
0100
0010
,  // measure 35
0100
1000
1001
0000
0010
0100
0010
1000
,  // measure 36
0010
0100
0001
0100
1000
0100
0010
1000
,  // measure 37
0100
0000
0010
0000
0100
0000
0010
0100
0010
0000
0100
0000
1000
0000
1000
0000
,  // measure 38
1000
0001
0100
0010
0101
0011
0000
0011
,  // measure 39
0110
1010
1001
0000
1000
0010
0001
0010
,  // measure 40
0100
0001
0010
1000
0010
0100
1000
0001
,  // measure 41
0100
0000
0010
0000
0001
0000
0010
0001
0010
0000
0100
0000
0001
0000
0001
0000
,  // measure 42
0001
0010
1000
0010
0100
1000
0100
0010
,  // measure 43
0100
1000
1010
0000
0001
0100
1000
0100
,  // measure 44
0010
1000
0100
0001
0100
0010
0001
1000
,  // measure 45
0010
0000
0100
0000
1000
0000
0100
1000
0100
0000
0010
0000
1000
0000
1000
0000
,  // measure 46
1000
0000
0000
0000
0100
0000
0000
0000
0001
0000
0000
0000
0100
0000
0000
0000
0010
0000
0001
0000
0000
0000
0001
0000
1000
0001
1000
0001
1000
0001
1000
0001
,  // measure 47
0100
0001
0100
0000
0100
0010
0100
0000
0001
0010
0100
0000
0010
0001
1000
0000
,  // measure 48
0010
1000
0001
0000
0100
0001
1000
0000
0001
0100
0010
0000
0100
0001
1000
0000
,  // measure 49
0100
1000
0100
0000
0100
0010
0100
0000
1000
0010
0100
0000
0010
1000
0001
0000
,  // measure 50
2000
0000
3020
0000
2030
0000
3002
0000
1003
0001
1000
0000
1000
0010
1000
0000
,  // measure 51
0001
0100
0010
0000
0001
0010
0100
0000
0010
1000
0100
0000
0001
0100
0010
0000
,  // measure 52
0001
1000
0010
0000
0001
0010
1000
0000
0001
1000
0001
0000
0001
0010
0001
0000
,  // measure 53
1000
0010
0100
0000
1000
0100
0010
0000
0100
0001
0010
0000
0001
1000
0000
0100
,  // measure 54
0010
0000
0001
0010
0001
0000
0000
0000
0000
0000
0000
0000
0011
0000
0000
0000
0000
0000
0000
0000
0011
0000
0000
0000
0000
0000
0000
0000
0011
0000
0000
0000
,  // measure 55
0100
0110
0000
0110
0000
0110
0000
0110
,  // measure 56
1000
0010
1000
0000
0000
0000
1010
0000
0000
0000
1010
0000
0000
0000
1010
0000
,  // measure 57
0100
0011
0101
0000
0011
0110
1010
1001
,  // measure 58
0000
1000
0100
0001
0100
1000
0100
0001
,  // measure 59
1001
0001
0100
1000
0100
0001
0100
1000
,  // measure 60
0100
0010
0100
0000
0000
0000
0011
0000
0000
0000
0100
0000
0000
0000
1010
0000
,  // measure 61
0000
0000
1100
0000
0000
0000
0110
0000
0000
0000
0011
0000
0000
0000
0001
0100
,  // measure 62
0001
0100
0010
0000
0000
0000
0000
0000
0000
0000
0000
0000
0000
0000
0000
0000
;
