#TITLE:Scatman;
#SUBTITLE:Extreme Splitter RMX;
#ARTIST:Kurwastyle Project;
#TITLETRANSLIT:;
#SUBTITLETRANSLIT:;
#ARTISTTRANSLIT:;
#GENRE:;
#CREDIT:usaminseijin;
#BANNER:[ROUND F] - Scatman (Extreme Splitter Rmx).png;
#BACKGROUND:[ROUND F] - Scatman (Extreme Splitter Rmx)-bg.png;
#LYRICSPATH:;
#CDTITLE:cdtitle.png;
#MUSIC:[ROUND F] - Scatman (Extreme Splitter Rmx).ogg;
#OFFSET:-0.057000;
#SAMPLESTART:13.324000;
#SAMPLELENGTH:12.000000;
#SELECTABLE:YES;
#BPMS:0.000000=252.940002
;
#STOPS:
;
#BGCHANGES:;
#KEYSOUNDS:;
#ATTACKS:;

//---------------dance-single - ----------------
#NOTES:
     dance-single:
     :
     Hard:
     10:
     0.892642,1.133743,0.818010,0.240591,0.099673,909.000000,790.000000,119.000000,35.000000,0.000000,0.000000,0.892642,1.133743,0.818010,0.240591,0.099673,909.000000,790.000000,119.000000,35.000000,0.000000,0.000000:
0000
0000
0000
0000
,
0000
0000
0000
0000
,
0000
0000
0000
0000
,
0000
0000
0000
0000
,
0000
0000
0000
0000
,
0000
0000
0000
0000
,
1000
0001
1000
0001
1000
0001
1000
0001
,
1000
0001
1000
0001
1000
0001
2000
0000
,
3010
0100
0010
0100
0010
0100
0010
0100
,
0010
0100
0010
0100
0010
0100
0020
0000
,
1030
0010
1000
0010
1000
0010
1000
0010
,
1000
0010
1000
0010
1000
0010
2000
0000
,
3001
0100
0001
0100
0001
0100
0001
0100
,
0001
0100
0001
0100
0001
0100
0002
0000
,
1003
0001
1000
0010
1000
0001
1000
0010
,
1000
0001
1000
0010
1000
0001
1000
0010
,
1000
0001
1000
0100
1000
0001
1000
0100
,
1000
0000
0001
0000
1000
0000
0100
0000
1000
0001
1000
0000
0001
1000
0001
0000
,
0100
0010
0100
0001
0100
0010
0100
0001
,
0100
0010
0100
0001
0100
0010
0100
0001
,
0100
0010
1000
0010
0100
0010
1000
0010
,
0100
0010
1000
0001
0100
0001
1000
0001
,
0110
1001
0110
1001
,
0110
1001
0110
1001
,
0110
1001
0110
1001
,
0110
0000
1001
0000
0110
0000
1000
0001
,
1000
0101
1001
0101
,
1001
1100
1001
1100
,
0110
0101
0110
1010
,
1000
0010
0100
0001
1000
0010
0100
0001
,
1010
0000
1001
0000
,
0101
0000
1001
0000
,
1010
0000
0110
0000
,
0101
0000
0110
0000
,
1001
0000
1100
0000
,
1001
0000
0011
0000
,
0110
0000
1100
0000
,
0110
0000
0011
0000
,
1001
0000
0000
0000
,
1001
0000
0000
0000
,
0001
1000
0001
1000
0001
1000
0001
1000
,
0001
1000
0001
1000
0001
1000
0001
1000
,
0001
1000
0001
1000
0001
1000
0001
1000
,
0101
1100
0101
1100
,
0010
0100
0010
0100
0010
0100
0010
0100
,
0010
0100
0010
0100
0010
0100
0010
0100
,
0010
0100
0010
0100
0010
0100
0010
0100
,
1010
0000
0011
0000
1000
0001
1000
0001
,
1000
0100
1000
0100
1000
0100
1000
0100
,
1000
0100
1000
0100
1000
0100
1000
0100
,
1000
0100
1000
0100
1000
0100
1000
0100
,
1001
1010
1001
0011
,
0010
0001
0010
0001
0010
0001
0010
0001
,
0010
0001
0010
0001
0010
0001
0010
0001
,
0010
0001
0010
0001
0010
0001
0010
0001
,
1010
0000
0011
0000
1000
0001
1000
0001
,
1000
0100
1000
0010
0100
0001
0100
0010
,
1000
0001
1000
0100
0010
0001
0100
0010
,
1000
0010
0100
0010
1000
0001
0010
0001
,
1000
0010
1000
0000
0001
1000
0001
0000
0100
0001
0100
0000
0010
0100
0010
0000
,
1000
0100
1000
0010
0100
0001
0010
0001
,
1000
0010
0100
0001
1000
0100
0010
0001
,
0100
0001
0010
0001
1000
0100
1000
0010
,
1000
0000
0001
0000
0100
0000
0010
0000
1000
0000
0001
0000
1000
0001
1000
0001
,
0110
1001
0110
1001
,
0110
1001
0110
1001
,
0110
1001
0110
1001
,
1000
0010
1000
0000
0010
0100
0010
0000
0100
0001
0100
0000
0001
1000
0001
0000
,
1001
0101
1001
0101
,
1001
1100
1001
1100
,
0100
0010
0100
0010
1000
0001
1000
0001
,
4000
0004
0000
0000
0000
0000
0000
0000
0000
0000
0000
0000
0000
0000
3000
0003
,
0110
0000
0000
0000
,
0000
0000
0000
0000
,
0000
0000
0000
0000
,
4000
0004
0000
0000
0000
0000
0000
0000
0000
0000
0000
0000
0000
0000
3000
0003
,
2000
0000
3010
0100
,
0002
0000
0103
0010
,
2000
0000
3001
0100
,
0002
0000
1003
0010
,
0200
0000
0301
0100
,
0020
0000
1030
0010
,
0100
1000
0100
1000
0001
0010
0001
0010
,
0100
1000
0100
0000
1000
0100
1000
0000
0001
0010
0001
0000
0010
0001
0010
0000
,
2000
3001
0200
0301
,
2000
3010
0200
0310
,
2000
3010
0200
0301
,
1100
1100
0101
0101
,
0020
1030
0002
1003
,
0020
0130
0002
0103
,
0020
1030
0002
0103
,
0001
0000
1000
0000
0001
0000
1000
0000
0010
0000
0100
0000
0010
0100
0010
0100
,
0002
1003
0020
1030
,
0002
0103
0020
0130
,
0002
0103
0020
1030
,
0011
0000
0011
0000
0010
1000
0010
1000
,
0200
0301
2000
3001
,
0200
0310
2000
3010
,
0200
0301
2000
3010
,
1000
0000
0001
0000
1000
0000
0001
0000
0100
0010
0100
0010
0100
0010
0100
0010
,
1000
0010
1000
0010
0100
0001
0100
0001
,
1000
0100
1000
0100
0010
0001
0010
0001
,
1000
0001
1000
0001
0100
0010
0100
0010
,
1000
0000
0100
0000
0010
0000
0001
0000
1000
0000
0010
0000
0100
0001
0100
0000
,
0010
1000
0010
1000
0001
0100
0001
0100
,
0001
0010
0001
0010
0100
1000
0100
1000
,
0001
1000
0001
1000
0010
0100
0010
0100
,
0001
0000
0010
0000
0100
0000
1000
0000
0001
0000
0010
0000
0100
1000
0100
0000
,
1001
0000
0000
0000
,
0000
0000
0000
0000
,
0000
0000
0000
0000
,
0000
0000
0000
0000
,
1000
0001
1000
0001
0100
0001
0100
0001
,
1000
0100
1000
0100
0010
0100
0010
0100
,
0010
0001
0010
0001
1000
0001
1000
0001
,
0100
0010
0100
0010
1000
0002
0000
0000
,
1003
0000
0000
0000
,
0110
0000
0000
0000
,
1000
0001
1000
0010
1000
0001
1000
0010
,
1000
0001
1000
0010
1000
0001
1000
0010
,
1000
0001
1000
0100
1000
0001
1000
0100
,
1000
0000
0001
0000
1000
0000
0100
0000
1000
0001
1000
0000
0001
1000
0001
0000
,
0100
0010
0100
0001
0100
0010
0100
0001
,
0100
0010
0100
0001
0100
0010
0100
0001
,
0100
0010
1000
0010
0100
0010
1000
0010
,
0100
0010
1000
0001
0100
0001
1000
0001
,
0110
1001
0110
1001
,
0110
1001
0110
1001
,
0110
1001
0110
1001
,
0110
0000
1001
0000
0110
0000
1000
0001
,
1000
0101
1001
0101
,
1001
1100
1001
1100
,
0110
0101
0110
1010
,
1000
0010
0100
0001
1000
0010
0100
0001
,
1000
0000
0000
0001
0100
0000
0000
0001
,
1000
0000
0000
0010
0100
0000
0000
0010
,
1000
0000
0000
0001
0010
0000
0000
0001
,
0100
0000
0000
0010
1000
0000
0000
0100
,
1000
0000
0000
0001
0100
0000
0000
0001
,
1000
0000
0000
0100
1000
0000
0000
0001
,
0010
0000
0000
0001
0100
0000
0000
0010
,
0100
0000
0000
0001
1000
0000
0100
0000
,
1001
0000
1010
0000
,
0101
0000
0110
0000
,
1100
0000
0011
0000
,
1001
0000
0110
0000
,
1000
0001
1000
0001
,
0100
0010
0100
0010
,
1000
0001
1000
0001
1000
0001
1000
0001
,
0400
0040
0000
0000
0000
0000
0000
0000
0000
0000
0000
0000
0000
0000
0300
0030
;

//---------------dance-single - ----------------
#NOTES:
     dance-single:
     :
     Medium:
     9:
     0.675619,0.876074,0.254339,0.336828,0.000000,688.000000,651.000000,37.000000,49.000000,0.000000,0.000000,0.675619,0.876074,0.254339,0.336828,0.000000,688.000000,651.000000,37.000000,49.000000,0.000000,0.000000:
0000
0000
0000
0000
,
0000
0000
0000
0000
,
0000
0000
0000
0000
,
0000
0000
0000
0000
,
0000
0000
0000
0000
,
0000
0000
0000
0000
,
1000
0001
1000
0001
1000
0001
1000
0001
,
1000
0001
1000
0001
1000
0001
1000
0000
,
0010
0100
0010
0100
0010
0100
0010
0100
,
0010
0100
0010
0100
0010
0100
0010
0000
,
1000
0010
1000
0010
1000
0010
1000
0010
,
1000
0010
1000
0010
1000
0010
1000
0000
,
0001
0100
0001
0100
0001
0100
0001
0100
,
0001
0100
0001
0100
0001
0100
0001
0000
,
1000
0001
1000
0010
,
1000
0001
1000
0010
,
1000
0001
1000
0100
,
1000
0000
0001
0000
1000
0001
1000
0001
,
0100
0010
0100
0001
,
0100
0010
0100
0001
,
0100
0010
1000
0010
,
0100
0010
1000
0001
,
0100
0001
0100
1001
,
0010
0001
0010
1001
,
0100
1000
0100
1001
,
0010
0000
1000
0000
0010
0000
1000
0001
,
1000
0100
0010
0101
,
1000
0010
1000
1100
,
0100
0001
0100
1010
,
1000
0001
1000
0001
0100
0010
0100
0010
,
1000
0000
1001
0000
,
0100
0000
1001
0000
,
1000
0000
0110
0000
,
0001
0000
0110
0000
,
0001
0000
1100
0000
,
1000
0000
0011
0000
,
0010
0000
1100
0000
,
0100
0000
0011
0000
,
1001
0000
0000
0000
,
1001
0000
0000
0000
,
0001
1000
0001
1000
0001
1000
0001
1000
,
0001
1000
0001
1000
0001
1000
0001
1000
,
0001
1000
0001
1000
0001
1000
0001
1000
,
0010
0100
0001
1000
,
0010
0100
0010
0100
0010
0100
0010
0100
,
0010
0100
0010
0100
0010
0100
0010
0100
,
0010
0100
0010
0100
0010
0100
0010
0100
,
0010
0000
0010
0000
1000
0001
1000
0001
,
1000
0100
1000
0100
1000
0100
1000
0100
,
1000
0100
1000
0100
1000
0100
1000
0100
,
1000
0100
1000
0100
1000
0100
1000
0100
,
1000
0010
0100
0001
,
0010
0001
0010
0001
0010
0001
0010
0001
,
0010
0001
0010
0001
0010
0001
0010
0001
,
0010
0001
0010
0001
0010
0001
0010
0001
,
0100
0000
0010
0000
1000
0001
1000
0001
,
1000
0100
1000
0100
0010
0001
0010
0001
,
1000
0001
1000
0001
0100
0010
0100
0010
,
1000
0010
1000
0010
0100
0001
0100
0001
,
2000
3000
0002
0003
2000
3000
0002
0003
,
1000
0100
1000
0100
0010
0001
0010
0001
,
1000
0010
1000
0010
0100
0001
0100
0001
,
0010
0001
0010
0001
1000
0100
1000
0100
,
1000
0001
1000
0001
1000
0001
2000
3000
,
0100
1000
0100
1001
,
0010
0001
0010
1001
,
0100
1000
0100
1001
,
2000
3020
0230
0302
,
1003
0001
0100
1001
,
0010
0001
1000
0101
,
0100
0010
0100
0010
1000
0001
1000
0001
,
2002
0000
0000
0000
0000
0000
0000
3003
,
0110
0000
0000
0000
,
0000
0000
0000
0000
,
0000
0000
0000
0000
,
0220
0000
0000
0000
0000
0000
0000
0330
,
2000
0000
3010
0100
,
0002
0000
0103
0010
,
2000
0000
3001
0100
,
0002
0000
1003
0010
,
0200
0000
0301
0100
,
0020
0000
1030
0010
,
0200
0000
0301
0010
,
0002
0000
1003
0001
,
2000
3001
0200
0301
,
2000
3010
0200
0310
,
2000
3010
0200
0301
,
1000
1000
0001
0001
,
0020
1030
0002
1003
,
0020
0130
0002
0103
,
0020
1030
0002
0103
,
0001
1000
0001
1000
0010
0100
0010
0100
,
0002
1003
0020
1030
,
0002
0103
0020
0130
,
0002
0103
0020
1030
,
0100
0000
0100
0000
0010
1000
0010
1000
,
0200
0301
2000
3001
,
0200
0310
2000
3010
,
0200
0301
2000
3010
,
1000
0001
1000
0001
0020
0000
0000
0030
,
1000
0001
1000
0001
1000
0001
1000
0001
,
0100
0010
0100
0010
0100
0010
0100
0010
,
1000
0001
1000
0001
1000
0001
1000
0001
,
0100
0010
0100
0010
0100
0010
0100
0000
,
0010
1000
0010
1000
0010
1000
0010
1000
,
0001
0100
0001
0100
0001
0100
0001
0100
,
0001
1000
0001
1000
0001
1000
0001
1000
,
0001
0010
0001
0010
0100
1000
0100
0000
,
1001
0000
0000
0000
,
0000
0000
0000
0000
,
0000
0000
0000
0000
,
0000
0000
0000
0000
,
1000
0000
0001
0000
,
1000
0000
0010
0000
,
0100
0000
0001
0000
,
0100
0000
0000
0000
0000
0002
0000
0000
,
1003
0000
0000
0000
,
0110
0000
0000
0000
,
1000
0001
1000
0010
,
1000
0001
1000
0010
,
1000
0001
1000
0100
,
1000
0000
0001
0000
1000
0001
1000
0001
,
0100
0010
0100
0001
,
0100
0010
0100
0001
,
0100
0010
1000
0010
,
0100
0010
1000
0001
,
0100
0001
0100
1001
,
0010
0001
0010
1001
,
0100
1000
0100
1001
,
0010
0000
1000
0000
0010
0000
1000
0001
,
1000
0100
0010
0101
,
1000
0010
1000
1100
,
0100
0001
0100
1010
,
1000
0001
1000
0001
0100
0010
0100
0010
,
1000
0000
0000
0001
0100
0000
0000
0001
,
1000
0000
0000
0010
0100
0000
0000
0010
,
1000
0000
0000
0001
0010
0000
0000
0001
,
0100
0000
0000
0010
1000
0000
0000
0100
,
1000
0000
0000
0001
0100
0000
0000
0001
,
1000
0000
0000
0100
1000
0000
0000
0001
,
0010
0000
0000
0001
0100
0000
0000
0010
,
0100
0000
0000
0001
1000
0000
0100
0000
,
1000
0000
1010
0000
,
0100
0000
0110
0000
,
1000
0000
0011
0000
,
0001
0000
0110
0000
,
1000
0001
1000
0001
,
0100
0010
0100
0010
,
1000
0001
1000
0001
,
0220
0000
0000
0000
0000
0000
0000
0000
0000
0000
0000
0000
0000
0000
0000
0330
;

//---------------dance-single - ----------------
#NOTES:
     dance-single:
     :
     Easy:
     6:
     0.461542,0.515123,0.061866,0.158103,0.000000,470.000000,461.000000,9.000000,23.000000,0.000000,0.000000,0.461542,0.515123,0.061866,0.158103,0.000000,470.000000,461.000000,9.000000,23.000000,0.000000,0.000000:
0000
0000
0000
0000
,
0000
0000
0000
0000
,
0000
0000
0000
0000
,
0000
0000
0000
0000
,
0000
0000
0000
0000
,
0000
0000
0000
0000
,
1000
0001
1000
0001
,
1000
0001
1000
0001
,
0100
0010
0100
0010
,
0100
0010
0100
0010
,
1000
0010
1000
0010
,
1000
0010
1000
0010
,
0100
0001
0100
0001
,
0100
0001
0100
0001
,
1000
0001
1000
0010
,
1000
0001
1000
0010
,
1000
0001
1000
0100
,
1000
0001
1000
0001
,
0100
0010
0100
0001
,
0100
0010
0100
0001
,
0100
0010
1000
0010
,
0100
0010
1000
0001
,
0100
0001
0100
0010
,
1000
0001
1000
0010
,
0100
0001
0100
0010
,
0100
0001
1000
0010
,
1000
0100
0010
0001
,
1000
0010
1000
0001
,
0100
0001
0100
0010
,
2000
3000
0002
0003
,
1000
0000
0001
0000
,
0100
0000
0001
0000
,
1000
0000
0100
0000
,
0001
0000
0010
0000
,
0001
0000
0100
0000
,
1000
0000
0001
0000
,
0010
0000
1000
0000
,
0100
0000
0001
0000
,
1001
0000
0000
0000
,
1001
0000
0000
0000
,
0001
1000
0001
1000
,
0001
1000
0001
1000
,
0001
1000
0001
1000
,
0010
0100
0001
1000
,
0010
0100
0010
0100
,
0010
0100
0010
0100
,
0010
0100
0010
0100
,
0010
0100
0001
0001
,
1000
0100
1000
0100
,
1000
0100
1000
0100
,
1000
0100
1000
0100
,
1000
0010
0100
0001
,
0010
0001
0010
0001
,
0010
0001
0010
0001
,
0010
0001
0010
0001
,
0100
0010
1000
0001
,
1000
0100
0010
0001
,
1000
0001
0100
0010
,
1000
0010
0100
0001
,
2000
3000
0002
0003
2000
3000
0002
0003
,
1000
0100
0010
0001
,
1000
0010
0100
0001
,
0010
0001
1000
0100
,
1000
0001
1000
0001
,
1000
0100
1000
0100
,
0010
0001
0010
0001
,
0100
0001
0100
0001
,
1000
0010
0100
0001
,
1000
0001
0100
0001
,
0010
0001
1000
0001
,
0100
0010
1000
0001
,
2002
0000
0000
3003
,
0110
0000
0000
0000
,
0000
0000
0000
0000
,
0000
0000
0000
0000
,
0220
0000
0000
0330
,
2000
3000
0010
0100
,
0002
0003
0100
0010
,
2000
3000
0001
0100
,
0002
0003
1000
0010
,
0200
0300
0001
0100
,
0020
0030
1000
0010
,
0200
0300
0001
0010
,
0002
0003
1000
0001
,
1000
0001
0100
0001
,
1000
0010
0100
0010
,
1000
0010
0100
0001
,
1000
1000
0001
0001
,
0010
1000
0001
1000
,
0010
0100
0001
0100
,
0010
1000
0001
0100
,
0001
1000
0010
0100
,
0001
1000
0010
1000
,
0001
0100
0010
0100
,
0001
0100
0010
1000
,
0100
0100
0010
1000
,
0100
0001
1000
0001
,
0100
0010
1000
0010
,
0100
0001
1000
0010
,
1000
0001
0020
0030
,
1000
0001
1000
0001
,
0100
0010
0100
0010
,
1000
0001
1000
0001
,
0100
0010
0100
0010
,
0010
1000
0010
1000
,
0001
0100
0001
0100
,
0001
1000
0001
1000
,
0001
0010
0100
1000
,
1001
0000
0000
0000
,
0000
0000
0000
0000
,
0000
0000
0000
0000
,
0000
0000
0000
0000
,
0000
0000
0000
0000
,
0000
0000
0000
0000
,
0000
0000
0000
0000
,
0000
0000
0000
0000
,
1001
0000
0000
0000
,
0110
0000
0000
0000
,
1000
0001
1000
0010
,
1000
0001
1000
0010
,
1000
0001
1000
0100
,
1000
0001
1000
0001
,
0100
0010
0100
0001
,
0100
0010
0100
0001
,
0100
0010
1000
0010
,
0100
0010
1000
0001
,
0100
0001
0100
0010
,
1000
0001
1000
0010
,
0100
0001
0100
0010
,
0100
0001
1000
0010
,
1000
0100
0010
0001
,
1000
0010
1000
0001
,
0100
0001
0100
0010
,
2000
3000
0002
0003
,
1000
0000
0001
0000
,
1000
0000
0010
0000
,
1000
0000
0001
0000
,
0100
0000
0010
0000
,
1000
0000
0100
0000
,
1000
0000
0001
0000
,
0010
0000
0001
0000
,
0100
0000
0001
1000
,
0100
0000
0010
0000
,
0100
0000
0010
0000
,
1000
0000
0010
0000
,
0100
0000
0001
0000
,
1000
0001
1000
0001
,
0100
0010
0100
0010
,
1000
0001
1000
0001
,
0220
0000
0000
0000
0000
0000
0000
0330
;

//---------------dance-single - ----------------
#NOTES:
     dance-single:
     :
     Beginner:
     4:
     0.315224,0.412098,0.054992,0.103110,0.000000,321.000000,313.000000,8.000000,15.000000,0.000000,0.000000,0.315224,0.412098,0.054992,0.103110,0.000000,321.000000,313.000000,8.000000,15.000000,0.000000,0.000000:
// measure 0
0000
0000
0000
0000
,  // measure 1
0000
0000
0000
0000
,  // measure 2
0000
0000
0000
0000
,  // measure 3
0000
0000
0000
0000
,  // measure 4
0000
0000
0000
0000
,  // measure 5
0000
0000
0000
0000
,  // measure 6
1000
0000
1000
0000
,  // measure 7
1000
0000
0001
0000
,  // measure 8
0100
0000
0100
0000
,  // measure 9
0100
0000
0010
0000
,  // measure 10
1000
0000
1000
0000
,  // measure 11
1000
0000
0010
0000
,  // measure 12
0100
0000
0100
0000
,  // measure 13
0100
0000
0001
0000
,  // measure 14
1000
1000
1000
0000
,  // measure 15
0001
0001
0001
0000
,  // measure 16
0100
0100
0100
0000
,  // measure 17
1000
1000
0001
0001
,  // measure 18
0100
0100
0100
0000
,  // measure 19
0010
0010
0010
0000
,  // measure 20
1000
1000
1000
0000
,  // measure 21
0100
0100
0001
0001
,  // measure 22
0100
0000
0100
0000
,  // measure 23
1000
0000
1000
0000
,  // measure 24
0010
0000
0010
0000
,  // measure 25
0001
0000
0001
0000
,  // measure 26
0010
0000
0010
0000
,  // measure 27
1000
0000
1000
0000
,  // measure 28
0100
0000
0100
0000
,  // measure 29
1000
0000
1000
0000
,  // measure 30
0001
0000
0001
0000
,  // measure 31
0100
0000
0100
0000
,  // measure 32
1000
0000
1000
0000
,  // measure 33
0010
0000
0010
0000
,  // measure 34
0001
0000
0001
0000
,  // measure 35
1000
0000
1000
0000
,  // measure 36
0010
0000
0010
0000
,  // measure 37
0001
0000
0001
0000
,  // measure 38
1000
0000
0000
0000
,  // measure 39
0001
0000
0000
0000
,  // measure 40
0001
0000
0001
0000
,  // measure 41
1000
0000
1000
0000
,  // measure 42
0001
0000
0001
0000
,  // measure 43
0010
0000
0001
0000
,  // measure 44
0010
0000
0010
0000
,  // measure 45
0100
0000
0100
0000
,  // measure 46
0010
0000
0010
0000
,  // measure 47
0100
0000
0001
0000
,  // measure 48
1000
0000
0100
0000
,  // measure 49
1000
0000
0100
0000
,  // measure 50
1000
0000
0100
0000
,  // measure 51
1000
0000
0001
0000
,  // measure 52
0010
0000
0001
0000
,  // measure 53
0010
0000
0001
0000
,  // measure 54
0010
0000
0001
0000
,  // measure 55
0100
0000
0001
0000
,  // measure 56
1000
0000
0010
0000
,  // measure 57
1000
0000
0001
0000
,  // measure 58
1000
0000
0010
0000
,  // measure 59
1000
0001
1000
0001
,  // measure 60
1000
0000
0010
0000
,  // measure 61
0100
0000
0001
0000
,  // measure 62
0010
0000
0001
0000
,  // measure 63
1000
0000
0002
0003
,  // measure 64
1000
1000
1000
0000
,  // measure 65
0010
0010
0010
0000
,  // measure 66
0100
0100
0100
0000
,  // measure 67
1000
0001
1000
0001
,  // measure 68
1000
1000
1000
0000
,  // measure 69
0001
0001
0001
0000
,  // measure 70
0010
0010
0010
0000
,  // measure 71
2002
0000
3003
0000
,  // measure 72
0110
0000
0000
0000
,  // measure 73
0000
0000
0000
0000
,  // measure 74
0000
0000
0000
0000
,  // measure 75
0110
0000
0000
0000
,  // measure 76
2000
3000
0010
0000
,  // measure 77
0002
0003
0100
0000
,  // measure 78
2000
3000
0001
0000
,  // measure 79
0002
0003
1000
0000
,  // measure 80
0200
0300
0001
0000
,  // measure 81
0020
0030
1000
0000
,  // measure 82
0200
0300
0001
0000
,  // measure 83
0002
0003
1000
0000
,  // measure 84
1000
1000
1000
0000
,  // measure 85
0010
0010
0010
0000
,  // measure 86
0100
0100
0100
0000
,  // measure 87
1000
0001
1000
0001
,  // measure 88
0010
0010
0010
0000
,  // measure 89
0100
0100
0100
0000
,  // measure 90
1000
1000
1000
0000
,  // measure 91
0010
0100
0010
0100
,  // measure 92
1000
1000
1000
0000
,  // measure 93
0001
0001
0001
0000
,  // measure 94
0010
0010
0010
0000
,  // measure 95
0100
0100
0020
0030
,  // measure 96
0100
0100
0100
0000
,  // measure 97
0010
0010
0010
0000
,  // measure 98
0001
0001
0001
0000
,  // measure 99
1000
1000
0020
0030
,  // measure 100
1000
0000
0001
0000
,  // measure 101
0100
0000
0010
0000
,  // measure 102
1000
0000
0001
0000
,  // measure 103
0100
0000
0010
0000
,  // measure 104
0010
0000
1000
0000
,  // measure 105
0001
0000
0100
0000
,  // measure 106
0001
0000
1000
0000
,  // measure 107
0001
0000
0100
0000
,  // measure 108
1001
0000
0000
0000
,  // measure 109
0000
0000
0000
0000
,  // measure 110
0000
0000
0000
0000
,  // measure 111
0000
0000
0000
0000
,  // measure 112
0000
0000
0000
0000
,  // measure 113
0000
0000
0000
0000
,  // measure 114
0000
0000
0000
0000
,  // measure 115
0000
0000
0000
0000
,  // measure 116
1001
0000
0000
0000
,  // measure 117
0110
0000
0000
0000
,  // measure 118
1000
1000
1000
0000
,  // measure 119
0001
0001
0001
0000
,  // measure 120
0100
0100
0100
0000
,  // measure 121
1000
1000
0001
0001
,  // measure 122
0100
0100
0100
0000
,  // measure 123
0010
0010
0010
0000
,  // measure 124
1000
1000
1000
0000
,  // measure 125
0100
0100
0001
0001
,  // measure 126
0100
0000
0100
0000
,  // measure 127
1000
0000
1000
0000
,  // measure 128
0010
0000
0010
0000
,  // measure 129
0001
0000
0001
0000
,  // measure 130
0010
0000
0010
0000
,  // measure 131
1000
0000
1000
0000
,  // measure 132
0100
0000
0100
0000
,  // measure 133
1000
0000
1001
0000
,  // measure 134
1000
0000
0001
0000
,  // measure 135
1000
0000
0010
0000
,  // measure 136
1000
0000
0001
0000
,  // measure 137
0100
0000
0010
0000
,  // measure 138
1000
0000
0100
0000
,  // measure 139
1000
0000
0001
0000
,  // measure 140
0010
0000
0001
0000
,  // measure 141
0100
0000
0001
1000
,  // measure 142
0100
0000
0010
0000
,  // measure 143
0100
0000
0010
0000
,  // measure 144
1000
0000
0010
0000
,  // measure 145
0100
0000
0001
0000
,  // measure 146
1000
1000
1000
0000
,  // measure 147
0100
0100
0100
0000
,  // measure 148
0001
0001
0001
0000
,  // measure 149
0220
0000
0000
0000
0000
0000
0000
0330
;
