#VERSION:0.83;
#TITLE:Pink Cloud (feat. Max Collins);
#SUBTITLE:;
#ARTIST:Pegboard Nerds;
#TITLETRANSLIT:;
#SUBTITLETRANSLIT:;
#ARTISTTRANSLIT:;
#GENRE:;
#ORIGIN:;
#CREDIT:;
#BANNER:;
#BACKGROUND:;
#PREVIEWVID:;
#JACKET:;
#CDIMAGE:;
#DISCIMAGE:;
#LYRICSPATH:;
#CDTITLE:;
#MUSIC:[ROUND F] - Pink Cloud (feat. Max Collins).ogg;
#OFFSET:-0.422000;
#SAMPLESTART:46.959961;
#SAMPLELENGTH:11.636368;
#SELECTABLE:YES;
#BPMS:0.000=82.500;
#STOPS:;
#DELAYS:;
#WARPS:;
#TIMESIGNATURES:0.000=4=4;
#TICKCOUNTS:0.000=4;
#COMBOS:0.000=1;
#SPEEDS:0.000=1.000=0.000=0;
#SCROLLS:0.000=1.000;
#FAKES:;
#LABELS:0.000=Song Start;
#BGCHANGES:;
#KEYSOUNDS:;
#ATTACKS:
;

//---------------dance-single - ----------------
#NOTEDATA:;
#CHARTNAME:;
#STEPSTYPE:dance-single;
#DESCRIPTION:;
#CHARTSTYLE:;
#DIFFICULTY:Hard;
#METER:7;
#RADARVALUES:0.423478,0.471047,0.294404,0.203037,0.553277,292.000000,263.000000,29.000000,20.000000,0.000000,0.000000,0.000000,0.000000,0.000000,0.423478,0.471047,0.294404,0.203037,0.553277,292.000000,263.000000,29.000000,20.000000,0.000000,0.000000,0.000000,0.000000,0.000000;
#CREDIT:;
#NOTES:
0000
0000
0000
0000
,
0000
0000
0000
0000
,
1000
1000
0001
0001
0100
0100
0010
0010
,
0220
0000
0000
0000
0000
0000
0330
0110
,
1000
0000
0001
0010
0100
0010
0001
0020
0000
0000
0130
1000
0010
0100
0010
2000
,
0000
0000
3000
0001
0000
0100
0000
0100
0010
0100
0001
1000
0001
0000
0110
0000
,
0000
0000
0100
0000
0000
0000
1010
0000
0000
0000
0100
0000
0010
0011
0000
0021
,
0000
0000
0001
0000
0001
0001
0000
0001
0000
0031
0000
1000
0010
0001
0010
1000
,
0010
0000
0100
0000
0001
0100
0001
0100
0001
0000
0001
1000
0001
0000
1001
0000
,
1000
0000
1000
0010
1000
0010
1000
0000
1010
0000
1000
0000
1010
0000
1010
0000
,
0010
0000
0010
0001
0020
0000
0000
0130
1000
0000
0100
0000
0001
0000
0010
0000
,
1000
1010
0000
1010
0000
0110
0000
0220
0000
0000
0000
0000
0000
0000
0000
0330
,
0001
0000
0100
0010
0100
0000
0010
0100
0010
0000
1000
0010
1000
0000
0101
0000
,
0010
0000
0100
0010
0001
0010
0100
0010
0000
0100
1000
0100
0010
0000
0110
0000
,
1000
0000
1000
0100
1000
0100
0010
0100
0010
0001
0010
0001
0100
1000
0010
0020
,
0100
0100
0000
0100
0000
1000
0000
0100
0000
0000
0000
0000
0030
0000
0110
0000
,
0100
0001
0001
0000
0100
0001
0000
0101
0100
0000
0100
0000
0010
0000
2000
0000
,
0000
3000
1000
0000
0001
0100
0000
0110
0000
0010
0000
0100
0000
0000
1001
0000
,
1000
0100
0100
0000
0010
0000
1000
0100
0010
0000
0100
0000
0001
0010
0100
0020
,
0000
0000
1000
0000
0000
0000
0001
0000
0000
0000
1000
0000
0030
0100
1000
0001
,
0010
0100
0100
0000
1010
0000
1000
0100
1000
0010
1000
0001
1000
0000
0002
0000
,
0000
0000
1003
0000
1000
0100
0000
0101
0000
0001
0010
0001
0100
0001
1000
0001
,
1000
0000
0100
0000
0001
0100
0000
0202
0000
0000
0000
0303
1000
0010
0000
2010
,
0000
0000
0010
0000
0000
0000
0010
0000
3000
0000
0010
0000
0010
1000
0010
0100
,
0010
0000
0100
0000
0010
0001
0000
0100
0000
1100
0000
1100
0000
0001
0010
0100
,
0000
1000
1000
0000
0001
0001
0000
1000
0010
0100
0001
0100
1000
0000
1001
0000
,
0000
0000
0001
0000
0100
0010
0000
1000
0001
0100
0001
1000
0100
0010
0100
2000
,
0000
0000
0010
0000
0000
0000
0010
0000
3000
0000
0000
0100
0020
0000
0000
0030
,
0000
0010
1000
0000
1000
0010
0000
0001
0100
0000
0001
0100
0010
1000
0000
0100
,
0010
0000
0010
0100
0000
0101
0000
0101
0000
0001
0100
0001
1000
0001
0100
0001
,
0200
0000
0000
0320
0000
0000
0230
0000
,
0000
0000
0000
0000
,
0300
0000
0000
0000
;

//---------------dance-single - ----------------
#NOTEDATA:;
#CHARTNAME:;
#STEPSTYPE:dance-single;
#DESCRIPTION:;
#CHARTSTYLE:;
#DIFFICULTY:Medium;
#METER:6;
#RADARVALUES:0.261048,0.276131,0.131974,0.091367,0.121822,180.000000,167.000000,13.000000,9.000000,0.000000,0.000000,0.000000,0.000000,0.000000,0.261048,0.276131,0.131974,0.091367,0.121822,180.000000,167.000000,13.000000,9.000000,0.000000,0.000000,0.000000,0.000000,0.000000;
#CREDIT:;
#NOTES:
0000
0000
0000
0000
,
0000
0000
0000
0000
,
1000
0100
1000
0100
0010
0001
0010
0001
,
0020
0000
0000
0030
,
1000
0000
0001
1000
0001
0000
1000
0001
,
1000
0000
0000
0000
0100
0000
0001
0000
1000
0000
0001
0010
0001
0000
1000
0000
,
0001
0000
0100
0000
0010
0000
0100
0000
0000
0000
0010
0000
0100
0010
0000
0200
,
0000
0000
0000
0300
,
0001
0000
1000
0000
0100
1000
0100
0100
,
0010
0000
0100
0000
0010
0001
0010
0100
,
1000
0000
0010
0000
0100
0001
0100
0001
,
1000
0010
0000
0010
0000
1000
0000
2002
0000
0000
0000
0000
0000
3003
0000
0000
,
1000
0000
0100
0000
0010
0000
0000
0001
0000
0000
0001
0000
0010
0000
0100
0000
,
1000
0000
0001
0000
0100
0000
0000
0010
0000
0000
0010
0000
0001
0000
1000
0000
,
0010
0000
0000
0000
1000
0000
0100
0000
0010
0000
0100
0000
0110
0000
0010
0200
,
0000
0000
0000
0000
0000
0000
0000
0300
,
0010
0100
0000
0000
0100
0000
0000
0000
0100
0000
0001
0000
1000
0000
0001
0000
,
0000
0100
0000
0100
0000
0010
0000
0110
,
0100
0010
0000
0000
0010
0000
0100
0000
0010
0000
0010
0000
0100
0000
1000
0100
,
0000
0000
0000
0000
0100
0000
0000
0000
0110
0000
0000
0000
1000
0000
1000
0001
,
1000
0001
0000
0000
0100
0000
0010
0000
1000
0000
0010
0000
0100
0000
0001
0000
,
0010
0000
0110
0000
1000
0100
0010
0001
,
0110
0000
0000
0000
0001
0000
0010
0000
0100
0000
1000
0000
0001
0000
0001
2000
,
0000
0001
0000
0001
0000
3001
0000
1001
,
1000
0000
0001
0000
1000
0000
0000
0100
0000
0100
0000
0010
0000
0010
0100
0000
,
0010
1010
0100
0101
,
0001
0000
0100
0000
0001
0000
0000
0010
0000
0010
0000
0100
0000
0100
0001
0000
,
1000
1100
0010
0011
,
0001
0000
1000
0001
0010
0100
1000
1001
,
0000
1001
0000
1000
1000
0100
0010
0001
,
0200
0000
0000
0320
0000
0000
0230
0000
,
0000
0000
0000
0000
,
0300
0000
0000
0000
;

//---------------dance-single - ----------------
#NOTEDATA:;
#CHARTNAME:;
#STEPSTYPE:dance-single;
#DESCRIPTION:;
#CHARTSTYLE:;
#DIFFICULTY:Easy;
#METER:3;
#RADARVALUES:0.185634,0.227402,0.050759,0.060911,0.020304,128.000000,123.000000,5.000000,6.000000,0.000000,0.000000,0.000000,0.000000,0.000000,0.185634,0.227402,0.050759,0.060911,0.020304,128.000000,123.000000,5.000000,6.000000,0.000000,0.000000,0.000000,0.000000,0.000000;
#CREDIT:;
#NOTES:
// measure 0
0000
0000
0000
0000
,  // measure 1
0000
0000
0000
0000
,  // measure 2
0001
0001
1000
1000
,  // measure 3
0002
0000
0000
0000
0000
0000
0000
0003
,  // measure 4
1000
0001
0010
0100
,  // measure 5
1000
0100
1000
0000
0001
0010
0001
0000
,  // measure 6
0001
0000
0000
0000
0100
0000
0000
0000
0010
0000
0000
0000
1000
0000
0000
0020
,  // measure 7
0000
0000
0000
0000
0000
0000
0000
0030
,  // measure 8
0001
0000
0100
0000
0001
0000
0100
0010
,  // measure 9
1000
0000
0010
0000
1000
0000
0010
0100
,  // measure 10
0001
0000
1000
0000
0010
0000
1000
0001
,  // measure 11
1000
0000
1000
0000
0010
0100
0010
0000
,  // measure 12
0100
0010
0100
0000
0100
0001
0100
0000
,  // measure 13
0010
1000
0010
0000
0010
0100
0010
0000
,  // measure 14
0001
0000
1000
0000
0001
0000
1000
0000
0000
0000
0001
0000
1000
0000
0000
0002
,  // measure 15
0000
0000
0000
0000
0000
0000
0000
0003
,  // measure 16
0100
0010
0100
0000
0010
0000
0110
0000
,  // measure 17
0001
1000
0001
0000
1000
0000
1001
0000
,  // measure 18
0001
0000
0110
0000
0010
0100
0010
0000
,  // measure 19
0010
1000
0100
0010
,  // measure 20
0100
0000
1001
0000
0100
0001
0100
0000
,  // measure 21
0010
0000
0110
0000
0010
1000
0010
0000
,  // measure 22
0100
0000
0000
0000
0010
0000
0000
0000
0100
0000
0000
0000
0001
0000
0000
2000
,  // measure 23
0000
0000
0000
0000
0000
0000
0000
3000
,  // measure 24
1000
0000
0001
0000
0100
0000
0001
0100
,  // measure 25
0001
0000
0100
0000
1000
0000
0010
0100
,  // measure 26
0010
0000
0000
0000
1000
0000
0000
0000
0001
0000
1000
0000
0100
0000
0000
0020
,  // measure 27
0000
0000
0000
0000
0000
0000
0000
0030
,  // measure 28
1000
0010
1000
0000
0001
0100
0001
0100
,  // measure 29
0000
0100
0000
0000
1000
0000
0010
1000
,  // measure 30
0100
0000
0000
0010
0000
0000
0200
0000
,  // measure 31
0000
0000
0000
0000
,  // measure 32
0300
0000
0000
0000
;
