#TITLE:夏色DIARY Original Rough Demo Version;
#SUBTITLE:;
#ARTIST:猫叉王子;
#TITLETRANSLIT:Natsuiro DIARY Original rough demo version;
#SUBTITLETRANSLIT:;
#ARTISTTRANSLIT:Nekomata Ouji;
#CREDIT:;
#BANNER:Natsuiro DIARY Original Rough Demo Version.png;
#BACKGROUND:Natsuiro DIARY Original Rough Demo Version-bg.png;
#LYRICSPATH:;
#CDTITLE:;
#MUSIC:[ROUND F] - Natsuiro DIARY Original rough demo version.ogg;
#OFFSET:-1.093;
#SAMPLESTART:77.316;
#SAMPLELENGTH:12.000;
#SELECTABLE:YES;
#BPMS:0.000=169.990;
#STOPS:;
#BGCHANGES:;

//---------------dance-single - ----------------
#NOTES:
     dance-single:
     :
     Hard:
     9:
     0.723,0.696,0.412,0.090,0.152: // measure 1
0000
0000
0000
0000
,  // measure 2
0000
0000
0000
0000
,  // measure 3
0000
0000
0000
0000
,  // measure 4
0000
0000
0000
0000
,  // measure 5
2100
0000
3100
0000
0010
0001
0100
0020
,  // measure 6
0000
0000
1030
0000
0100
0000
0010
0000
0000
0000
0000
0000
0000
0000
1000
0010
,  // measure 7
0100
0001
0011
0000
0100
0010
1000
0100
,  // measure 8
0001
0100
1000
0010
0100
0001
0010
0100
,  // measure 9
2100
0000
0000
0000
3100
0000
1000
0000
0002
0000
0000
0000
0003
0000
0100
0010
,  // measure 10
1000
0010
0001
0010
1000
0100
0001
0100
,  // measure 11
2002
0000
0000
0000
3003
0000
0001
0000
1000
0000
0000
0000
0000
0000
1000
0010
,  // measure 12
0100
0000
0001
0000
1000
0000
0100
0000
0010
0000
0100
1000
0001
0000
0000
0000
,  // measure 13
0101
0100
0010
1010
1000
0001
0100
0101
,  // measure 14
0000
0001
0010
1100
0100
0010
0001
0100
,  // measure 15
1010
0010
1000
0100
0010
0001
0100
0010
,  // measure 16
1000
0000
0100
0000
0010
0000
0001
0100
0010
0000
0010
0000
1000
0010
1000
0000
,  // measure 17
0001
0010
0010
0100
0100
1000
1000
0010
,  // measure 18
0100
0001
0001
0010
0010
0200
1000
1300
,  // measure 19
1000
0010
0100
0001
0100
0010
1000
0100
,  // measure 20
0010
0000
0001
0000
0010
0000
0100
0000
1000
0000
0010
0000
0100
0000
0010
0100
,  // measure 21
0001
0010
1000
0010
0001
0010
1000
0010
,  // measure 22
0001
0000
0100
0000
1000
0000
0100
0000
0001
0000
0100
0000
1000
0000
0100
0001
,  // measure 23
1000
0000
0100
0000
0010
0000
0001
0000
0011
0000
0000
0000
0000
0000
0001
0100
,  // measure 24
0010
0000
0000
0000
1010
0000
0000
0000
0101
0000
0001
0010
0100
0000
1000
0000
,  // measure 25
0010
0100
0001
0100
0010
0100
0001
0100
,  // measure 26
0010
0000
1000
0000
0100
0000
1000
0000
0010
0000
1000
0000
0100
0000
0010
0001
,  // measure 27
0100
0010
1000
0100
1000
0010
1000
0100
,  // measure 28
1000
0010
0100
0010
1000
0010
0100
0001
,  // measure 29
0010
1000
0010
0001
0100
1000
0100
0001
,  // measure 30
0010
0100
1000
0100
0010
0100
1000
0100
,  // measure 31
0001
0000
0100
0000
1000
0000
0100
0000
0100
0000
0000
0000
0000
0000
0100
0010
,  // measure 32
0001
0000
0100
0000
0010
0000
1000
0000
1000
0000
1000
0010
0100
0000
0010
0000
,  // measure 33
1000
0100
0010
0001
0100
0010
0100
0001
,  // measure 34
0010
0000
0100
0000
1000
0000
0010
0000
0100
0010
1000
0010
0100
0000
0010
0000
,  // measure 35
1000
0001
0100
0010
1000
0001
0100
0010
,  // measure 36
1000
0000
0001
0000
0100
0000
0010
0000
1000
0001
1000
0100
1000
0000
0001
0000
,  // measure 37
0010
0100
1000
1010
0000
0010
0100
0001
,  // measure 38
0000
0000
0010
0000
0100
0000
0010
0000
0001
0000
1000
0000
0100
0010
0001
1000
,  // measure 39
0100
0010
0011
0001
0101
0100
0010
1000
,  // measure 40
0100
0000
0001
0000
0100
0000
1000
0000
0010
1000
0100
0001
0100
0000
1000
0000
,  // measure 41
0010
1000
0100
1000
1100
1000
0001
0011
,  // measure 42
0000
0000
0001
0000
1000
0000
0100
0000
0010
0001
0100
0010
1000
0000
0100
0000
,  // measure 43
0010
0100
1000
1010
0000
0001
0010
0110
,  // measure 44
0000
0000
0010
0000
0001
0000
0100
0000
0010
0000
0100
0010
1000
0000
0010
0000
,  // measure 45
0100
0001
0010
0011
0000
0100
1000
1100
,  // measure 46
0000
0000
1000
0000
0010
0000
0100
0000
0002
0000
0000
0000
1003
0000
1000
0001
,  // measure 47
0100
0001
0010
0100
1100
1000
0001
0000
,  // measure 48
1000
0100
0010
0001
0011
0001
0100
0000
,  // measure 49
0001
0001
0100
0010
0010
1000
0100
0100
,  // measure 50
0010
0001
0001
0100
0010
0010
1000
0000
,  // measure 51
1000
0001
0100
0010
0100
0001
0101
0000
,  // measure 52
0001
0010
0100
0100
1000
0001
1000
1000
,  // measure 53
1010
1010
0000
0011
0011
0000
1001
1001
,  // measure 54
0000
0000
0110
0000
0110
0000
0000
0010
1000
0000
0000
0000
1100
0000
0000
0000
,  // measure 55
1000
0100
0010
0011
0000
0001
0100
0110
,  // measure 56
0000
1000
0100
0110
0000
0001
0100
0101
,  // measure 57
0000
1000
0010
1000
0100
0001
0100
1000
,  // measure 58
0010
0000
0100
0001
0100
0010
0100
0000
0000
0000
0010
0000
1000
0000
0001
0000
,  // measure 59
0100
1000
0100
0010
0010
0000
0000
0001
,  // measure 60
0101
0100
0010
1010
1010
0000
0000
1000
,  // measure 61
0010
0000
0100
0000
0100
0000
0010
0000
1000
0000
0100
0010
0100
0000
0010
0001
,  // measure 62
0010
0000
0000
0000
0010
0000
0100
1000
0010
0000
0000
0000
0010
0000
0100
0001
,  // measure 63
0010
0100
1000
0010
0100
0001
0010
0100
,  // measure 64
1100
0010
0001
0100
0101
0100
0001
0010
,  // measure 65
0100
0010
0001
0100
0010
1000
0010
0100
,  // measure 66
0001
0000
0010
0000
1000
0000
0010
0000
0001
0000
0100
0010
1000
0000
0100
0000
,  // measure 67
0010
0010
0100
0100
1000
1000
0001
0001
,  // measure 68
0000
0000
0000
0000
0000
0000
1000
0001
1000
0000
0001
0000
0100
0000
0001
0000
,  // measure 69
1000
0100
1000
0001
0010
0001
1000
0010
,  // measure 70
1000
0001
0011
0100
1100
1000
1001
0001
,  // measure 71
2002
0000
0000
0000
,  // measure 72
0000
0000
0000
0000
,  // measure 73
0000
0000
0000
0000
,  // measure 74
0000
0000
0000
0000
,  // measure 75
3003
0000
0000
0000
;

//---------------dance-single - ----------------
#NOTES:
     dance-single:
     :
     Medium:
     6:
     0.549,0.597,0.556,0.143,0.022: // measure 1
0000
0000
0000
0000
,  // measure 2
0000
0000
0000
0000
,  // measure 3
0000
0000
0000
0000
,  // measure 4
0000
0000
0000
0000
,  // measure 5
2002
0000
3003
0000
1000
0100
0010
0001
,  // measure 6
0000
0001
0100
0010
0000
0000
0000
0010
,  // measure 7
1000
0000
1000
0000
0100
0010
0100
1000
,  // measure 8
0000
0010
0100
0001
0100
0010
0100
0001
,  // measure 9
0200
0000
0000
0010
0310
0000
0000
0000
,  // measure 10
1010
0110
0101
0110
,  // measure 11
1010
0000
0000
1000
0100
0000
0000
0100
,  // measure 12
0010
0000
0000
0000
0001
0000
0000
0000
0100
0000
0000
0100
0010
0000
0000
0000
,  // measure 13
0001
1000
0100
0010
0000
0100
0010
0001
,  // measure 14
0000
0001
0010
0100
0000
0100
0010
0100
,  // measure 15
1000
1100
1000
0101
,  // measure 16
0001
0000
0000
0000
1001
0000
0000
0010
1000
0000
0000
0000
1010
0000
0000
0000
,  // measure 17
1000
0000
0011
0000
0001
0100
0010
1000
,  // measure 18
0000
1000
0000
1100
0000
0200
0000
0310
,  // measure 19
0001
0000
0101
0000
1000
0010
0100
0010
,  // measure 20
0000
0100
0000
0001
0000
0010
0100
1000
,  // measure 21
0100
0000
0010
0000
0001
0001
0100
0010
,  // measure 22
0000
1000
0000
0100
0000
0010
0000
0001
,  // measure 23
0200
0000
0000
0010
0310
0000
0000
0010
,  // measure 24
1000
1100
0001
0101
,  // measure 25
1001
1001
0101
0101
,  // measure 26
1001
1001
1100
1100
,  // measure 27
1001
1001
0011
0011
,  // measure 28
1001
1001
1010
1010
,  // measure 29
1001
0110
1001
0110
,  // measure 30
1001
0110
1001
0110
,  // measure 31
2100
0000
0000
0001
3001
0000
0000
0000
,  // measure 32
0012
0000
0000
1000
1003
0000
0000
0000
,  // measure 33
2000
3100
0002
0103
,  // measure 34
2000
0000
3010
0000
0001
0010
0100
1000
,  // measure 35
0200
0310
0002
0103
,  // measure 36
0020
0000
1030
0000
0100
0010
0001
0010
,  // measure 37
0100
1000
0010
0100
0000
0100
0001
1000
,  // measure 38
0000
1000
0001
0100
0010
0100
0001
1000
,  // measure 39
0100
0000
0000
0000
1100
0000
0000
0001
1000
0000
0001
0000
0100
0000
0010
0000
,  // measure 40
0000
0010
1000
0010
0100
0001
0100
1000
,  // measure 41
0100
0000
0000
0000
0001
0000
0000
0010
0100
0000
1000
0000
0010
0000
0100
0000
,  // measure 42
0000
0100
0001
0100
1000
0100
0001
0010
,  // measure 43
1000
0010
0001
0100
0000
0100
0010
1000
,  // measure 44
0000
1000
0010
0100
0001
0010
0001
0100
,  // measure 45
0010
1000
0010
0100
0000
0100
0001
0010
,  // measure 46
0000
0010
0001
1000
0020
0000
0130
0000
,  // measure 47
0100
0000
0001
0100
0001
0000
1001
0000
,  // measure 48
0100
0000
1000
0100
1000
0000
1001
0000
,  // measure 49
0010
0000
0001
0010
0001
0000
1001
0000
,  // measure 50
0010
1000
0000
1000
0001
0000
0001
0100
,  // measure 51
0010
1000
0010
1000
0010
0000
1010
0000
,  // measure 52
0001
0010
0001
0010
0001
0000
0011
0000
,  // measure 53
1000
0100
0000
0100
0010
0000
0010
0001
,  // measure 54
0000
0001
0100
0000
0100
0010
1000
0001
,  // measure 55
0100
0001
1000
0001
0000
0001
0010
1000
,  // measure 56
0000
1000
0010
0001
0000
0001
0100
1000
,  // measure 57
0000
1000
0100
0001
0100
1000
0100
0001
,  // measure 58
0010
1000
0010
0001
0000
0001
0100
0000
,  // measure 59
1100
0000
0000
1000
1000
0000
0000
0100
,  // measure 60
0101
0000
0000
0001
0001
0000
0000
0010
,  // measure 61
0011
0000
0100
0100
0010
0001
0100
1000
,  // measure 62
0010
0000
0010
1000
0100
0001
0010
0000
,  // measure 63
0011
0001
0100
0010
0000
0010
0100
0001
,  // measure 64
0000
1000
0100
0010
0000
0010
0100
1000
,  // measure 65
0000
1000
0100
0010
0001
0100
0010
1000
,  // measure 66
0010
0100
0001
0010
0100
1000
0010
0100
,  // measure 67
0101
0000
0000
1001
0000
0000
1100
0000
,  // measure 68
0000
0000
0000
0000
0000
0000
0000
0001
1000
0000
0000
0000
1000
0000
0000
0000
,  // measure 69
1100
0000
0000
1001
0000
0000
0101
0000
,  // measure 70
0011
1010
1100
0101
,  // measure 71
2002
0000
0000
0000
,  // measure 72
0000
0000
0000
0000
,  // measure 73
0000
0000
0000
0000
,  // measure 74
0000
0000
0000
0000
,  // measure 75
3003
0000
0000
0000
;

//---------------dance-single - ----------------
#NOTES:
     dance-single:
     :
     Easy:
     4:
     0.352,0.398,0.108,0.117,0.000:
0000
0000
0000
0000
,
0000
0000
0000
0000
,
0000
0000
0000
0000
,
0000
0000
0000
0000
,
1001
0000
1000
0001
,
0100
0000
0002
0003
0000
0000
0000
0001
,
0100
0010
1000
0010
,
0100
0000
0001
0000
0010
0000
0200
0300
,
2000
0000
0000
0100
3100
0000
0000
0000
,
0001
0100
0001
1000
,
0010
0000
0000
1000
1000
0000
0000
0000
,
1000
0000
0200
0300
0001
0000
0100
0000
,
1000
0000
0000
0200
0000
0320
0000
0030
,
0000
0001
0010
0100
,
1000
0010
0100
0001
,
0010
0100
1000
0100
,
0001
0010
0001
0000
,
1000
0100
1000
0100
,
0001
0100
0010
0000
,
0010
0001
1000
0100
,
0010
0100
1000
0000
,
0010
0100
0001
0000
,
0101
0000
0000
0001
0100
0000
0000
0000
,
0100
0010
1000
0010
,
0100
0001
0100
1000
,
0100
0001
0100
1000
,
0100
0001
0010
1000
,
0010
0001
0010
1000
,
0010
0001
0100
0010
,
1000
0010
0100
0001
,
0010
0000
0000
0100
0100
0000
0000
1000
,
1000
0000
0000
0010
0010
0000
0000
0000
,
0200
0000
0000
0300
,
0001
0010
0001
1000
,
0100
1000
0010
0000
,
0100
0001
1000
0001
,
0100
0010
0000
1001
,
0000
0100
0010
0001
,
0100
1000
0010
0001
,
0100
1000
0010
0001
,
0001
0010
1000
0100
,
0001
0010
1000
0100
,
0001
0000
0100
0100
0000
1000
0001
0001
,
0000
0100
0010
1000
,
1000
0000
0001
1000
0000
1000
1000
0100
,
0000
0010
0001
0100
,
0001
0010
0100
1001
,
1000
0100
0010
1001
,
0001
0100
0010
1000
,
0010
0100
0001
0010
,
0011
0100
0010
1010
,
1000
0010
0100
0011
,
0001
0100
0000
0100
0010
0000
0010
1000
,
0000
1000
0200
0000
0010
0000
0310
0000
,
0001
0000
0100
0001
0000
0001
0100
0010
,
0000
0000
0010
1000
0000
1000
0100
1000
,
0000
0100
0010
0001
,
0010
0100
1000
0010
,
0200
0000
0000
0001
0301
0000
0000
0010
,
0020
0000
0000
1000
1030
0000
0000
0100
,
0100
0000
0000
0010
0010
0000
0001
0000
,
0100
0000
0100
0001
,
0010
0000
0001
1000
0000
1000
0001
0100
,
0000
0000
0100
0010
0000
0010
1000
0001
,
0000
0100
0010
1000
,
0010
0100
0001
0010
,
0200
0000
0000
1000
0000
0000
1300
0000
,
0000
0000
1000
0010
,
1010
0000
0000
1001
0000
0000
0011
0000
,
0001
0100
0010
1000
,
2002
0000
0000
0000
,
0000
0000
0000
0000
,
0000
0000
0000
0000
,
0000
0000
0000
0000
,
3003
0000
0000
0000
;

//---------------dance-double - ----------------
#NOTES:
     dance-double:
     :
     Hard:
     9:
     0.713,0.796,0.502,0.081,0.125:
00000000
00000000
00000000
00000000
,
00000000
00000000
00000000
00000000
,
00000000
00000000
00000000
00000000
,
00000000
00000000
00000000
00000000
,
10010000
00000000
00000000
00000000
00100000
00001000
00010000
00000100
,
00000000
00000000
00000100
00000000
00000010
00000000
00000001
00000000
00000000
00000000
00000000
00000000
00000000
00000000
00000001
00000100
,
00000001
00000000
00000101
00000000
00000010
00001000
00010000
00001000
,
00000000
00000100
00001000
00010000
01000000
10000000
01000000
00010000
,
00002000
00000000
00000000
00000000
00000000
00000000
00000100
00000000
00003100
00000000
00000000
00000000
00000000
00000000
00000001
00000100
,
00000010
00000000
00001010
00000000
00011000
00000000
00110000
00100000
,
10020000
00000000
00000000
00000000
00000000
00000000
01000000
00000000
01030000
00000000
00000000
00000000
00000000
00000000
10000000
01000000
,
00100000
00000000
00000000
00000000
00101000
00000000
00000000
00000000
00010100
00000000
00000100
00001000
00000010
00000000
00000000
00000000
,
00001000
00000010
00000001
00000011
00000000
00000010
00001000
00001010
,
00000000
00010000
00100000
10100000
00000000
10000000
01000000
10010000
,
10000000
00100000
01000000
00001000
00010000
00000100
00000010
00000001
,
00000100
00000000
00000010
00000000
00001000
00000000
00000100
00010000
00001000
00000000
00100000
00000000
00010000
00000000
01000000
00000000
,
00100000
10000000
00100000
01000000
00010000
00100000
00001000
00010000
,
00000100
00001000
00000001
00000100
00000010
00001000
00000100
00001000
,
00010000
00100000
00010000
00001000
00010000
01000000
10000000
00100000
,
01000000
00000000
00100000
00000000
10000000
00000000
00010000
00000000
01000000
00000000
00001000
00000000
00010000
00000000
00000100
00001000
,
00000100
00000001
00000100
00001000
00000100
00000001
00000100
00001000
,
00000100
00000000
00000001
00000000
00000100
00000000
00001000
00000000
00010000
00000000
01000000
00000000
10000000
00000000
01000000
00010000
,
00001000
00000000
00000100
00000000
00000001
00000000
00000010
00000000
00000010
00000000
00000000
00000000
00000000
00000000
00000010
00001000
,
00000100
00000000
00001000
00000000
00000100
00000000
00000001
00000000
00000100
00000000
00001000
00000100
00001000
00000000
00000000
00000000
,
00010000
00100000
10000000
01000000
00010000
00100000
10000000
01000000
,
00010000
00100000
10000000
01000000
00010000
00100000
10000000
01000000
,
00010000
00001000
00000010
00000001
00000100
00001000
00000010
00000001
,
00000100
00001000
00000010
00000002
00000010
00000013
00000100
00001000
,
00000100
00010000
00011000
00000000
00011000
00011000
00100000
00010000
,
01000000
00100000
10000000
01000000
00100000
00010000
00001000
00000100
,
00000001
00000000
00000100
00000000
00002000
00000000
00010000
00000000
00013000
00000000
00000000
00000000
00000000
00000000
00010000
00100000
,
10000000
00000000
01000000
00000000
00100000
00000000
00110000
00000000
00110000
00000000
00010000
00100000
00010000
00000000
01000000
00000000
,
00100000
10000000
01000000
00010000
01000000
10000000
00100000
00010000
,
00001000
00000000
00000100
00000000
00000001
00000000
00000100
00000000
00001000
00000100
00001000
00000001
00001000
00000000
00000100
00000000
,
00010000
00001000
00100000
00010000
01000000
00010000
10000000
00100000
,
10000000
00000000
01000000
00000000
10000000
00000000
00010000
00000000
01000000
00010000
00100000
00001000
00010000
00000000
00001000
00000000
,
00010000
00000200
00000010
00000310
00000000
00000002
00000100
00000103
,
00000000
00000000
00001000
00000000
00010000
00000000
00100000
00000000
00010000
00000000
00001000
00010000
00000100
00000000
00000000
00000000
,
00001100
00000000
00000100
00000000
00000010
00000000
00000001
00000100
00000010
00000000
00000010
00000000
00001000
00000000
00000100
00000000
,
00010000
00000000
00001000
00000000
00100000
00000000
00010000
00000000
01000000
00100000
10000000
00100000
01000000
00000000
00010000
00000000
,
00110000
00000000
00100000
00000000
00001000
00000000
00010000
00000100
00001000
00000000
00001000
00000000
00000010
00000000
00000100
00000000
,
00000001
00000000
00000010
00000000
00000100
00000000
00001000
00000000
00000100
00000010
00000001
00000010
00000100
00000000
00001000
00000000
,
00000100
00020000
00001000
00031000
00000000
00100000
10000000
00100000
,
01000000
00010000
00100000
00001000
00010000
00000100
00001000
00000010
,
00001010
00001000
00000100
00000011
00000000
00000001
00000100
00000101
,
00000000
00000000
00000010
00000000
00001000
00000000
00010000
00000000
00100000
00000000
10000000
00000000
00100000
00000000
00010000
00001000
,
00010000
00010000
00000100
00000100
00001000
00000000
00001001
00000000
,
00000001
00000001
00000100
00000100
00000010
00000000
00001010
00000000
,
00000010
00000010
00010000
00001000
00001000
00100000
00010000
00010000
,
10000000
10000000
01000000
01000000
00100000
00000000
00110000
00000000
,
00001000
00001000
01000000
01000000
00100000
00000000
10010000
00000000
,
10000000
01000000
10000000
10000000
10010000
00010000
10010000
00000000
,
01010000
01010000
00000000
00011000
00011000
00000000
00001100
00001100
,
00000000
00011000
00011000
00000000
00101000
00000000
00010100
00000000
,
00001100
00000010
00000001
00000101
00000000
00000010
00001000
00011000
,
00000000
00100000
00010000
00011000
00000000
00000100
00001000
00011000
,
00000000
01000000
10000000
00100000
00010000
00001000
00000100
00000001
,
00000010
00000000
00001000
00000010
00001000
00000000
00000010
00000000
00001000
00000000
00010000
00000000
01000000
00000000
10000000
00000000
,
01000000
00010000
00001000
00000100
00000100
00000000
00000000
00000100
,
00000101
00000001
00000010
00001000
00001000
00000000
00001000
00011000
,
00010000
00000000
00100000
00000000
10000000
00000000
10000000
00000000
00100000
00000000
00010000
00001000
00010000
00000000
00001000
00010000
,
00001000
00010000
00000100
00001000
00000010
00000100
00000001
00000000
,
00000011
00000100
00001000
00000100
00000001
00000100
00001000
00010000
,
00100000
10000000
00100000
00010000
00100000
10000000
00100000
00010000
,
10010000
10000000
01000000
00100000
00010000
00001000
00000100
00000010
,
00000001
00000000
00000001
00000000
00000010
00000000
00000100
00000000
00001000
00000000
00010000
00001000
00100000
00000000
01000000
00000000
,
10000000
10000000
11000000
01000000
01000000
01100000
00100000
00100000
,
00000000
00000000
00000000
00000000
00000000
00000000
01000000
00001000
00010000
00000000
00000100
00000000
00001000
00000000
00000010
00000000
,
00000101
00000100
00000001
00000011
00000100
00001000
00001100
00001000
,
00010000
00011000
00001000
00011000
00010000
00011000
00001000
00010000
,
00022000
00000000
00000000
00000000
,
00000000
00000000
00000000
00000000
,
00000000
00000000
00000000
00000000
,
00000000
00000000
00000000
00000000
,
00033000
00000000
00000000
00000000
;

//---------------dance-double - ----------------
#NOTES:
     dance-double:
     :
     Medium:
     7:
     0.586,0.630,0.789,0.125,0.036:
00000000
00000000
00000000
00000000
,
00000000
00000000
00000000
00000000
,
00000000
00000000
00000000
00000000
,
00000000
00000000
00000000
00000000
,
10010000
00000000
00000000
00000000
10000000
01000000
00100000
00010000
,
00000000
00010000
00001000
00020000
00000000
00030000
00000000
00010000
,
00001000
00000000
00011000
00000000
00010000
00000100
00001000
00000100
,
00000000
00000100
00000001
00000100
00001000
00010000
01000000
10000000
,
02000000
00000000
00000000
00010000
03010000
00000000
00000000
00010000
,
00001000
00001100
00011000
01010000
,
00012000
00000000
00000000
00010000
00013000
00000000
00000000
00010000
,
00002000
00000000
00000000
00000000
00003200
00000000
00000000
00000000
00000301
00000000
00000000
00000001
00000020
00000000
00000000
00000000
,
00001030
00010000
00100000
10000000
00000000
10000000
00100000
00010000
,
00000000
00001000
00000100
00000001
00000000
00000001
00000100
00001000
,
00010000
00110000
10100000
11000000
,
01010000
00011000
00001100
00000101
,
00001001
00000000
00001001
00000000
00000100
00000010
00001000
00000000
,
00011000
00000000
00011000
00000000
00010000
00100000
10000000
00000000
,
10010000
00000000
10010000
00000000
10000000
01000000
00100000
00000000
,
00110000
00000000
00000000
00000000
00100000
00000000
00001000
00000000
00010000
00000000
00000000
00000000
00011000
00000000
00000000
00000010
,
00001000
00000000
00001001
00000000
00000001
00000100
00000010
00000000
,
00001010
00000000
00011000
00000000
00001000
00010000
01000000
00000000
,
11000000
00000000
01010000
00000000
,
10010000
00011000
00001001
00011000
,
10010000
11000000
10010000
01010000
,
10010000
10100000
10010000
00110000
,
00001100
00001001
00000101
00001001
,
00001010
00000000
00001001
00000000
00000011
00001000
00000001
00001000
,
00000101
00000000
00000011
00000000
00000010
00001000
00000000
00001100
,
00000000
00000000
00010100
00000000
00000000
00000000
00011000
00000000
00000000
00001000
00010000
00000000
00100000
00000000
10000000
00000000
,
00100000
00000000
00000000
10100000
10100000
00000000
00000000
00000000
,
10010000
00000000
00000000
00110000
00110000
00000000
00000000
00000000
,
00020000
01000000
10030000
00100000
,
00002000
00000000
00000000
00000000
00000100
00000000
00000000
00000000
00003001
00000000
00000000
00000001
00000010
00000000
00000100
00000000
,
00002000
00000010
00000001
00003100
,
00020000
00000000
00000000
00000000
00100000
00000000
00000000
00000000
10030000
00000000
00000000
10000000
01000000
00000000
00010000
00000000
,
00001000
00000100
00001000
00010000
00000000
00010000
00001000
00000100
,
00000000
00000100
00000001
00001000
00000001
00000100
00000010
00000000
,
00001010
00000000
00000000
00000000
00011000
00000000
00000000
00010000
00100000
00000000
10000000
00000000
00100000
00000000
00010000
00000000
,
00000000
00001000
00000100
00000001
00000100
00001000
00000100
00000001
,
00000011
00000000
00000000
00000000
00001100
00000000
00000000
00001000
00010000
00000000
01000000
00000000
10000000
00000000
01000000
00000000
,
00000000
01000000
00010000
00001000
00000100
00000001
00000100
00001000
,
00000100
00000001
00000010
00001000
00000000
00010000
00100000
10000000
,
00000000
10000000
00100000
00010000
00001000
00000100
00000001
00000000
,
00000001
00000100
00001000
00010000
00000000
00010000
01000000
10000000
,
00000000
10000000
00100000
00010000
00001000
00000100
00000001
00000100
,
00001000
00010000
00001000
00100000
00010000
00000000
10010000
00000000
,
10000000
00010000
01000000
00001000
00010000
00000000
00011000
00000000
,
00010000
00000100
00001000
00000001
00000100
00000010
00001000
00000000
,
00000100
00010000
00001000
00010000
01000000
00010000
00011000
00000000
,
00010000
00100000
10000000
00100000
00010000
00000000
10010000
00000000
,
00001000
00000100
00000001
00000100
00001000
00000001
00001001
00000000
,
00000001
00000010
00000000
00000010
00001000
00000000
00010000
00100000
,
00000000
00100000
10000000
00000000
10010000
00000000
01100000
00000000
,
10010000
01000000
00100000
00010000
00000000
00010000
00001000
00011000
,
00000000
00001000
00000100
00001100
00000000
00000010
00000001
00000101
,
00000000
00001000
00000100
00010000
00001000
00100000
00010000
00100000
,
01000000
20000000
00000000
31000000
00000000
01000000
00010000
00000000
,
00011000
00000000
00000000
00001000
00001000
00000000
00000000
00000100
,
00000110
00000000
00000000
00000001
00000001
00000000
00000000
00000001
,
00001001
00000000
00000001
00000100
00000010
00001000
00000100
00010000
,
00002000
00000000
00003000
00100000
00010000
00001000
00000100
00000000
,
00001001
00000100
00000010
00001000
00000000
00001000
00010000
00011000
,
00000000
00010000
00100000
00110000
00000000
00100000
10000000
10100000
,
00000000
10000000
00010000
10000000
10010000
10000000
00010000
01000000
,
00100000
01000000
00010000
00100000
00001000
00010000
00000100
00001000
,
00000010
00000000
00000000
00001001
00000000
00000000
00000110
00000000
,
00000000
00000000
00000000
00000000
00000000
00000000
00000000
00001000
00010000
00000000
00000000
00000000
10000000
00000000
00000000
00000000
,
10010000
00000000
00000000
00011000
00000000
00000000
00001001
00000000
,
00000110
00011000
01100000
00011000
,
00022000
00000000
00000000
00000000
,
00000000
00000000
00000000
00000000
,
00000000
00000000
00000000
00000000
,
00000000
00000000
00000000
00000000
,
00033000
00000000
00000000
00000000
;

//---------------dance-double - ----------------
#NOTES:
     dance-double:
     :
     Easy:
     5:
     0.400,0.531,0.251,0.161,0.000:
00000000
00000000
00000000
00000000
,
00000000
00000000
00000000
00000000
,
00000000
00000000
00000000
00000000
,
00000000
00000000
00000000
00000000
,
00011000
00000000
00010000
00100000
,
10000000
00000000
00100000
00000000
00000000
00000000
00000000
00010000
,
00001000
00011000
00001000
00000010
,
00000001
00000010
00001000
00010000
,
00002000
00000000
00000000
00010000
00010000
00000000
00003000
00000000
,
00010000
00100000
10000000
01000000
,
00020000
00000000
00000000
00001000
00031000
00000000
00001000
00000000
,
00000100
00000010
00000001
00000101
,
00001100
00000000
00000000
00011000
00000000
00000000
00000000
01010000
,
00000000
00000000
00000000
11000000
00000000
00000000
00000000
20020000
,
00000000
30030000
10000000
00000000
01000000
00000000
00010000
00000000
,
00001000
00000100
00000001
00000100
,
00001000
00000000
00010000
00000000
00001000
00010000
00000000
00010000
,
00000000
00001000
00000000
00010000
00000000
00200000
00000000
00300000
,
10000000
00000000
01000000
00000000
00100000
00010000
00000000
00001000
,
00000000
00000010
00000000
00000001
00000000
00000000
00000100
00000010
,
00001000
00000000
00000100
00000000
00010000
00001000
00000000
00100000
,
00000000
00010000
00000000
01000000
00000000
00200000
00000000
10300000
,
00010000
00000000
00000000
00010000
00001000
00000000
00000000
00001000
,
00000100
00000010
00000001
00000010
,
00001000
00010000
00100000
10000000
,
00100000
00010000
00001000
00001000
,
00000100
00000001
00000100
00001000
,
00010000
01000000
10000000
01000000
,
00010000
00000000
00001000
00000000
00000100
00000001
00000000
00000010
,
00000000
00001000
00000000
00010000
00000000
01000000
10000000
01000000
,
00020000
00000000
00000000
00001000
00031000
00000000
00000000
00000000
,
00002000
00000000
00000000
00010000
00013000
00000000
00000000
00000000
,
20020000
00000000
00000000
00000000
30030000
10000000
01000000
00100000
,
00000000
00010000
00001000
00000100
,
00002002
00000000
00000000
00000000
00003003
00000001
00000100
00000010
,
00000000
00010000
01000000
10000000
,
01000000
00000000
00010000
00001000
00000000
00010000
00001000
00010000
,
00000000
00001000
00000010
00000001
,
00000100
00000000
00000010
00000000
00010000
00000000
00010000
00001000
,
00000000
00010000
00100000
10000000
,
10000000
00000000
10000000
00000000
01000000
00000000
00010000
00001000
,
00000000
00001000
00000100
00000001
,
00000100
00000000
00000100
00000001
00000000
00000001
00000100
00001000
,
00000000
00010000
01000000
10000000
,
01000000
00000000
00100000
00001000
00000000
00001000
00010000
00001000
,
00000000
00000100
00000001
00000010
,
00000001
00000001
00000001
00001100
,
00010000
00010000
00010000
11000000
,
10000000
00000000
00000000
00011000
00000000
00000000
00000001
00000000
,
00001001
00001000
00001001
00000001
,
00000100
00000010
00010000
00011000
,
00001000
00100000
00010000
10010000
,
10000000
01000000
00000000
01000000
00100000
00000000
00100000
00001000
,
00000000
00001000
00000100
00000000
00000101
00000000
00000011
00000000
,
00000001
00000100
00000001
00000100
00000000
00000010
00001000
00000010
,
00000000
00010000
00001000
00010000
00000000
00100000
00010000
00100000
,
00000000
01000000
10000000
00100000
,
00020000
00000000
00000000
00000000
00000000
00000100
00030100
00000000
,
00002000
00000000
00000000
00000100
00003100
00000000
00000000
00000010
,
00000020
00000000
00000000
00000001
00000031
00000000
00000000
00000100
,
00000100
00000010
00001000
00010000
,
00100000
00010000
00001000
00011000
,
00010000
00000000
00001000
00010000
00000000
00010000
00001000
00010000
,
00000000
00010000
00100000
00010000
00000000
00100000
10000000
00100000
,
00000000
01000000
00010000
01000000
00001000
00000000
00010000
00000000
,
00000100
00000010
00000001
00000100
,
00000020
00000000
00000000
00001000
00000000
00000000
00001000
00000000
,
00000000
00000030
00000100
00001000
,
00011000
00000000
00000000
10010000
00000000
00000000
00011000
00000000
,
00001100
00011000
01010000
00011000
,
00022000
00000000
00000000
00000000
,
00000000
00000000
00000000
00000000
,
00000000
00000000
00000000
00000000
,
00000000
00000000
00000000
00000000
,
00033000
00000000
00000000
00000000
;

//---------------dance-single - ----------------
#NOTES:
     dance-single:
     :
     Beginner:
     2:
     0.137,0.251,0.027,0.000,0.000:
0000
0000
0000
0000
,
0000
0000
0000
0000
,
0000
0000
0000
0000
,
0000
0000
0000
0000
,
1000
0000
0000
0000
,
0100
0000
0000
0000
,
0010
0000
0000
0000
,
0001
0000
0000
0000
,
0010
0000
0000
0000
,
0100
0000
0100
0000
,
0100
0000
0000
0000
,
1000
0000
1000
0000
,
1000
0000
0000
0000
0000
0000
0000
0001
,
0000
0000
0000
0000
0000
0000
0000
1001
,
0000
0000
0000
0000
,
0000
0000
0000
0000
,
1000
0000
0000
0000
,
0100
0000
0000
0000
,
0010
0000
0000
0000
,
0001
0000
0000
0000
,
0001
0000
0000
0000
,
0010
0000
0000
0000
,
0100
0000
0100
0000
,
1000
1000
1000
0000
,
1001
0000
0000
0000
,
0010
0000
0000
0000
,
0001
0000
0000
0000
,
0100
0000
0000
0000
,
1000
0000
0000
0000
,
0100
0000
0000
0000
,
0001
0000
0001
0000
,
1000
0000
1000
0000
,
1001
0000
0000
0000
,
0000
0000
0100
0100
,
0100
0000
0000
0000
,
0100
0000
0010
0010
,
0010
0000
0000
0000
,
0000
0000
0000
0000
,
1000
1000
1000
0000
,
0000
0000
0000
0000
,
0001
0001
0001
0000
,
0000
0000
0000
0000
,
0100
0000
0000
0000
0000
0000
0000
0010
,
0000
0000
0000
0000
,
1000
0000
0000
0000
0000
0000
0000
0001
,
0000
0000
0000
0000
,
0001
0001
0001
0000
,
0010
0010
0010
0000
,
0100
0100
0100
0000
,
1000
1000
1000
0000
,
1000
1000
1000
0000
,
0100
0100
0100
0000
,
0010
0000
0000
0010
0000
0000
0001
0000
,
0000
0001
0000
0000
0000
0000
0000
0000
,
0001
0001
0000
0000
,
0100
0100
0000
0000
,
0010
0000
0010
0000
,
1000
0000
0000
0000
,
0100
0000
0000
0000
,
0001
0000
0000
0000
,
0010
0000
0001
0001
,
0001
0000
1000
1000
,
1000
0000
0000
0000
,
0100
0000
0000
0000
,
0010
0000
0000
0000
,
0001
0000
0000
0000
,
0010
0000
0000
0000
,
0000
0000
1000
1000
,
1000
0000
0000
1000
0000
0000
1000
0000
,
1000
1000
1000
1000
,
1000
0000
0000
0000
;

//---------------dance-single - ----------------
#NOTES:
     dance-single:
     :
     Challenge:
     10:
     0.868,0.929,1.000,0.054,0.394:
0000
0000
0000
0000
,
0000
0000
0000
0000
,
0000
0000
0000
0000
,
0000
0000
0000
0000
0000
0000
0000
0000
0000
0000
0000
0000
0000
0000
1000
0001
,
1000
0100
1100
MMMM
1000
0001
0100
0001
,
0000
0000
0001
0000
0010
0000
0100
0000
MMMM
0000
0000
0000
0000
0000
0001
0100
,
0010
0100
0101
MMMM
0001
0010
0100
2000
,
0000
3100
0010
0100
1000
0010
0100
0100
,
0220
0000
0000
0000
0330
0000
0100
0000
1001
0000
0000
0000
0000
0000
0001
0010
,
0100
1100
0101
0011
,
2010
0000
0000
0000
0000
0000
0001
0000
3001
0000
0000
0000
0000
0000
1000
0100
,
0010
0000
0000
0000
0011
0000
0000
0000
0101
0000
0100
0010
1000
0000
0000
0000
,
1100
1000
0001
0101
0000
0001
1000
1100
,
0000
1000
0001
0011
0000
0001
1000
1001
,
0000
1100
0101
1100
,
0101
0000
0000
0000
1001
0000
0001
0100
0010
0000
0010
0100
0001
0000
0001
0010
,
0100
0000
1100
0000
1010
0010
0100
0101
,
0000
0000
1001
0000
0000
0000
1100
0000
0000
0000
1010
0000
0010
0000
0100
0001
,
0100
0000
1010
0000
0011
0001
0100
1010
,
0000
0000
1001
0000
0000
0000
0011
0000
0000
0000
0001
0000
1001
0000
0001
0100
,
0010
0000
1010
0000
0110
0001
1000
1001
,
0000
0000
0110
0000
0000
0000
1001
0000
0110
0000
1001
0000
0000
0000
1000
0100
,
0010
0000
0001
0000
0001
0000
0001
0100
0010
0000
1000
0000
1000
0000
1000
0010
,
0100
0000
0001
0010
0100
0000
0100
0010
0100
0000
1000
0001
1000
0000
0001
1000
,
0001
0100
1000
0100
0001
0010
1000
0010
,
0001
0100
1000
0100
0001
0010
0110
0010
,
1000
0100
0001
0100
1000
0010
0001
0010
,
1000
0100
0001
0100
1000
0010
0001
0010
,
0011
0000
1100
0000
1001
1001
0000
0110
,
0000
1001
0000
0110
0000
0001
0100
0010
,
1010
0000
1000
0010
0100
0000
0101
0000
0101
0000
0000
0000
0000
0000
0001
0100
,
0010
0000
0100
0010
1000
0000
1010
0000
1010
0000
0010
0100
0001
0000
0001
0000
,
0001
0010
0100
0010
0001
0100
0010
1001
,
MMMM
0000
0000
1000
0000
0000
0001
0000
0000
0100
0000
0000
0010
0000
0000
1000
0010
1000
0100
0000
0000
0010
0000
0000
,
0011
0001
0100
0010
0100
0001
0010
0011
,
MMMM
0000
0000
0001
0000
0000
0100
0000
0000
0010
0000
0000
1000
0000
0000
0010
0100
0010
1000
0000
0000
0100
0000
0000
,
0010
0001
1001
1001
0000
0100
1001
1001
,
0000
0001
0010
0100
1100
1001
0101
0000
,
1001
0000
0000
0000
0110
0000
0000
0001
2000
0000
0001
0000
3001
0000
0100
0000
,
0010
0000
0000
1010
0000
0000
0100
0000
0000
0001
0000
0000
0100
0000
0000
0010
1000
0010
0100
0000
0000
0001
0000
0000
,
0011
0000
MMMM
0000
1100
0000
0000
1000
0010
0000
0100
0000
0001
0000
0101
0000
,
0001
0000
0000
0010
0000
0000
0100
0000
0000
1000
0000
0000
0010
0000
0000
0100
0001
0010
0001
0000
0000
0100
0000
0000
,
0010
1000
1001
1001
0000
0010
1001
1001
,
0000
0100
0010
1000
1010
1000
0011
0000
,
1001
0100
0110
0110
0000
0010
0110
0110
,
0000
0000
0010
0000
1000
0000
0010
0000
0100
0000
0001
0010
0001
0000
0100
1000
,
0100
0000
0100
0000
0010
0000
0001
0000
0011
0000
0001
0000
0010
0001
0010
0001
,
0010
0000
0001
0000
0100
0000
0010
0000
0101
0000
0100
0000
0010
1000
0010
1000
,
0010
0000
0010
0000
0100
0000
0001
0000
0001
0000
1000
0100
1000
0100
1000
0100
,
1000
0001
1000
0001
1000
0001
0010
0001
0010
0001
1000
0001
1000
0001
1000
0001
,
1000
0000
1000
0000
0010
0000
0100
0000
0101
0000
0100
0000
0001
0100
0001
0100
,
0001
0100
0001
0100
0010
0000
1000
0000
0010
0000
1000
0000
1010
0000
0010
0000
,
1010
1010
0000
1001
1001
0000
0011
0011
,
0000
0000
1001
0000
1001
0000
0001
1000
0001
0000
MMMM
0000
0110
0000
0000
0000
,
1001
0100
0010
1001
0100
0010
0100
0101
,
0010
0100
1000
1100
0010
0100
0001
0101
,
0001
0000
0010
0000
1000
0000
0010
0000
0001
0000
0100
0010
1000
0000
0100
0000
,
0011
0000
0000
0001
0100
0010
1000
0000
0000
1100
0000
0000
1000
0000
0000
0101
0000
0000
0101
0000
0000
0000
0000
0000
,
1001
0100
0010
1001
1001
0000
0000
0110
,
0110
0001
1000
0110
0110
0000
0000
0011
,
0011
0000
0000
0001
0000
0000
0100
0000
0000
1010
0000
0000
1010
0000
0000
1000
0010
1000
0010
0000
0000
0100
0001
0100
,
0001
0000
0010
0000
0100
0000
1000
0010
0100
0000
0001
0000
0101
0000
MMMM
0000
,
0011
0001
1000
1010
1000
0010
0100
0101
,
0001
0010
0100
1100
1000
0010
1000
1001
,
0100
0000
0000
0010
0000
0000
1000
0000
0000
0001
0000
0000
1001
0000
0000
1000
0100
0010
0001
0000
0000
0001
0000
0000
,
0010
0000
0000
0100
1000
0010
0100
0000
0000
0001
0000
0000
0100
0000
0000
0010
1000
0010
0100
0000
0000
0001
0000
0000
,
0101
0000
0000
MMMM
0000
0000
1001
0000
0000
MMMM
0000
0000
1100
0000
0000
0000
,
0000
0000
0000
0000
0000
0000
0000
0000
0000
1000
0001
0100
0010
0000
0000
MMMM
0000
0000
1001
0000
0000
0000
0000
0000
,
1100
0000
0000
1001
0000
0000
0101
0000
,
0011
1100
1010
0101
,
0001
0010
0001
0010
0001
0000
1000
0001
1000
0001
1000
0000
0001
0100
0001
0100
,
0001
0000
1000
0001
1000
0001
1000
0000
0001
0010
0001
0010
0001
0000
1000
0001
,
1000
0001
1000
0000
0001
1000
0001
1000
0001
0000
0010
0100
0010
0100
0010
0100
,
0002
0000
0000
0000
0000
0000
0000
0000
0000
0000
0000
0000
0000
0003
0000
0000
,
MMMM
0000
0000
0000
;

//---------------dance-double - ----------------
#NOTES:
     dance-double:
     :
     Challenge:
     10:
     0.877,0.929,0.843,0.072,0.359:
00000000
00000000
00000000
00000000
,
00000000
00000000
00000000
00000000
,
00000000
00000000
00000000
00000000
,
00000000
00000000
00000000
00000000
00000000
00000000
00000000
00000000
00000000
00000000
00000000
00000000
00000000
00000000
00010000
00001000
,
00010000
00000000
MMMMMMMM
00000000
00000100
00001000
00000100
00000001
,
00000010
00000000
00000001
00000000
00000100
00000000
00000010
00000000
00000000
00000000
MMMMMMMM
00000000
00000000
00000000
00000010
00010000
,
00001000
00010000
00011000
00000000
00001000
00010000
00100000
20000000
,
30100000
00010000
00001000
00000100
00000001
00000100
00001000
00010000
,
00001000
00000000
00000000
MMMMMMMM
00000000
00000000
00011000
00000000
00022000
00000000
00000000
00000000
00033000
00000000
00001000
00010000
,
00100000
10100000
01010000
00011000
,
00001100
00000000
00000000
MMMMMMMM
00000000
00000000
00000101
00000000
00000101
00000000
00000000
00000000
MMMMMMMM
00000000
00000001
00000100
,
00000010
00000000
00000000
00000000
00001010
00000000
00000000
00000000
00011000
00000000
00001000
00010000
00001000
00000000
MMMMMMMM
00000000
,
00110000
01000000
10000000
10100000
10000000
01000000
00010000
00011000
,
00001000
00000100
00000010
00000011
00000001
00000100
00000010
00001010
,
00010000
00001000
00011000
00000000
00110000
00000000
11000000
00000000
,
10100000
00000000
00000000
00000000
01010000
00000000
00010000
00001000
00010000
00000000
00001000
00010000
00001000
00000000
00010000
00001000
,
00100000
00010000
01000000
10000000
00100000
00010000
01000000
10000000
,
00100000
00010000
01000000
10000000
00100000
00010000
00001000
00000100
,
00000001
00000010
00001000
00000100
00000001
00000010
00001000
00000100
,
00000001
00000000
00000010
00000000
00001000
00000000
00000100
00000000
00000001
00000000
00000010
00000000
00001000
00000000
00000010
00000001
,
00000100
00000010
00001000
00000100
00000010
00000001
00000100
00000010
,
00001000
00000000
00000100
00000000
00000010
00000000
00000001
00000000
00000100
00000000
00000010
00000000
00001000
00000000
00000100
00010000
,
00001000
00000000
00000000
MMMMMMMM
00000000
00000000
00011000
00000000
00011000
00000000
00000000
00000000
MMMMMMMM
00000000
00010000
01000000
,
10000000
00000000
10000000
00000000
00100000
00000000
01000000
00000000
00010000
00000000
00100000
00001000
00010000
00000000
00000100
00000000
,
00001100
00001000
00000100
00000001
00000100
00001000
00000010
00000001
,
00000010
00001000
00000100
00000001
00000100
00001000
00010000
01000000
,
10000000
01000000
00010000
01000000
10000000
00100000
00010000
00100000
,
10000000
01000000
00010000
01000000
00020000
00032000
00003200
00000302
,
00000013
00000100
00001000
00000010
00001100
00001100
00000000
00011000
,
00000000
00000000
00110000
00000000
00000000
00000000
01010000
00000000
00000000
00010000
01000000
00000000
00100000
00000000
10000000
00000000
,
11000000
00000000
10000000
01000000
00100000
00000000
00110000
00000000
00110000
00000000
00100000
00001000
00010000
00000000
00010000
00000100
,
00001000
00000000
00000100
00000000
00001100
00000000
00001001
00000000
00000101
00000000
00000100
00000010
00001000
00000000
00001000
00000001
,
00000100
00000010
00001000
00000100
00010000
00001000
00100000
00010000
,
01000000
00000000
00000000
00100000
00000000
00000000
10000000
00000000
00000000
01000000
00000000
00000000
00100000
00000000
00000000
01000000
10000000
00100000
01000000
00000000
00000000
01100000
00000000
00000000
,
01000000
00010000
00100000
00010000
01000000
00001000
00010000
00000100
,
00001000
00000000
00000000
00000010
00000000
00000000
00000100
00000000
00000000
00000001
00000000
00000000
00000010
00000000
00000000
00000001
00000100
00000010
00000100
00000000
00000000
00000010
00000000
00000000
,
00001000
00000100
00001100
00001100
MMMMMMMM
00001000
00011000
00011000
,
MMMMMMMM
00010000
00100000
10000000
01000000
00010000
01000000
10000000
,
00100000
00000000
01000000
00000000
00010000
00000000
00100000
00001000
00010000
00000000
00010000
00000100
00001000
00000000
00001100
00000000
,
00001000
00000000
00000000
00000000
00000000
00000000
00000010
00000000
00000000
00000100
00000000
00000000
00000001
00000000
00000000
00000000
00000000
00000000
00000010
00000000
00000000
00000000
00000000
00000000
00000001
00000000
00000000
00000000
00000000
00000000
00000100
00000000
00000010
00000000
00000100
00000000
00001000
00000000
00000000
00000000
00000000
00000000
00010000
00000000
00000000
00000000
00000000
00000000
,
00100000
00000000
10000000
00000000
00100000
00000000
00010000
00001000
00010000
00000000
00010000
00000100
00001000
00000000
00001100
00000000
,
00000000
00000000
00000000
00001000
00000000
00000000
00000010
00000000
00000000
00000100
00000000
00000000
00000001
00000000
00000000
00000010
00000100
00001000
00000100
00000000
00000000
00001000
00000000
00000000
,
00010000
00100000
10010000
10010000
MMMMMMMM
01000000
10010000
10010000
,
10000000
00000000
00100000
00000000
01000000
00000000
00010000
00000000
00100000
00000000
01000000
10000000
00010000
00000000
MMMMMMMM
00000000
,
00110000
00010000
01010000
01010000
00000000
00010000
00001000
00011000
,
00010000
00000000
00000100
00000000
00001000
00000000
00000010
00000100
00000001
00000000
00000001
00000010
00000100
00000000
00000100
00010000
,
00001000
00000000
00010000
00000000
00100000
00000000
00010000
00000000
00001000
00000000
00010000
00000000
00001000
00010000
00001000
00010000
,
00001000
00000000
00000010
00000000
00000001
00000000
00000100
00000000
00000010
00000000
00001000
00000000
00000100
00010000
00001000
00100000
,
00010000
00000000
00010000
00000000
01000000
00000000
00100000
00000000
00100000
00000000
10000000
00000000
00100000
10000000
00100000
01000000
,
00010000
00010000
00100000
00001000
00001000
00010000
00011000
00000000
,
00000100
00000000
00000100
00000000
00001000
00000000
00000010
00000000
00000010
00000000
00000100
00000000
00000001
00000100
00001000
00000100
,
00000001
00000010
00001000
00001000
00101000
00001000
00101000
00000000
,
00110000
00000000
00110000
00000000
MMMMMMMM
00000000
00011000
00000000
00011000
00000000
MMMMMMMM
00000000
00000100
00001000
00010000
00100000
,
00010000
00001000
00010000
00100000
00010000
01000000
00100000
01000000
00010000
00000000
MMMMMMMM
00000000
00001100
00000000
00000000
00000000
,
00000011
00000001
00000100
00001010
00001000
00000100
00010000
00011000
,
00001000
00100000
00010000
01010000
01000000
00100000
10000000
10100000
,
10000000
01000000
00010000
00001000
00000100
00000001
00000010
00001000
,
00010000
00000000
00000000
00001000
00010000
00100000
10000000
00000000
00000000
11000000
00000000
00000000
01000000
00000000
00000000
00010000
00000000
00000000
00001000
00000000
00000000
MMMMMMMM
00000000
00000000
,
00001100
00000010
00000001
00000101
00000101
00000010
00001000
00001100
,
00001100
00010000
00001000
00011000
00011000
00100000
00010000
01010000
,
01010000
00000000
00000000
01000000
00000000
00000000
00100000
00000000
00000000
10100000
00000000
00000000
10100000
00000000
00000000
10000000
00000000
01000000
00100000
00010000
00000000
00001000
00000100
00000010
,
00000001
00000000
00000010
00000000
00000100
00000000
00001000
00000100
00010000
00000000
00001000
00000000
00011000
00000000
MMMMMMMM
00000000
,
00110000
01000000
00100000
10100000
10000000
01000000
00100000
00110000
,
00100000
00001000
00010000
00011000
00010000
00000100
00001000
00001010
,
00000100
00000001
00000010
00000100
00001100
00010000
00110000
00100000
,
00010000
00000000
00000000
01000000
00000000
00000000
10000000
00000000
00000000
01000000
00000000
00000000
00010000
00000000
00000000
00001000
00010000
00001000
00000100
00000000
00000000
00000001
00000000
00000000
,
00000101
00000001
00000100
00001100
00000100
00010000
00011000
00011000
,
00010000
00000000
00000000
00100000
00000000
00000000
00010000
00000000
00000000
00001000
00000100
00001000
00010000
00000000
00000000
00100000
00000000
00000000
10000000
00000000
00000000
01000000
00000000
00000000
,
00110000
00010000
00001000
00011000
00001000
00000100
00001100
00000010
,
00000011
00000001
00000101
00000100
00001100
00001000
00011000
00010000
,
00001000
00010000
00001000
00010000
00001000
00000000
00010000
00100000
00010000
00100000
00010000
00000000
00001000
00010000
00001000
00010000
,
00001000
00000000
00000010
00001000
00000010
00001000
00000010
00000000
00010000
00001000
00010000
00001000
00010000
00000000
01000000
00010000
,
01000000
00010000
01000000
00000000
00001000
00010000
00001000
00010000
00001000
00000000
00000100
00001000
00000100
00001000
00000100
00010000
,
00002000
00000000
00000000
00000000
00000000
00000000
00000000
00003000
,
MMMMMMMM
00000000
00000000
00000000
;
