#TITLE:Jollipop;
#SUBTITLE:;
#ARTIST:omniboi;
#TITLETRANSLIT:;
#SUBTITLETRANSLIT:;
#ARTISTTRANSLIT:;
#GENRE:;
#CREDIT:;
#BANNER:[ROUND F] - Jollipop.png;
#BACKGROUND:[ROUND F] - Jollipop-bg.png;
#LYRICSPATH:;
#CDTITLE:cdtitle.png;
#MUSIC:[ROUND F] - Jollipop.ogg;
#OFFSET:0.873509;
#SAMPLESTART:16.002796;
#SAMPLELENGTH:14.999998;
#SELECTABLE:YES;
#DISPLAYBPM:128.000000;
#BPMS:0.000000=128.000000
,236.000000=118.000000
,240.000000=128.000000
;
#STOPS:109.500000=0.234000,
111.000000=0.469000,
116.000000=0.234000,
123.500000=0.938000,
128.000000=0.938000,
134.750000=0.469000,
136.250000=0.469000
;
#BGCHANGES:;
#KEYSOUNDS:;
#ATTACKS:;

//---------------dance-single - ----------------
#NOTES:
     dance-single:
     :
     Challenge:
     9:
     0.530286,0.650534,0.410785,0.209127,0.582568,497.000000,442.000000,55.000000,28.000000,34.000000,0.000000,0.530286,0.650534,0.410785,0.209127,0.582568,497.000000,442.000000,55.000000,28.000000,34.000000,0.000000:
0000
0000
0000
0000
,
0000
0000
0000
0000
,
0000
0000
0000
0000
,
0000
0000
0000
0000
,
0000
0000
0000
0000
,
1000
0000
0000
1000
0010
0000
0000
0010
0000
0100
0001
0000
0010
0000
0000
0000
,
0001
0000
0000
0000
0010
0000
0000
0100
0000
0010
0100
0000
1000
0000
0000
0000
,
0001
0000
0000
0001
0100
0000
0000
0010
0000
0100
0010
0000
1000
0000
0000
0000
,
0001
0000
0000
0001
0010
0000
0000
0010
0100
0000
0000
0100
4000
0000
0000
0000
,
3001
0000
0000
0001
0100
0000
1000
0000
0100
0000
0010
0000
1000
0000
0100
0000
,
0110
0000
0000
0010
0100
0000
1000
0000
0010
0000
0001
0000
0010
0000
1000
0000
,
1100
0000
0000
0100
0010
0000
0001
0000
0100
0000
1000
0000
0100
0000
0001
0000
,
0101
0000
0000
0100
0010
0000
1000
0000
2002
0000
0000
3003
0020
MM0M
0000
0030
,
1001
0000
0000
0000
0000
0000
0000
0000
0000
0001
0000
0000
0010
0000
0000
0000
0000
0000
0001
0000
1000
0000
0001
0000
1000
0000
0000
0001
0000
0000
0100
0000
0000
0000
0000
0000
0010
0000
0000
0000
0000
0000
1000
0000
0000
0000
0000
0000
,
1100
0000
0000
0100
0010
0000
0001
0000
0100
0000
1000
0000
0100
0000
0001
0000
,
0011
0000
0000
0010
1000
0000
0010
0000
0001
0000
0100
0000
0010
0000
1000
0000
,
1001
0000
0000
0000
0001
0000
0000
0000
1001
0000
0000
0000
1000
0000
0000
0000
2100
0000
0000
000M
00M0
0M00
0000
0000
3001
0000
0100
0000
0010
0000
0000
0000
,
1010
0000
0000
0010
1000
0000
0001
0010
0000
0100
0000
1000
0000
0010
0000
0000
,
0101
0000
0000
0100
0010
0000
0001
0000
0010
0100
0010
1000
0400
0040
0300
0030
,
1001
0000
0000
1001
0000
0000
0220
0000
0000
0000
0330
0000
0001
0100
0010
1000
,
0001
0000
0000
0001
1000
0000
0100
0000
0001
0000
1000
0000
0010
0001
0100
0000
,
0110
0000
0000
0001
0100
0000
0010
1000
0000
0100
0000
0010
0000
0001
0000
0000
,
1001
0000
0000
0001
0010
0000
0100
0000
0010
0001
0100
0010
0000
0010
1000
0000
,
1100
0000
0000
0100
0010
0000
0001
1000
0000
0010
0000
0100
0000
0001
0000
0000
,
1001
0000
0000
0000
1000
0000
0000
0000
1001
0000
0000
0000
0001
0000
0000
0000
0102
0000
0000
M000
00M0
0M00
0000
0000
1003
0000
0100
0000
0010
0000
0000
0000
,
0002
0000
0000
M000
0M00
0000
0000
M000
0M00
0000
0000
M000
0M00
0000
0000
M000
,
0M03
0000
0000
0000
0000
0000
2000
0000
0000
0000
0000
0000
0000
0000
0000
0000
0000
0000
300M
00M0
000M
00M0
000M
00M0
,
1100
0000
0000
0101
0000
0000
0001
0000
0101
0000
0000
1000
0010
0000
1010
0000
,
0010
0100
0001
0000
1001
0000
1000
0100
0010
0000
0011
0000
0000
1100
0000
0000
,
1000
0000
1010
0000
0000
0101
0000
0000
0110
0000
0000
1001
0000
0000
1000
0100
,
0010
0000
0001
0000
0100
0000
0010
0000
1010
0000
0000
1100
0000
0000
1001
0000
,
0001
0100
0010
1000
0100
0010
0001
0100
1000
0001
0010
1000
,
0200
0300
0000
0000
0000
0000
0000
0000
0000
0000
0000
0000
0000
0000
0000
0000
0000
0000
0000
0000
0000
0000
0000
0000
0M00
0000
0000
0000
0000
0000
0000
0000
0000
0000
0000
0000
0000
0000
0000
0000
0000
0000
0000
0000
0000
0000
0000
0000
0000
0000
0000
0000
0000
0000
0000
0000
0000
0000
0000
0000
0000
0000
0000
0000
0000
0000
0000
0000
0000
0000
0000
0000
0000
0000
0000
0000
0000
0000
0000
0000
0000
0000
0000
0000
0000
0000
0000
0000
0000
0000
0000
0000
0000
0000
0000
0000
0100
0000
0000
0000
0000
0000
0000
0000
0000
0000
0000
0000
0000
0000
0000
0000
0000
0000
0000
0000
0000
0000
0000
0000
0000
0000
0000
0000
0000
0000
0000
0000
0000
0000
0000
0000
0100
0000
0000
0000
0000
0000
0000
0000
0000
0000
0000
0000
0010
0000
0000
0000
0000
0000
0000
0000
0000
0000
0000
0000
0000
0000
0000
0000
0000
0000
0000
0000
0000
0000
0000
0000
0001
0000
0000
0000
0000
0000
0000
0000
0000
0000
0000
0000
1000
0000
0000
0000
0000
0000
0000
0000
0000
0000
0000
0000
,
0001
0000
0000
0000
0001
0000
0000
0000
0101
0000
0000
1010
0000
0000
0011
0000
,
0000
1100
0000
0000
0220
0000
0000
0000
0330
0000
1001
0000
0001
0100
0010
0000
,
1010
0000
0000
1000
0010
0000
0100
0001
0010
0000
1000
0000
0010
0001
0100
0000
,
0101
0000
0000
0000
0000
0000
0000
0000
0000
0001
0000
0000
0100
0000
0000
0000
0000
0000
0010
0000
1000
0000
0010
0000
1000
0000
0000
0000
0000
0000
0000
0000
0000
0000
0000
0000
1001
0000
0000
0000
0000
0000
0000
0000
0000
0000
0000
0000
,
1100
0000
0000
0010
0001
0000
1000
0010
0100
0001
0010
0100
1000
0000
0001
0000
,
1000
0010
0100
0001
0010
0100
1000
0010
0001
1000
0100
0001
,
0201
0000
0000
0000
0301
0100
0010
2010
,
0000
0000
0001
0000
0100
3100
0000
1200
,
0000
0000
0000
0000
0000
0000
0000
0000
1300
0100
0010
0100
0010
0001
0200
0000
,
0000
0000
0300
0000
,
0001
0000
0010
0000
1000
0000
0010
0000
0001
0000
0100
1000
0000
0100
0001
0000
,
1000
0000
0100
0000
0010
0000
1000
0000
0010
0000
0001
0100
0000
0100
0010
0000
,
1000
0000
0100
0000
0001
0000
0100
0000
1000
0000
0010
0001
0000
0010
1000
0000
,
0001
0000
0010
0000
0100
0000
1000
0000
0001
0100
0010
1000
0001
0000
001M
0000
,
0001
0000
0100
0000
1000
0000
0100
0000
0001
0000
0010
1000
0000
0010
0001
0000
,
1000
0000
0010
0000
0100
0000
1000
0000
0100
0000
0001
0010
0000
0010
0100
0000
,
1000
0000
0010
0000
0001
0000
0010
0000
1000
0000
0100
0001
0000
0100
1000
0000
,
0010
0000
0001
0000
1000
0000
0100
0000
0002
0M00
0000
0013
0000
010M
1000
0000
,
0001
0000
0000
0000
0000
0000
0000
0000
1000
0000
0000
0000
0000
0010
0000
0000
1000
0000
0000
0000
0000
0010
0000
0000
1000
0000
0000
0000
0000
0001
0000
0000
0000
0000
0000
0000
0000
0010
0000
0000
0001
0000
0000
0000
0000
0000
0000
0000
4004
0000
0000
0000
0000
0000
0000
0000
3003
0000
0000
0000
0000
0000
0000
0000
,
1000
0000
0000
0000
0000
0000
0000
0000
0001
0000
0000
0000
0000
0100
0000
0000
0001
0000
0000
0000
0000
0100
0000
0000
0001
0000
0000
0000
0000
1000
0000
0000
0000
0000
0000
0000
0000
0100
0000
0000
1000
0000
0000
0000
0000
0000
0000
0000
0001
0000
0000
0000
0000
0000
0000
0000
100M
0000
0000
0000
0000
0000
0000
0000
,
0100
0000
0000
0000
0000
0000
0000
0000
0010
0000
0000
0000
0000
0001
0000
0000
0010
0000
0000
0000
0000
0001
0000
0000
0010
0000
0000
0000
0000
0100
0000
0000
0000
0000
0000
0000
0000
0010
0000
0000
0001
0000
0000
0000
0000
0000
0000
0000
1001
0000
0000
0000
0000
0000
0000
0000
0000
0000
0000
0000
0000
0000
0000
0000
,
0001
0000
0000
0000
0000
0000
0000
0000
1000
0000
0000
0000
0000
0010
0000
0000
1000
0000
0000
0000
0000
0010
0000
0000
1000
0000
0000
0000
0000
0001
0000
0000
02M0
0000
0000
0000
0000
M000
0000
0000
0000
0000
0000
000M
0000
0000
0000
0000
0310
0000
0000
0000
0000
0000
0000
0000
1MM0
0000
0000
0000
0000
0000
0000
0000
,
0001
0000
0000
0000
0000
0000
0000
0000
0010
0000
0000
0000
0000
0100
0000
0000
0010
0000
0000
0000
0000
0100
0000
0000
0010
0000
0000
0000
0000
0001
0000
0000
0000
0000
0000
0000
0000
0100
0000
0000
0010
0000
0000
0000
0000
0000
0000
0000
1001
0000
0000
0000
0000
0000
0000
0000
0000
0000
0000
0000
0000
0000
0000
0000
,
1000
0000
0000
0000
0000
0000
0000
0000
0010
0000
0000
0000
0000
0100
0000
0000
0010
0000
0000
0000
0000
0100
0000
0000
0010
0000
0000
0000
0000
1000
0000
0000
0000
0000
0000
0000
0000
0100
0000
0000
0010
0000
0000
0000
0000
0000
0000
0000
0001
0000
0000
0000
0000
0000
0000
0000
010M
0000
0000
0000
0000
0000
0000
0000
,
0010
0000
0000
0000
0000
0000
0000
0000
1000
0000
0000
0000
0000
0001
0000
0000
1000
0000
0000
0000
0000
0001
0000
0000
1000
0000
0000
0000
0000
0100
0000
0000
0000
0000
0000
0000
0000
0010
0000
0000
0001
0000
0000
0000
0000
0000
0000
0000
0011
0000
0000
0000
0000
0000
0000
0000
0000
0000
0000
0000
0000
0000
0000
0000
,
1001
0000
1000
0000
1001
0000
0001
0000
1000
0010
1000
0010
0100
0001
0010
0000
,
0220
0000
0000
0300
,
0002
0000
0000
0030
,
0200
0000
0000
0003
,
0020
0300
2000
0030
,
0002
0000
0000
3000
,
0020
0000
0000
0003
,
0200
0000
0000
0030
,
2000
0000
0000
0000
,
3300
0000
0000
0000
;

//---------------dance-single - ----------------
#NOTES:
     dance-single:
     :
     Hard:
     8:
     0.401182,0.500411,0.403316,0.291284,0.216596,376.000000,322.000000,54.000000,39.000000,0.000000,0.000000,0.401182,0.500411,0.403316,0.291284,0.216596,376.000000,322.000000,54.000000,39.000000,0.000000,0.000000:
0000
0000
0000
0000
,
0000
0000
0000
0000
,
0000
0000
0000
0000
,
0000
0000
0000
0000
,
0000
0000
0000
0000
,
1000
0000
0000
0001
0010
0000
0000
0000
0001
0000
0000
0000
0001
0000
0000
0000
,
0100
0010
1000
0001
,
1000
0000
0000
0001
0100
0000
0000
0000
0001
0000
0000
0000
0001
0000
0000
0000
,
1000
0000
0000
0001
0010
0000
0000
0000
0001
0000
0000
1000
0010
0000
0000
0000
,
1010
0000
0000
1010
0000
0000
1000
0000
0100
0000
0010
0000
0001
0000
0000
0000
,
0011
0000
0000
0011
0000
0000
0001
0000
0100
0000
0010
0000
1000
0000
0000
0000
,
1001
0000
0000
1001
0000
0000
1000
0000
0010
0000
1000
0000
0100
0000
0000
0000
,
0110
0000
0000
0110
0000
0000
1000
0000
2001
0000
0000
0000
0020
0000
3030
0000
,
1001
0000
0000
0101
0000
0000
0001
0000
0100
0000
1000
0000
0100
0000
0000
0000
,
0110
0000
0000
1010
0000
0000
1000
0000
0001
0000
0010
0000
0100
0000
0000
0000
,
1100
0000
0000
0110
0000
0000
0010
0000
0001
0000
0100
0000
0010
0000
0000
0000
,
2000
0010
3002
0010
2003
0000
3001
0000
,
1010
0000
0000
1010
0000
0000
0010
0100
0000
0001
0000
1000
0000
0100
0000
0000
,
0110
0000
0000
0110
0000
0000
0010
0000
0001
0000
1000
0010
0000
0100
0000
0000
,
1001
0000
0000
0110
0000
0000
2002
0000
0000
0000
0000
0000
3003
0000
0000
0000
,
1001
0000
0000
1001
0000
0000
1000
0000
0100
0000
0010
0000
0001
0000
0100
0000
,
0110
0000
0000
0101
0000
0000
0001
0100
0000
0010
0000
1000
0000
0001
0000
0000
,
1001
0000
0000
1100
0000
0000
1000
0000
0100
0000
0010
0001
0000
0100
0000
0000
,
0110
0000
0000
1001
0000
0000
1000
0100
0000
0010
0000
0001
0000
1000
0000
0000
,
0002
0010
2003
0010
3002
0000
0103
0000
,
0020
0000
0000
0000
,
0030
2000
0000
3000
,
1000
0000
0000
0001
0000
0000
1000
0000
0001
0000
0000
1000
0001
0000
1000
0000
,
0010
0000
0100
0000
0001
0000
1000
0000
1000
0000
0100
0000
0000
0010
0000
0000
,
0100
0000
0010
0000
0000
0001
0000
0000
1000
0000
0000
0010
0000
0000
1000
0000
,
0010
0000
0001
0000
1000
0000
0100
0000
0001
0000
0000
1000
0000
0000
0100
0000
,
1100
0011
0101
1010
,
2002
3003
0000
0000
0000
0000
0000
0000
0000
0000
0000
0000
0000
0000
0000
0000
0000
0000
0000
0000
0000
0000
0000
0000
0000
0000
0000
0000
0000
0000
0000
0000
0000
0000
0000
0000
0000
0000
0000
0000
0000
0000
0000
0000
0000
0000
0000
0000
0000
0000
0000
0000
0000
0000
0000
0000
0000
0000
0000
0000
0000
0000
0000
0000
0000
0000
0000
0000
0000
0000
0000
0000
0000
0000
0000
0000
0000
0000
0000
0000
0000
0000
0000
0000
0000
0000
0000
0000
0000
0000
0000
0000
0000
0000
0000
0000
0001
0000
0000
0000
0000
0000
0000
0000
0000
0000
0000
0000
0000
0000
0000
0000
0000
0000
0000
0000
0000
0000
0000
0000
0000
0000
0000
0000
0000
0000
0000
0000
0000
0000
0000
0000
1000
0000
0000
0000
0000
0000
0000
0000
0000
0000
0000
0000
0010
0000
0000
0000
0000
0000
0000
0000
0000
0000
0000
0000
0000
0000
0000
0000
0000
0000
0000
0000
0000
0000
0000
0000
1000
0000
0000
0000
0000
0000
0000
0000
0000
0000
0000
0000
0000
0000
0000
0000
0000
0000
0000
0000
0000
0000
0000
0000
,
0001
0000
0000
0000
0001
0000
0000
0000
0011
0000
0000
1100
0000
0000
1010
0000
,
0000
0101
0000
0000
1002
0000
0000
0000
0000
0000
2003
0000
0000
0000
0000
0000
,
3100
0000
0000
0100
0010
0000
0000
0000
0001
0000
0100
0000
1000
0000
0100
0000
,
0001
0000
0000
0001
0010
0000
0100
0000
1100
0000
0000
0000
1001
0000
0000
0000
,
0101
0000
0000
0001
1000
0000
0010
0000
0001
0000
0010
0000
1000
0000
0100
0000
,
1100
1010
0101
0011
,
2001
0000
0000
0000
3100
0010
0001
1002
,
0000
0000
0100
0000
1000
1003
0000
2002
,
0000
0000
3003
0000
1000
0100
0010
0220
,
0000
0000
0330
0000
,
1000
0000
0100
0000
0010
0000
0001
0000
0100
0000
0000
0010
0000
0000
0100
0000
,
0001
0000
0010
0000
1000
0000
0010
0000
0001
0000
0000
0100
0000
0000
0010
0000
,
1000
0000
0001
0000
0010
0000
0001
0000
0100
0000
0000
0010
0000
0000
1000
0000
,
0010
0001
0010
1000
0100
0000
1001
0000
,
0001
0000
0100
0000
0010
0000
1000
0000
0001
0000
0000
0010
0000
0000
0001
0000
,
0100
0000
1000
0000
0100
0000
0001
0000
0010
0000
0000
0100
0000
0000
1000
0000
,
0010
0000
0100
0000
0001
0000
0010
0000
0001
0000
0000
0100
0000
0000
0010
0000
,
2000
0010
3002
0010
2003
0000
3001
0000
,
1000
0000
0000
0000
0000
0000
0000
0000
0010
0000
0000
0000
0000
0000
0000
0000
0100
0000
0000
0000
0000
0000
0000
0000
0001
0000
0000
0000
0000
0000
0000
0000
0000
0000
0000
0000
0000
0001
0000
0000
1000
0000
0000
0000
0000
0000
0000
0000
0200
0000
0000
0000
0000
0000
0000
0000
0000
0000
0000
0000
0000
0000
0000
0000
,
0310
0000
0000
0000
0000
0000
0000
0000
0100
0000
0000
0000
0000
0000
0000
0000
1000
0000
0000
0000
0000
0000
0000
0000
0001
0000
0000
0000
0000
0000
0000
0000
0000
0000
0000
0000
0000
0001
0000
0000
0100
0000
0000
0000
0000
0000
0000
0000
0010
0000
0000
0000
0000
0000
0000
0000
1000
0000
0000
0000
0000
0000
0000
0000
,
0001
0000
0000
0000
0000
0000
0000
0000
0010
0000
0000
0000
0000
0000
0000
0000
0100
0000
0000
0000
0000
0000
0000
0000
1000
0000
0000
0000
0000
0000
0000
0000
0000
0000
0000
0000
0000
1000
0000
0000
0010
0000
0000
0000
0000
0000
0000
0000
0100
0000
0000
0000
0000
0000
0000
0000
0000
0000
0000
0000
0000
0000
0000
0000
,
0010
0100
0001
1000
1002
0000
1003
0100
,
0001
0000
0000
0000
0000
0000
0000
0000
0100
0000
0000
0000
0000
0000
0000
0000
1000
0000
0000
0000
0000
0000
0000
0000
0010
0000
0000
0000
0000
0000
0000
0000
0000
0000
0000
0000
0000
0010
0000
0000
0100
0000
0000
0000
0000
0000
0000
0000
0001
0000
0000
0000
0000
0000
0000
0000
0000
0000
0000
0000
0000
0000
0000
0000
,
0001
0000
0000
0000
0000
0000
0000
0000
0100
0000
0000
0000
0000
0000
0000
0000
0010
0000
0000
0000
0000
0000
0000
0000
1000
0000
0000
0000
0000
0000
0000
0000
0000
0000
0000
0000
0000
1000
0000
0000
0100
0000
0000
0000
0000
0000
0000
0000
0010
0000
0000
0000
0000
0000
0000
0000
0001
0000
0000
0000
0000
0000
0000
0000
,
0100
0000
0000
0000
0000
0000
0000
0000
1000
0000
0000
0000
0000
0000
0000
0000
0100
0000
0000
0000
0000
0000
0000
0000
0010
0000
0000
0000
0000
0000
0000
0000
0000
0000
0000
0000
0000
0010
0000
0000
1000
0000
0000
0000
0000
0000
0000
0000
0001
0000
0000
0000
0000
0000
0000
0000
0000
0000
0000
0000
0000
0000
0000
0000
,
2000
0010
3002
0010
2003
0000
3001
0000
,
2001
0000
0000
0000
,
3200
0000
0000
0000
,
0320
0000
0000
0000
,
0032
0000
2003
0000
,
3002
0000
0000
0000
,
0203
0000
0000
0000
,
0320
0000
0000
0000
,
2030
0000
0000
0000
,
3000
0000
0000
0000
;

//---------------dance-single - ----------------
#NOTES:
     dance-single:
     :
     Medium:
     5:
     0.281681,0.375308,0.112032,0.276346,0.056016,264.000000,249.000000,15.000000,37.000000,0.000000,0.000000,0.281681,0.375308,0.112032,0.276346,0.056016,264.000000,249.000000,15.000000,37.000000,0.000000,0.000000:
0000
0000
0000
0000
,
0000
0000
0000
0000
,
0000
0000
0000
0000
,
0000
0000
0000
0000
,
0000
0000
0000
0000
,
1000
0010
1000
1000
,
0001
0010
0100
1000
,
0001
1000
0001
0001
,
0100
0010
0100
0010
,
1000
0000
0001
0000
1000
0001
0010
0000
,
0001
0000
1000
0010
0000
0100
0001
0000
,
1000
0000
0100
0000
0010
0100
1000
0000
,
0001
0100
2002
3003
,
0001
0000
0010
0000
0001
0100
0010
0000
,
1000
0000
0001
0010
0000
0001
1000
0000
,
0010
0000
0100
0000
0001
1000
0100
0000
,
0011
1100
0102
1003
,
0001
0000
1000
0100
0010
0100
1000
0000
,
0001
0000
0100
0010
0100
0001
1000
0000
,
0001
0000
0000
1000
0000
0000
0002
0000
0000
0000
0000
0000
0003
0000
0000
0000
,
1000
0000
0100
0000
0010
0001
0100
0000
,
0010
0000
1000
0010
0100
0010
1000
0000
,
0001
0000
0010
0100
1000
0100
0010
0000
,
0001
0000
0010
0001
0100
0010
1000
0000
,
1010
0101
2100
3001
,
2000
0000
0000
0000
,
3000
0002
0000
0003
,
1000
0000
0000
1000
0000
0000
0000
0000
0001
0000
0000
0001
0000
0000
1000
0000
,
0000
0000
0000
0000
0010
0000
0000
0000
0000
0000
0100
0000
0000
0100
0000
0000
,
0000
0000
0001
0000
0000
0001
0000
0000
1000
0000
0000
1000
0000
0000
0000
0000
,
0001
0000
1000
0000
0100
0000
0000
0000
0010
0000
0000
0010
0000
0000
0000
0000
,
0002
0023
0230
2300
,
0002
3003
0000
0000
0000
0000
0000
0000
0000
0000
0000
0000
0000
0000
0000
0000
0000
0000
0000
0000
0000
0000
0000
0000
0000
0000
0000
0000
0000
0000
0000
0000
0000
0000
0000
0000
0000
0000
0000
0000
0000
0000
0000
0000
0000
0000
0000
0000
0000
0000
0000
0000
0000
0000
0000
0000
0000
0000
0000
0000
0000
0000
0000
0000
0000
0000
0000
0000
0000
0000
0000
0000
0000
0000
0000
0000
0000
0000
0000
0000
0000
0000
0000
0000
0000
0000
0000
0000
0000
0000
0000
0000
0000
0000
0000
0000
0001
0000
0000
0000
0000
0000
0000
0000
0000
0000
0000
0000
0000
0000
0000
0000
0000
0000
0000
0000
0000
0000
0000
0000
0000
0000
0000
0000
0000
0000
0000
0000
0000
0000
0000
0000
0000
0000
0000
0000
0000
0000
0000
0000
0000
0000
0000
0000
1000
0000
0000
0000
0000
0000
0000
0000
0000
0000
0000
0000
0000
0000
0000
0000
0000
0000
0000
0000
0000
0000
0000
0000
0000
0000
0000
0000
0000
0000
0000
0000
0000
0000
0000
0000
0000
0000
0000
0000
0000
0000
0000
0000
0000
0000
0000
0000
,
1001
0000
0000
0000
0110
0000
0000
0000
0001
0000
0000
0001
0000
0000
1000
0000
,
0000
1000
0000
0000
0002
0000
0000
0000
0000
0000
0023
0000
0000
0000
0000
0000
,
0130
0000
1000
0000
0010
0100
0001
0100
,
0010
0010
2000
3200
,
0310
0000
0001
0100
0010
0100
0001
0000
,
2000
3020
0230
0302
,
2003
0000
0000
0000
3100
0010
0100
0020
,
0000
0000
0031
0000
1000
0001
0000
2002
,
0000
0000
3003
0000
0001
0100
0010
2000
,
0000
0000
3000
0000
,
1000
0000
0000
0000
0010
0000
0000
0000
0100
0000
0000
0010
0000
0000
0100
0000
,
0001
0000
0000
0000
0010
0000
0000
0000
0100
0000
0000
0010
0000
0000
0100
0000
,
1000
0000
0000
0000
0001
0000
0000
0000
1000
0000
0000
0010
0000
0000
0100
0000
,
0001
0000
1000
0000
0010
1000
0100
0000
,
0010
0000
0000
0000
0001
0000
0000
0000
0100
0000
0000
0010
0000
0000
0100
0000
,
0001
0000
0000
0000
1000
0000
0000
0000
0100
0000
0000
0010
0000
0000
0100
0000
,
1000
0000
0000
0000
0010
0000
0000
0000
0100
0000
0000
0001
0000
0000
1000
0000
,
0100
0000
0010
0001
2000
0000
3001
0000
,
1000
0000
0010
0000
0100
0010
1000
0000
,
0001
0000
0010
0000
0100
0010
0001
0000
,
0100
0000
0010
0000
0100
0001
1000
0000
,
0100
0010
0012
1003
,
0001
0000
0100
0000
0010
1000
0100
0000
,
1000
0000
0010
0000
0100
0001
0010
0000
,
0100
0000
1000
0000
0010
0100
0001
0000
,
1010
0101
2100
3001
,
2001
0000
0000
0000
,
3200
0000
0000
0000
,
0320
0000
0000
0000
,
0032
0000
2003
0000
,
3002
0000
0000
0000
,
0203
0000
0000
0000
,
0320
0000
0000
0000
,
2030
0000
0000
0000
,
3000
0000
0000
0000
;

//---------------dance-single - ----------------
#NOTES:
     dance-single:
     :
     Easy:
     3:
     0.187787,0.275226,0.126970,0.321159,0.000000,176.000000,159.000000,17.000000,43.000000,0.000000,0.000000,0.187787,0.275226,0.126970,0.321159,0.000000,176.000000,159.000000,17.000000,43.000000,0.000000,0.000000:
0000
0000
0000
0000
,
0000
0000
0000
0000
,
0000
0000
0000
0000
,
0000
0000
0000
0000
,
0000
0000
0000
0000
,
1000
0000
0001
0000
,
2000
0000
3000
0000
,
0001
0000
1000
0000
,
0001
0000
1000
0000
,
0100
0100
0010
0000
,
0001
0001
1000
0000
,
0010
0010
0100
0000
,
0001
1000
2002
3003
,
0001
0001
0010
0000
,
0100
0100
1000
0000
,
0001
0001
0100
0000
,
1001
1001
2002
3003
,
0001
0000
1000
0100
,
0010
0000
0001
0100
,
0010
0000
0000
2002
0000
0000
3003
0000
,
1000
0000
0100
1001
,
0001
0000
0100
0001
,
0010
0000
0100
1000
,
0010
0000
0100
0010
,
1001
1001
2002
3003
,
2000
0000
0000
0000
,
3000
0002
0000
0003
,
1000
0000
0000
0000
0001
0000
0000
1000
,
0000
0000
1000
0000
0000
0010
0000
0000
,
0000
0100
0000
0000
0100
0000
0000
0000
,
0001
1000
0001
0000
,
0002
0023
0230
2300
,
3001
0000
0000
0000
,
1001
0000
1001
0000
0001
0000
0000
1000
,
0000
0000
0002
0000
0000
2003
0000
0000
,
3100
0000
1000
0100
,
0010
0001
2000
3002
,
0103
0010
1000
0000
,
0002
0203
0320
2030
,
0002
0000
0000
0000
0000
3003
0000
0220
,
0000
0000
0000
0000
0000
0330
0000
2002
,
0000
0000
0000
0000
3003
0000
0000
0022
,
0000
0000
0033
0000
,
0001
0010
0001
0010
,
0100
1000
0100
1000
,
0010
1000
0010
1000
,
0001
0100
0020
0030
,
1000
0100
1000
0100
,
0010
0001
0010
0001
,
0100
0010
0100
0010
,
1000
0100
0010
0001
,
1000
0000
1000
0010
,
0100
0000
0010
0100
,
0001
0000
0010
0001
,
0100
0000
0020
1030
,
0001
0000
0010
0001
,
0100
0000
0010
1000
,
0100
0000
0010
0100
,
1001
1001
2002
3003
,
0002
0000
0000
0000
,
0203
0000
0000
0000
,
0320
0000
0000
0000
,
2030
0000
3002
0000
,
2003
0000
0000
0000
,
3200
0000
0000
0000
,
0320
0000
0000
0000
,
0032
0000
0000
0000
,
0003
0000
0000
0000
;

//---------------dance-single - ----------------
#NOTES:
     dance-single:
     :
     Beginner:
     1:
     0.122702,0.173837,0.000000,0.112032,0.000000,115.000000,115.000000,0.000000,15.000000,0.000000,0.000000,0.122702,0.173837,0.000000,0.112032,0.000000,115.000000,115.000000,0.000000,15.000000,0.000000,0.000000:
// measure 0
0000
0000
0000
0000
,  // measure 1
0000
0000
0000
0000
,  // measure 2
0000
0000
0000
0000
,  // measure 3
0000
0000
0000
0000
,  // measure 4
0000
0000
0000
0000
,  // measure 5
1000
0000
1000
0000
,  // measure 6
0001
0000
0000
0000
,  // measure 7
1000
0000
1000
0000
,  // measure 8
1000
0000
1000
0000
,  // measure 9
0001
0000
0000
0000
,  // measure 10
0010
0000
0000
0000
,  // measure 11
0001
0000
0000
0000
,  // measure 12
0100
0000
0010
0000
,  // measure 13
1000
0000
0000
0000
,  // measure 14
0100
0000
0000
0000
,  // measure 15
0010
0000
0000
0000
,  // measure 16
0001
0001
0001
0000
,  // measure 17
1000
0000
0010
0000
,  // measure 18
0100
0000
0001
0000
,  // measure 19
2000
0000
0000
3000
0000
0000
0000
0000
,  // measure 20
0001
0000
0000
0000
,  // measure 21
1000
0000
0100
0000
,  // measure 22
0010
0000
0001
0000
,  // measure 23
1000
0000
0001
0000
,  // measure 24
0100
0100
0100
0000
,  // measure 25
0100
0000
0000
0000
,  // measure 26
0000
0000
0000
0000
,  // measure 27
0001
0000
0000
0000
0001
0000
0000
1000
,  // measure 28
0000
0000
0000
0000
0000
1000
0000
0000
,  // measure 29
0000
0000
0100
0000
,  // measure 30
0010
0000
0001
0000
,  // measure 31
0001
1000
0001
1000
,  // measure 32
0001
0000
0000
0000
,  // measure 33
1000
0000
1000
0000
1000
0000
0000
0001
,  // measure 34
0000
0000
2000
0000
0000
3000
0000
0000
,  // measure 35
0001
0000
0100
0000
,  // measure 36
0010
0010
0010
0000
,  // measure 37
1000
0000
0100
0000
,  // measure 38
1000
0001
1000
0001
,  // measure 39
2000
0000
0000
0000
0000
3000
0000
0020
,  // measure 40
0000
0000
0000
0000
0000
0030
0000
0200
,  // measure 41
0000
0000
0000
0000
0000
0300
0000
0002
,  // measure 42
0000
0000
0003
0000
,  // measure 43
1000
1000
1000
0000
,  // measure 44
0100
0100
0100
0000
,  // measure 45
0010
0010
0010
0000
,  // measure 46
0001
0001
0001
0000
,  // measure 47
0100
0100
0100
0000
,  // measure 48
0010
0010
0010
0000
,  // measure 49
1000
1000
1000
0000
,  // measure 50
0001
0001
0001
0000
,  // measure 51
1000
0000
0100
0000
,  // measure 52
1000
0000
0100
0000
,  // measure 53
0010
0000
0001
0000
,  // measure 54
0010
0000
0002
0003
,  // measure 55
1000
0000
0010
0000
,  // measure 56
1000
0000
0010
0000
,  // measure 57
0100
0000
0001
0000
,  // measure 58
1000
1000
1000
0000
,  // measure 59
0002
0000
0003
0000
,  // measure 60
2000
0000
3000
0000
,  // measure 61
0002
0000
0003
0000
,  // measure 62
2000
0000
3000
0000
,  // measure 63
0200
0000
0300
0000
,  // measure 64
0020
0000
0030
0000
,  // measure 65
0200
0000
0300
0000
,  // measure 66
0020
0000
0030
0000
;
