#TITLE:Hey Ya;
#SUBTITLE:;
#ARTIST:NRG;
#TITLETRANSLIT:;
#SUBTITLETRANSLIT:;
#ARTISTTRANSLIT:;
#GENRE:;
#CREDIT:;
#BANNER:[ROUND F] - Hey Ya-bn.png;
#BACKGROUND:[ROUND F] - Hey Ya-bg.png;
#LYRICSPATH:;
#CDTITLE:cdtitle.png;
#MUSIC:[ROUND F] - Hey Ya.ogg;
#OFFSET:0.000000;
#SAMPLESTART:61.200001;
#SAMPLELENGTH:12.000000;
#SELECTABLE:YES;
#BPMS:0.000000=155.059998
,22.000000=77.550003
,23.500000=155.199997
,56.000000=155.000000
,60.000000=155.059998
,104.000000=155.000000
,120.000000=154.800003
,124.000000=154.940002
;
#STOPS:23.500000=0.300000
;
#BGCHANGES:;
#KEYSOUNDS:;
#ATTACKS:;

//---------------dance-single - ----------------
#NOTES:
     dance-single:
     :
     Hard:
     9:
     0.584894,0.596905,0.193363,0.386727,0.193363,487.000000,464.000000,23.000000,46.000000,0.000000,0.000000,0.584894,0.596905,0.193363,0.386727,0.193363,487.000000,464.000000,23.000000,46.000000,0.000000,0.000000:
// measure 0
0000
0000
0000
0000
,  // measure 1
0000
0000
0000
0000
,  // measure 2
0000
0000
0000
0000
,  // measure 3
0000
0000
0000
0000
0000
0000
0000
0000
0000
0000
0000
0000
0000
0000
0000
0000
0000
0000
0000
0000
0000
0000
0000
0000
0000
0000
0000
0000
0000
0000
0000
0000
0000
0000
0000
0000
0000
0000
0000
0000
0000
0000
0000
0000
0000
0000
0000
0000
0000
0000
0000
0000
0000
0000
0000
0000
0000
0000
0000
0000
0000
0000
0000
0000
0000
0000
0000
0000
0000
0000
0000
0000
0000
0000
0000
0000
0000
0000
0000
0000
0000
0000
0000
0000
0000
0000
0000
0000
0000
0000
0000
0000
0000
0000
0000
0000
0000
0000
0000
0000
0000
0000
0000
0000
0000
0000
0000
0000
0000
0000
0000
0000
0000
1000
0000
0000
0000
0000
0000
0000
0000
0000
0000
0000
0000
0000
0000
0000
0000
0000
0000
0000
0000
0000
0000
0000
0000
0010
0000
0000
0000
0000
0000
0000
0000
0000
0000
0000
0000
0000
0000
0000
0000
0000
0000
0000
0000
0000
0000
0000
0000
1000
0000
0000
0000
0000
0000
0000
0000
0000
0000
0000
0000
0000
0000
0000
0000
0000
0000
0000
0000
0000
0000
0000
0000
0010
0000
0000
0000
0000
0000
0000
,  // measure 4
0000
0000
0000
0000
0000
0000
0000
0000
0000
0000
0000
0000
0000
0000
0000
0000
0000
0100
0000
0000
0000
0000
0000
0000
0000
0000
0000
0000
0000
0000
0000
0000
0000
0000
0000
0000
0000
0000
0000
0000
0000
0001
0000
0000
0000
0000
0000
0000
0000
0000
0000
0000
0000
0000
0000
0000
0000
0000
0000
0000
0000
0000
0000
0000
0000
0100
0000
0000
0000
0000
0000
0000
0000
0000
0000
0000
0000
0000
0000
0000
0000
0000
0000
0000
0000
0000
0000
0000
0000
0001
0000
0000
0000
0000
0000
0000
0000
0000
0000
0000
0000
0000
0000
0000
0000
0000
0000
0000
0000
0000
0000
0000
0000
1000
0000
0000
0000
0000
0000
0000
0000
0000
0000
0000
0000
0000
0000
0000
0000
0000
0000
0000
0000
0000
0000
0000
0000
0100
0000
0000
0000
0000
0000
0000
0000
0000
0000
0000
0000
0000
0000
0000
0000
0000
0000
0000
0000
0000
0000
0000
0000
1000
0000
0000
0000
0000
0000
0000
0000
0000
0000
0000
0000
0000
0000
0000
0000
0000
0000
0000
0000
0000
0000
0000
0000
0100
0000
0000
0000
0000
0000
0000
,  // measure 5
0000
0000
0000
0000
0000
0000
0000
0000
0000
0000
0000
0000
0000
0000
0000
0000
0000
0010
0000
0000
0000
0000
0000
0000
0000
0000
0000
0000
0000
0000
0000
0000
0000
0000
0000
0000
0000
0000
0000
0000
0000
0010
0000
0000
0000
0000
0000
0000
0000
0000
0000
0000
0000
0000
0000
0000
0000
0000
0000
0000
0000
0000
0000
0000
0000
0001
0000
0000
0000
0000
0000
0000
0000
0000
0000
0000
0000
0000
0000
0000
0000
0000
0000
0000
0000
0000
0000
0000
0000
0002
0000
0000
0000
0000
0000
0000
0000
0000
0000
0000
0000
0000
0000
0000
0000
0000
0000
0000
0000
0000
0000
0000
0000
0000
0000
0000
0000
0000
0000
0000
0000
0000
0000
0000
0000
0000
0000
0000
0000
0000
0000
0000
0000
0000
0000
0000
0000
0000
0000
0000
0000
0000
0000
0000
0000
0000
0000
0000
0000
0000
0000
0000
0000
0000
0000
0000
0000
0000
0000
0000
0000
0000
0000
0000
0000
0000
0000
0000
0003
0000
0000
0000
0000
0000
0000
0000
0000
0000
0000
0000
0000
0000
0000
0000
0000
0000
0000
0000
0000
0000
0000
0000
,  // measure 6
0001
0100
0001
1000
0010
0001
0010
0100
,  // measure 7
0001
0000
1000
0100
0000
1000
0001
0000
1000
0100
0000
1000
0001
0000
0010
0000
,  // measure 8
1000
0010
0100
1000
0001
0100
1000
0100
,  // measure 9
0001
0000
1000
0010
0000
1000
0001
0000
1000
0010
0000
1000
0001
0000
1000
0100
,  // measure 10
1000
0010
1000
0100
0001
0100
0010
0001
,  // measure 11
1000
0000
0001
0100
0000
0001
1000
0000
0001
0100
0000
0001
1000
0000
0010
0000
,  // measure 12
0001
0010
0100
0001
0010
0100
1000
1000
,  // measure 13
0100
0000
0000
0100
0000
0000
0010
0000
0000
0010
0000
0000
0001
0000
1000
0000
,  // measure 14
2002
0000
0000
3003
,  // measure 15
0001
0002
0000
1003
1000
0010
1000
0001
,  // measure 16
0010
0020
0000
0130
0100
1000
0100
0010
,  // measure 17
0001
0100
1000
0001
0010
1000
0001
0100
,  // measure 18
0001
1000
0100
0001
0100
1000
0010
1000
,  // measure 19
0001
0002
0000
0013
0100
0200
0000
1300
,  // measure 20
0010
0100
1000
0100
0001
1000
0001
0100
,  // measure 21
0010
0100
0001
1000
0100
0010
0100
0010
,  // measure 22
0001
1000
0100
0010
0000
0001
1001
1000
,  // measure 23
0010
1000
0000
0001
0100
0001
0010
1000
,  // measure 24
0010
0001
0010
0100
1000
0010
0001
0010
,  // measure 25
0100
0001
1000
0100
0010
0001
1000
0010
,  // measure 26
1000
0100
1000
0010
0200
0000
0301
0010
,  // measure 27
0002
0000
1003
0100
2000
0000
3001
0001
,  // measure 28
0100
1000
0100
0001
1000
0000
0100
0010
,  // measure 29
0001
0010
0100
1000
0001
0100
0010
1000
,  // measure 30
2002
0000
0000
3003
,  // measure 31
0010
0100
0010
1000
0001
0000
0100
0001
,  // measure 32
0100
0010
1000
0100
0010
0001
1000
0000
,  // measure 33
0001
0100
0010
0100
0001
0000
1000
0010
,  // measure 34
0001
0010
0100
0001
0100
0010
1000
0000
,  // measure 35
0100
0010
0100
1000
0010
0001
0010
0000
,  // measure 36
0100
0010
0100
0001
0010
0100
1000
0000
,  // measure 37
0001
0100
1000
0100
0001
0100
0010
1000
,  // measure 38
0100
0010
0100
0010
0100
0000
0110
0000
,  // measure 39
2200
3300
2200
3300
2200
3300
0100
1000
,  // measure 40
0001
0100
1000
0100
0001
1000
0100
0000
,  // measure 41
0022
0033
0022
0033
0022
0033
0010
0001
,  // measure 42
0100
1000
0100
0001
1000
0100
0010
0100
,  // measure 43
1000
0010
1000
0001
0010
0100
0010
0000
,  // measure 44
0001
0100
0001
1000
0100
0010
0100
0000
,  // measure 45
1000
0010
0100
0001
1000
0001
0010
0100
,  // measure 46
0010
1001
0010
1001
,  // measure 47
0202
0303
0202
0303
0202
0303
0100
0001
,  // measure 48
1000
0100
0001
0100
1000
0010
0100
0000
,  // measure 49
0002
0000
1003
0100
1000
0100
0010
0001
,  // measure 50
0000
0010
0001
0010
0100
1000
0010
0000
,  // measure 51
2020
3030
2020
3030
2020
3030
0010
0100
,  // measure 52
0000
0001
1000
0001
0100
0000
0010
1000
,  // measure 53
0010
0000
1000
0100
1000
0010
0100
0001
,  // measure 54
0000
0000
1000
0000
0001
0000
1000
0000
0100
0000
0000
0010
0000
0000
0001
0000
,  // measure 55
2100
0000
0000
0000
3002
0000
0103
0010
,  // measure 56
0200
0000
0000
0000
0320
0000
1030
0001
,  // measure 57
2000
0000
0000
0000
3200
0000
0310
0100
,  // measure 58
0020
0000
0000
0000
0032
0000
1003
0010
,  // measure 59
1000
0000
0100
0010
0001
0000
1000
0010
,  // measure 60
0100
0000
0010
1000
0001
0000
0010
0100
,  // measure 61
1000
0010
0001
0010
0100
0001
0100
0010
,  // measure 62
1000
0100
0010
0001
0100
0020
0000
0000
,  // measure 63
1030
0010
0001
0010
0100
1000
0100
0001
,  // measure 64
1000
0000
0100
0010
0000
0010
0001
0000
0001
1000
0000
1000
0010
0000
0100
0000
,  // measure 65
0001
0010
1000
0010
0100
1000
0100
0010
,  // measure 66
0001
0000
1000
0010
0000
0010
0100
0000
0100
0001
0000
0001
0010
0000
0100
0000
,  // measure 67
1000
0001
0100
0010
0001
0010
0100
0001
,  // measure 68
0010
0000
0001
0100
0000
0100
0010
0000
0010
1000
0000
1000
0001
0000
0010
0000
,  // measure 69
0100
1000
0010
0100
1000
0100
0010
1000
,  // measure 70
1100
0000
0000
1100
0000
0000
0011
0000
0000
0011
0000
0000
0001
0000
0100
0000
,  // measure 71
0010
0000
0000
0000
;

//---------------dance-single - ----------------
#NOTES:
     dance-single:
     :
     Medium:
     7:
     0.469597,0.507369,0.184956,0.109292,0.058850,391.000000,369.000000,22.000000,13.000000,0.000000,0.000000,0.469597,0.507369,0.184956,0.109292,0.058850,391.000000,369.000000,22.000000,13.000000,0.000000,0.000000:
// measure 0
0000
0000
0000
0000
,  // measure 1
0000
0000
0000
0000
,  // measure 2
0000
0000
0000
0000
,  // measure 3
0000
0000
0000
0000
0000
0000
0000
0000
0000
0000
0000
0000
0000
0000
0000
0000
0000
0000
0000
0000
0000
0000
0000
0000
0000
0000
0000
0000
0000
0000
0000
0000
0000
0000
0000
0000
0000
0000
0000
0000
0000
0000
0000
0000
0000
0000
0000
0000
0000
0000
0000
0000
0000
0000
0000
0000
0000
0000
0000
0000
0000
0000
0000
0000
0000
0000
0000
0000
0000
0000
0000
0000
0000
0000
0000
0000
0000
0000
0000
0000
0000
0000
0000
0000
0000
0000
0000
0000
0000
0000
0000
0000
0000
0000
0000
0000
0000
0000
0000
0000
0000
0000
0000
0000
0000
0000
0000
0000
0000
0000
0000
0000
0000
1000
0000
0000
0000
0000
0000
0000
0000
0000
0000
0000
0000
0000
0000
0000
0000
0000
0000
0000
0000
0000
0000
0000
0000
0000
0000
0000
0000
0000
0000
0000
0000
0000
0000
0000
0000
0000
0000
0000
0000
0000
0000
0000
0000
0000
0000
0000
0000
0010
0000
0000
0000
0000
0000
0000
0000
0000
0000
0000
0000
0000
0000
0000
0000
0000
0000
0000
0000
0000
0000
0000
0000
0000
0000
0000
0000
0000
0000
0000
,  // measure 4
0000
0000
0000
0000
0000
0000
0000
0000
0000
0000
0000
0000
0000
0000
0000
0000
0000
1000
0000
0000
0000
0000
0000
0000
0000
0000
0000
0000
0000
0000
0000
0000
0000
0000
0000
0000
0000
0000
0000
0000
0000
0000
0000
0000
0000
0000
0000
0000
0000
0000
0000
0000
0000
0000
0000
0000
0000
0000
0000
0000
0000
0000
0000
0000
0000
0001
0000
0000
0000
0000
0000
0000
0000
0000
0000
0000
0000
0000
0000
0000
0000
0000
0000
0000
0000
0000
0000
0000
0000
0000
0000
0000
0000
0000
0000
0000
0000
0000
0000
0000
0000
0000
0000
0000
0000
0000
0000
0000
0000
0000
0000
0000
0000
1000
0000
0000
0000
0000
0000
0000
0000
0000
0000
0000
0000
0000
0000
0000
0000
0000
0000
0000
0000
0000
0000
0000
0000
0000
0000
0000
0000
0000
0000
0000
0000
0000
0000
0000
0000
0000
0000
0000
0000
0000
0000
0000
0000
0000
0000
0000
0000
0100
0000
0000
0000
0000
0000
0000
0000
0000
0000
0000
0000
0000
0000
0000
0000
0000
0000
0000
0000
0000
0000
0000
0000
0000
0000
0000
0000
0000
0000
0000
,  // measure 5
0000
0000
0000
0000
0000
0000
0000
0000
0000
0000
0000
0000
0000
0000
0000
0000
0000
1000
0000
0000
0000
0000
0000
0000
0000
0000
0000
0000
0000
0000
0000
0000
0000
0000
0000
0000
0000
0000
0000
0000
0000
0010
0000
0000
0000
0000
0000
0000
0000
0000
0000
0000
0000
0000
0000
0000
0000
0000
0000
0000
0000
0000
0000
0000
0000
0100
0000
0000
0000
0000
0000
0000
0000
0000
0000
0000
0000
0000
0000
0000
0000
0000
0000
0000
0000
0000
0000
0000
0000
0000
0000
0002
0000
0000
0000
0000
0000
0000
0000
0000
0000
0000
0000
0000
0000
0000
0000
0000
0000
0000
0000
0000
0000
0000
0000
0000
0000
0000
0000
0000
0000
0000
0000
0000
0000
0000
0000
0000
0000
0000
0000
0000
0000
0000
0000
0000
0000
0000
0000
0000
0000
0000
0000
0000
0000
0000
0000
0000
0000
0000
0000
0000
0000
0000
0000
0000
0000
0000
0000
0000
0000
0000
0000
0000
0000
0000
0000
0000
0003
0000
0000
0000
0000
0000
0000
0000
0000
0000
0000
0000
0000
0000
0000
0000
0000
0000
0000
0000
0000
0000
0000
0000
,  // measure 6
1000
0100
1000
0000
0001
0010
0001
0010
,  // measure 7
0100
1000
0100
0010
0001
0010
0100
1000
,  // measure 8
0001
0100
0001
0000
1000
0010
1000
0010
,  // measure 9
0100
0001
0100
0010
1000
0010
0100
0001
,  // measure 10
1000
0100
1000
0000
0100
1000
0100
1000
,  // measure 11
0001
0100
1000
0100
0001
0010
0100
1000
,  // measure 12
0001
0100
0001
0000
0100
0001
0100
0001
,  // measure 13
0010
0000
0000
0010
0000
0000
0100
0000
0000
0100
0000
0000
1000
0000
0001
0000
,  // measure 14
2000
0000
0000
3000
,  // measure 15
0001
0100
0000
0001
0010
0010
0100
0000
,  // measure 16
1000
0010
0000
1000
0100
0100
0010
0001
,  // measure 17
1000
0010
1000
0000
0001
0100
0001
0000
,  // measure 18
1000
0100
1000
0100
0001
0100
1000
0000
,  // measure 19
0001
0100
0000
0010
1000
0010
0000
1000
,  // measure 20
0001
0000
0100
0000
0001
0010
0100
0000
,  // measure 21
1000
0100
0010
0100
1000
0001
0010
0001
,  // measure 22
0100
0010
1000
0001
0000
1000
1000
0001
,  // measure 23
0001
0000
0000
1000
0100
1000
0000
0010
,  // measure 24
0100
0000
0001
0000
0010
0100
0010
0000
,  // measure 25
0001
0000
0100
0010
0100
0001
1000
0000
,  // measure 26
0001
0010
0100
1000
0001
0000
1000
0010
,  // measure 27
1000
0000
0010
0100
0010
0000
0100
0001
,  // measure 28
0100
0000
0010
0000
1000
0100
1000
0100
,  // measure 29
0010
0000
0001
0000
1000
0010
0100
0001
,  // measure 30
2000
0000
0000
3000
,  // measure 31
0001
0000
0010
0000
0001
0100
0010
0000
,  // measure 32
1000
0000
0100
0000
1000
0010
0100
0010
,  // measure 33
1000
0000
0100
0000
0010
0001
1000
0000
,  // measure 34
0001
0000
0100
0000
0001
0010
0100
0010
,  // measure 35
0001
0000
0100
0000
0010
1000
0010
0000
,  // measure 36
1000
0000
0100
0000
0010
0001
0010
0000
,  // measure 37
0001
0010
0100
1000
0001
1000
0010
0100
,  // measure 38
0001
1000
0001
1000
0001
0000
1001
0000
,  // measure 39
1010
0101
1010
0101
,  // measure 40
0001
0000
0010
0000
0100
1000
0100
0000
,  // measure 41
1100
0011
1100
0011
,  // measure 42
0001
0000
1000
0000
0010
0100
0010
0000
,  // measure 43
1000
0100
0001
0100
,  // measure 44
1000
0010
0001
0010
,  // measure 45
1000
0100
0010
0000
0001
0100
0010
0000
,  // measure 46
1000
1000
0001
0001
,  // measure 47
0011
1100
1010
0101
,  // measure 48
0010
0000
1000
0000
0100
0010
0001
0000
,  // measure 49
0100
0010
0100
0000
0010
1000
0010
0000
,  // measure 50
1000
0100
0010
0100
,  // measure 51
1100
0011
0101
1010
,  // measure 52
1000
0000
0010
0000
0100
0000
0001
1000
,  // measure 53
0001
0000
0010
0100
0000
1000
0000
0100
,  // measure 54
0000
0010
0001
0010
0100
0000
1000
0000
,  // measure 55
0002
0000
0203
0000
,  // measure 56
2300
0000
3020
0000
,  // measure 57
0032
0000
0203
0000
,  // measure 58
0320
0000
2030
0000
,  // measure 59
3001
0000
0010
0100
1000
0000
0010
0100
,  // measure 60
0001
0000
1000
0100
0010
0000
0100
1000
,  // measure 61
1100
0001
0101
1000
,  // measure 62
1010
0110
2002
3003
,  // measure 63
0001
0010
0001
0000
1000
0100
1000
0100
,  // measure 64
0010
0001
0010
0100
1000
0100
0010
0001
,  // measure 65
1000
0010
1000
0000
0001
0100
0001
0100
,  // measure 66
0010
1000
0010
0100
0001
0100
0010
1000
,  // measure 67
0001
0010
0001
0000
0010
0001
0010
0001
,  // measure 68
1000
0010
0001
0010
1000
0100
0010
0001
,  // measure 69
1000
0010
1000
0000
0010
1000
0010
1000
,  // measure 70
0100
0000
0000
0100
0000
0000
0010
0000
0000
0010
0000
0000
0001
0000
0100
0000
,  // measure 71
0010
0000
0000
0000
;

//---------------dance-single - ----------------
#NOTES:
     dance-single:
     :
     Easy:
     4:
     0.266625,0.268607,0.075664,0.075664,0.021018,222.000000,213.000000,9.000000,9.000000,0.000000,0.000000,0.266625,0.268607,0.075664,0.075664,0.021018,222.000000,213.000000,9.000000,9.000000,0.000000,0.000000:
// measure 0
0000
0000
0000
0000
,  // measure 1
0000
0000
0000
0000
,  // measure 2
0000
0000
0000
0000
,  // measure 3
0000
0000
0000
0000
0000
0000
0000
0000
0000
0000
0000
0000
0000
0000
0000
0000
0000
0000
0000
0000
0000
0000
0000
0000
0000
0000
0000
0000
0000
0000
0000
0000
0000
0000
0000
0000
0000
0000
0000
0000
0000
0000
0000
0000
0000
0000
0000
0000
0000
0000
0000
0000
0000
0000
0000
0000
0000
0000
0000
0000
0000
0000
0000
0000
0000
0000
0000
0000
0000
0000
0000
0000
0000
0000
0000
0000
0000
0000
0000
0000
0000
0000
0000
0000
0000
0000
0000
0000
0000
0000
0000
0000
0000
0000
0000
0000
0000
0000
0000
0000
0000
0000
0000
0000
0000
0000
0000
0000
0000
0000
0000
0000
0000
1000
0000
0000
0000
0000
0000
0000
0000
0000
0000
0000
0000
0000
0000
0000
0000
0000
0000
0000
0000
0000
0000
0000
0000
0000
0000
0000
0000
0000
0000
0000
0000
0000
0000
0000
0000
0000
0000
0000
0000
0000
0000
0000
0000
0000
0000
0000
0000
0000
0000
0000
0000
0000
0000
0000
0000
0000
0000
0000
0000
0000
0000
0000
0000
0000
0000
0000
0000
0000
0000
0000
0000
0000
0000
0000
0000
0000
0000
0000
,  // measure 4
0000
0000
0000
0000
0000
0000
0000
0000
0000
0000
0000
0000
0000
0000
0000
0000
0000
1000
0000
0000
0000
0000
0000
0000
0000
0000
0000
0000
0000
0000
0000
0000
0000
0000
0000
0000
0000
0000
0000
0000
0000
0000
0000
0000
0000
0000
0000
0000
0000
0000
0000
0000
0000
0000
0000
0000
0000
0000
0000
0000
0000
0000
0000
0000
0000
0000
0000
0000
0000
0000
0000
0000
0000
0000
0000
0000
0000
0000
0000
0000
0000
0000
0000
0000
0000
0000
0000
0000
0000
0000
0000
0000
0000
0000
0000
0000
0000
0000
0000
0000
0000
0000
0000
0000
0000
0000
0000
0000
0000
0000
0000
0000
0000
0000
0000
0001
0000
0000
0000
0000
0000
0000
0000
0000
0000
0000
0000
0000
0000
0000
0000
0000
0000
0000
0000
0000
0000
0000
0000
0000
0000
0000
0000
0000
0000
0000
0000
0000
0000
0000
0000
0000
0000
0000
0000
0000
0000
0000
0000
0000
0000
0000
0000
0000
0000
0000
0000
0000
0000
0000
0000
0000
0000
0000
0000
0000
0000
0000
0000
0000
0000
0000
0000
0000
0000
0000
0000
0000
0000
0000
0000
0000
,  // measure 5
0000
0000
0000
0000
0000
0000
0000
0000
0000
0000
0000
0000
0000
0000
0000
0000
0000
0000
0000
0001
0000
0000
0000
0000
0000
0000
0000
0000
0000
0000
0000
0000
0000
0000
0000
0000
0000
0000
0000
0000
0000
0000
0000
0000
0000
0000
0000
0000
0000
0000
0000
0000
0000
0000
0000
0000
0000
0000
0000
0000
0000
0000
0000
0000
0000
0002
0000
0000
0000
0000
0000
0000
0000
0000
0000
0000
0000
0000
0000
0000
0000
0000
0000
0000
0000
0000
0000
0000
0000
0000
0000
0000
0000
0000
0000
0000
0000
0000
0000
0000
0000
0000
0000
0000
0000
0000
0000
0000
0000
0000
0000
0000
0000
0000
0000
0000
0000
0000
0000
0000
0000
0000
0000
0000
0000
0000
0000
0000
0000
0000
0000
0000
0000
0000
0000
0000
0000
0000
0000
0000
0000
0000
0000
0000
0000
0000
0000
0000
0000
0000
0000
0000
0000
0000
0000
0000
0000
0000
0000
0000
0000
0000
0000
0000
0000
0000
0000
0000
0003
0000
0000
0000
0000
0000
0000
0000
0000
0000
0000
0000
0000
0000
0000
0000
0000
0000
0000
0000
0000
0000
0000
0000
,  // measure 6
1000
0010
1000
0000
,  // measure 7
0001
0100
0001
0100
,  // measure 8
0001
0010
0001
0000
,  // measure 9
1000
0100
1000
0100
,  // measure 10
0010
0001
0010
0000
,  // measure 11
0100
1000
0100
1000
,  // measure 12
0010
1000
0010
0000
,  // measure 13
1010
0000
0101
0000
,  // measure 14
2002
0000
0000
3003
,  // measure 15
0001
0000
0001
0010
,  // measure 16
0100
0000
0100
1000
,  // measure 17
0010
0001
0100
1000
,  // measure 18
0010
0100
0001
0000
,  // measure 19
0101
0000
1001
0000
,  // measure 20
1000
1000
0100
0000
,  // measure 21
1000
0010
1000
1000
,  // measure 22
0001
0100
0000
0110
,  // measure 23
0010
0000
1000
0000
,  // measure 24
0001
0100
0001
0000
,  // measure 25
1000
0100
0010
0001
,  // measure 26
1000
0010
1000
0001
,  // measure 27
0010
1000
0100
0001
,  // measure 28
1000
1000
0001
0010
,  // measure 29
0100
1000
0100
0010
,  // measure 30
0002
0000
0000
0000
,  // measure 31
1003
0010
1000
0000
,  // measure 32
0010
0001
0010
0000
,  // measure 33
0001
0100
0001
0000
,  // measure 34
0100
1000
0100
0000
,  // measure 35
1000
0010
1000
0010
,  // measure 36
0100
0001
0100
0001
,  // measure 37
1000
0100
0010
0001
,  // measure 38
1000
1000
1000
0001
,  // measure 39
0100
0100
0100
0100
,  // measure 40
0010
1000
0001
0010
,  // measure 41
0100
0100
0100
0100
,  // measure 42
0010
0001
0010
0100
,  // measure 43
1000
0010
1000
0000
,  // measure 44
0010
1000
0010
0000
,  // measure 45
1000
0100
0010
0001
,  // measure 46
1000
1000
0001
0001
,  // measure 47
0010
0010
0010
0010
,  // measure 48
0100
1000
0001
0100
,  // measure 49
0010
1000
0010
0000
,  // measure 50
1000
0001
1000
0001
,  // measure 51
0010
0010
0010
0010
,  // measure 52
0100
1000
0100
1000
,  // measure 53
0001
0100
0001
0000
,  // measure 54
0100
0001
0100
0001
,  // measure 55
2000
0000
0000
0000
,  // measure 56
3200
0000
0000
0000
,  // measure 57
0320
0000
0000
0000
,  // measure 58
0032
0000
0000
0000
,  // measure 59
1003
0000
1000
0000
,  // measure 60
0001
0000
0001
0000
,  // measure 61
1000
0100
1000
0100
,  // measure 62
0010
0001
0020
0000
,  // measure 63
0031
0100
0001
0000
,  // measure 64
1000
0010
1000
0010
,  // measure 65
1000
0100
1000
0000
,  // measure 66
0001
0010
0001
0010
,  // measure 67
0100
1000
0100
0000
,  // measure 68
0010
0001
0010
0001
,  // measure 69
0100
0001
0100
0000
,  // measure 70
0101
0000
1010
0000
,  // measure 71
1001
0000
0000
0000
;
