#TITLE:Hello;
#SUBTITLE:;
#ARTIST:OMFG;
#TITLETRANSLIT:;
#SUBTITLETRANSLIT:;
#ARTISTTRANSLIT:;
#CREDIT:Lisek;
#BANNER:[ROUND F] - Hello.png;
#BACKGROUND:[ROUND F] - Hello-bg.png;
#LYRICSPATH:;
#CDTITLE:cdtitle.png;
#MUSIC:[ROUND F] - Hello.ogg;
#OFFSET:-0.180;
#SAMPLESTART:20.740;
#SAMPLELENGTH:18.160;
#SELECTABLE:YES;
#BPMS:0.000=105.000;
#STOPS:;
#BGCHANGES:;

//---------------dance-single - Lisek----------------
#NOTES:
     dance-single:
     Lisek:
     Beginner:
     1:
     0.059,0.084,0.007,0.037,0.000:
0000
0000
0000
0000
,
1000
0000
0000
0000
,
0000
0000
0000
0000
,
0001
0000
0000
0000
,
0000
0000
0000
0000
,
0100
0000
0000
0000
,
0000
0000
0000
0000
,
0010
0000
0000
0000
,
0000
0000
0000
0000
,
1000
0000
0000
0000
,
0001
0000
0000
0000
,
1000
0000
0000
0000
,
0001
0000
0000
0000
,
0100
0000
0000
0000
,
0010
0000
0000
0000
,
0100
0000
0000
0000
,
0010
0000
0000
0000
,
1000
0000
0000
0000
,
0100
0000
0000
0000
,
0010
0000
0000
0000
,
0001
0000
0000
0000
,
1000
0000
0001
0000
,
1000
0000
0001
0000
,
2000
0000
0000
0000
,
0000
0000
0000
3000
0000
0000
0000
0000
,
0001
0000
0000
0000
,
0100
0000
0000
0000
,
0001
0000
0000
0000
,
0100
0000
0000
0000
,
0010
0000
0000
0000
,
1000
0000
0000
0000
,
0010
0000
0000
0000
,
1000
0000
0000
0000
,
0001
0000
0000
0000
,
1000
0000
0000
0000
,
0001
0000
0000
0000
,
1000
0000
0000
0000
,
0010
0000
0000
0000
,
0100
0000
0000
0000
,
0010
0000
0000
0000
,
0100
0000
0000
0000
,
0002
0000
0000
0000
0000
0000
0000
0003
,
0000
0000
0000
0000
,
2000
0000
0000
0000
0000
0000
0000
3000
,
0000
0000
0000
0000
,
0020
0000
0000
0000
0000
0000
0000
0030
,
0000
0000
0000
0000
,
0200
0000
0000
0000
0000
0000
0000
0300
,
0000
0000
0000
0000
,
0001
0000
0000
0000
,
0010
0000
0000
0000
,
0100
0000
0000
0000
,
1000
0000
0000
0000
,
0001
0000
0000
0000
,
0100
0000
0000
0000
,
0010
0000
0000
0000
,
1000
0000
0000
0000
,
1001
0000
0000
0000
;

//---------------dance-single - Lisek----------------
#NOTES:
     dance-single:
     Lisek:
     Hard:
     9:
     0.554,0.568,0.258,0.177,0.413: // measure 1
0000
0000
0000
0000
,  // measure 2
0000
0001
0000
0010
0000
0100
0000
1000
,  // measure 3
0000
0010
0000
0100
0000
0001
0000
1000
,  // measure 4
0000
0100
0000
0010
0000
0001
0000
0100
,  // measure 5
0000
0010
0000
1000
0000
0100
0000
0010
,  // measure 6
0000
0001
0000
0010
0000
0100
0000
1000
,  // measure 7
0000
0010
0000
0100
0000
0001
0000
1000
,  // measure 8
0000
0100
0000
0010
0000
0001
0000
1000
,  // measure 9
0000
0001
0000
0100
0001
1000
0010
1000
,  // measure 10
1001
0000
0000
0000
0000
0000
1000
0000
1000
0100
0000
0100
0010
0000
0000
0001
0000
0000
0100
0000
0100
0010
0000
0010
,  // measure 11
1000
0000
0000
0000
0000
0000
0001
0000
0001
0010
0000
0000
0100
0000
0000
0100
0000
0010
0001
0000
0000
1000
0000
0000
,  // measure 12
1001
0000
0000
0000
0000
0000
0001
0000
0001
0100
0000
0100
0010
0000
0000
1000
0000
0000
0010
0000
0010
1000
0000
1000
,  // measure 13
0001
0000
0000
0000
0000
0000
1000
0000
1000
0100
0000
0000
0010
0000
0000
0001
0000
1000
0010
0000
0000
0100
0000
0000
,  // measure 14
1001
0000
0000
0000
0000
0000
0001
0000
0001
0100
0000
0100
0010
0000
0000
0100
0000
0000
0010
0000
0010
1000
0000
1000
,  // measure 15
0001
0000
0000
0000
0000
0000
1000
0000
1000
0010
0000
0000
0100
0000
0000
0010
0000
0010
1000
0000
0000
0001
0000
0000
,  // measure 16
1001
0000
0000
0000
0000
0000
1000
0000
1000
0001
0000
0001
0010
0000
0000
0001
0000
0000
0100
0000
0100
0001
0000
0001
,  // measure 17
1000
0000
0000
0000
0000
0000
0001
0000
0001
0010
0000
0000
0100
0000
0000
1000
0000
0001
0100
0000
0001
0100
0010
1000
,  // measure 18
0001
0000
0000
0000
0000
0000
1000
0000
0000
0100
0000
0000
0010
0000
0000
0001
0000
0000
1000
0000
0010
0100
0000
0100
,  // measure 19
0001
0000
0000
0000
0000
0000
0001
0000
0000
0010
0000
0000
0100
0000
0000
1000
0000
0000
0001
0000
0100
0010
0000
0010
,  // measure 20
1000
0000
0000
0000
0000
0000
1000
0000
0000
0010
0000
0000
0100
0000
0000
0001
0000
0000
1000
0000
0100
0010
0000
0010
,  // measure 21
0001
0000
0000
0000
0000
0000
0001
0000
0000
0100
0000
0000
0010
0000
0000
1000
0000
0000
0001
0000
0010
0100
0000
0100
,  // measure 22
1000
0000
0000
0000
0000
0000
0001
0000
0001
0100
0000
0100
0001
0000
0000
0000
0000
0000
1000
0000
1000
0010
0000
0010
,  // measure 23
1000
0000
0000
0000
0000
0000
1000
0000
1000
0100
0000
0100
1000
0000
0000
0000
0000
0000
0001
0000
0001
0010
0000
0010
,  // measure 24
0001
1001
1100
1001
,  // measure 25
0101
0110
1010
1001
0000
0000
0000
0000
,  // measure 26
1010
0000
0000
0010
0000
0000
1000
0000
0001
0100
0000
0010
1000
0000
0000
0001
0000
0000
0010
0000
0100
1000
0000
0001
,  // measure 27
0100
0000
0000
0010
0000
0000
0100
0000
0001
1000
0000
0000
0010
0000
0000
0100
0000
0100
0010
1000
0001
0100
0000
0000
,  // measure 28
1010
0000
0000
1000
0000
0000
0100
0000
1000
0001
0000
0100
0001
0000
0000
1000
0000
0000
0010
0000
0100
0001
0000
1000
,  // measure 29
0100
0000
0000
0010
0000
0000
0001
0000
0100
0010
0000
1000
0001
0000
0000
0100
0000
0000
0010
0000
0000
1000
0000
0000
,  // measure 30
2002
0000
0000
3003
0000
0000
1000
0000
0010
0100
0000
0001
0010
0000
0000
0001
0000
0000
1000
0000
0010
0100
0000
0010
,  // measure 31
1000
0001
0100
0010
1000
0001
1000
0001
,  // measure 32
1001
0000
0000
1001
0000
0000
0001
0000
0100
0001
0000
1000
0001
0000
0000
1000
0000
0010
0100
0000
0010
1000
0000
0001
,  // measure 33
0100
0000
0000
0001
0000
0000
1000
0000
0010
0100
0000
0001
2000
0000
0000
3200
0000
0000
0320
0000
0000
0032
0000
0000
,  // measure 34
1003
0000
0000
0010
0000
0000
1000
0000
0100
0010
0000
0001
0100
0000
0000
0010
0000
0000
0100
0000
0001
1000
0000
0100
,  // measure 35
0010
0000
0000
0001
0000
0000
0100
0000
0001
1000
0000
0000
0001
0000
0000
0100
0000
0000
0010
0000
0000
1000
0000
0000
,  // measure 36
1001
0000
0000
0001
0000
0000
0100
0000
0001
0010
0000
0100
1000
0000
0010
0100
0000
0100
0001
0000
0001
0100
0000
0100
,  // measure 37
0020
0000
0000
0000
0000
0000
1030
0000
0100
0010
0000
0000
0001
0000
0000
1000
0000
0001
0100
0000
0001
1000
0000
0000
,  // measure 38
2002
0000
0000
3003
0000
0000
1000
0000
0001
0100
0000
0010
1000
0000
0000
0100
0000
0010
0001
0000
0100
0001
0000
1000
,  // measure 39
0020
0000
0000
0030
0000
0000
0100
0000
0001
0100
0000
0000
0020
0000
0000
1030
0000
0010
1000
0000
0000
0001
0000
0000
,  // measure 40
1001
0000
0000
1001
0000
0000
1000
0000
0100
0010
0000
0100
1000
0000
0000
0001
0000
0000
0100
0000
0001
0100
0000
0010
,  // measure 41
0100
0000
0000
0000
0000
0000
0000
0000
0000
0000
0000
0000
0000
0000
0000
0000
0000
0000
0000
0000
0000
0000
0000
0000
0001
0000
0000
0000
0000
0000
0000
0000
0000
0000
0000
0000
0000
0000
0000
0000
0000
0000
0000
0000
0000
0000
0000
0000
1000
0000
0000
0000
0000
0000
0000
0000
0000
0000
0000
0000
0000
0000
0000
0000
0001
0000
0000
0000
0000
0000
0000
0000
0010
0000
0000
0000
0000
0000
0000
0000
0000
0000
0000
0000
0000
0000
0000
0000
0000
0000
0000
0000
0000
0000
0000
0000
0002
0000
0000
0000
0000
0000
0000
0000
0000
0000
0000
0000
0000
0000
0000
0000
0000
0000
2003
0000
0000
0000
0000
0000
0000
0000
0000
0000
0000
0000
0000
0000
0000
0000
0000
0000
3020
0000
0000
0000
0000
0000
0000
0000
0000
0000
0000
0000
0000
0000
0000
0000
0000
0000
0230
0000
0000
0000
0000
0000
0000
0000
0000
0000
0000
0000
0000
0000
0000
0000
0000
0000
0301
0000
0000
0000
0000
0000
0000
0000
0000
0000
0000
0000
0000
0000
0000
0000
0000
0000
0000
0000
0000
0000
0000
0000
,  // measure 42
1000
0000
0000
0000
0000
0000
0100
0000
0000
0000
0000
0000
0001
0000
0000
0100
0000
1000
0000
0000
0000
0001
0000
0000
,  // measure 43
0200
0001
0010
1300
,  // measure 44
0001
0000
0000
0000
0000
0000
0100
0000
0000
0000
0000
0000
1000
0000
0000
0100
0000
0001
0000
0000
0000
1000
0000
0000
,  // measure 45
0020
1000
0100
0031
,  // measure 46
1000
0000
0000
0000
0000
0000
0010
0000
0000
0000
0000
0000
0001
0000
0000
0010
0000
1000
0000
0000
0000
0001
0000
0000
,  // measure 47
2000
0001
0010
3100
,  // measure 48
0001
0000
0000
0000
0000
0000
0010
0000
0000
0000
0000
0000
1000
0000
0000
0010
0000
0001
0000
0000
0000
1000
0000
0000
,  // measure 49
0002
2003
3001
0010
0200
1300
0001
1000
,  // measure 50
1010
0000
0000
0000
0000
0000
0110
0000
0000
0000
0000
0000
0101
0000
0000
0100
0000
0001
1000
0000
0000
0010
0000
0000
,  // measure 51
0100
0000
0000
0001
0000
0000
1000
0000
0010
0100
0000
0000
0001
0000
0000
0010
0000
0000
0100
0000
0000
0010
0000
0000
,  // measure 52
0011
0000
0000
0000
0000
0000
0101
0000
0000
0000
0000
0000
1001
0000
0000
0001
0000
1000
0010
0000
0000
0100
0000
0000
,  // measure 53
0001
0000
0000
1000
0000
0000
0100
0000
1000
0010
0000
0000
0100
0000
0000
0001
0000
0100
0010
0000
0000
1000
0000
0000
,  // measure 54
1100
0000
0000
0000
0000
0000
1010
0000
0000
0000
0000
0000
1001
0000
0000
1000
0000
0001
0100
0000
0000
0010
0000
0000
,  // measure 55
0100
0000
0000
0001
0000
0000
1000
0000
0100
0010
0000
0000
0001
0000
0000
0010
0000
0100
1000
0000
0000
0001
0000
0000
,  // measure 56
0101
0000
0000
0000
0000
0000
0110
0000
0000
0000
0000
0000
1010
0000
0000
1000
0000
0001
0100
0000
0000
0010
0000
0000
,  // measure 57
1010
0000
0000
0000
1010
0000
0000
0000
0010
0000
0000
0000
1000
0000
0000
0000
0002
0000
0000
2003
0000
0000
3002
0000
0000
0000
0000
0000
1003
0000
0000
0000
,  // measure 58
1001
0000
0000
0000
;

//---------------dance-single - Lisek----------------
#NOTES:
     dance-single:
     Lisek:
     Medium:
     6:
     0.353,0.378,0.148,0.052,0.000:
0000
0000
0000
0000
,
1000
0000
0001
0000
,
0100
0000
0010
0000
,
1000
0000
0100
0000
,
0010
0000
0001
1000
,
0001
0000
0100
0000
,
0010
0000
1000
0000
,
0001
0000
0010
0000
,
0100
0000
1000
0001
,
1001
0000
1000
0010
0100
0001
0010
0100
,
1000
0000
0001
0100
0001
1000
0100
0010
,
0001
0000
1000
0010
0100
0001
0100
0010
,
1000
0000
0001
0100
0010
1000
0100
0010
,
0001
0000
1000
0100
1000
0001
0010
0001
,
0100
0000
0001
0100
0001
1000
0010
1000
,
0001
0000
1000
0100
0010
0100
1000
0001
,
0100
0000
0001
0010
0100
0010
0001
1000
,
0010
0000
1000
0100
0010
0001
1000
0100
,
1100
0000
0001
0010
0100
1000
0001
0100
,
0101
0000
1000
0001
0100
0010
1000
0001
,
1001
0000
0001
1000
0010
0100
0001
1000
,
1001
0000
1000
1000
1010
0000
0001
0001
,
0011
0000
1000
1000
1010
0000
0001
0001
,
0011
1010
0011
1010
,
2002
0000
0000
3003
0000
0000
0000
0000
,
1001
0000
0001
0100
0010
0100
0001
1000
,
0100
0000
0010
0001
0100
0001
1000
0010
,
1010
0000
1000
0100
0010
0001
0100
0010
,
1000
0000
0001
0010
0100
0010
0001
0100
,
0101
0000
0001
0100
0010
0100
0001
1000
,
0100
0000
1000
0010
0100
0001
0010
0001
,
1000
1000
0010
0100
0001
0100
0010
1000
,
0001
0000
1000
0001
1000
0100
0010
0001
,
1001
0000
1000
0010
1000
0001
0100
0010
,
1000
0000
0001
1000
0001
0100
0010
1000
,
1010
0000
1000
0001
1000
0010
1000
0001
,
0100
0000
0010
1000
0001
0100
0010
0100
,
0101
0000
0001
1000
0010
1000
0001
0010
,
0100
0000
0010
0001
1000
0010
0100
0001
,
1000
1000
0100
0010
0001
1000
0001
0100
,
0001
0000
1000
0010
0200
0000
0000
0300
,
0001
0000
0010
0000
0100
1000
0001
0100
,
0002
1000
0100
1003
,
1000
0000
0010
0000
0100
0001
1000
0100
,
2000
0001
0100
3001
,
0001
0000
0100
0000
0010
1000
0001
0100
,
0002
1000
0100
1003
,
1000
0000
0100
0000
0010
0001
0100
0001
,
2000
0001
0100
3001
,
1000
0000
0010
0000
0100
0001
1000
0000
,
0001
0100
1000
0100
,
0001
0000
1000
0000
0001
1000
0010
0000
,
1000
0100
0001
0100
,
1000
0000
0001
0000
1000
0010
0100
0000
,
0001
0010
1000
0010
,
0001
0000
1000
0000
0010
0100
0001
0000
,
1000
0000
0010
0000
0100
0001
1000
0000
,
1001
0000
0000
0000
;

//---------------dance-single - Lisek----------------
#NOTES:
     dance-single:
     Lisek:
     Easy:
     2:
     0.128,0.189,0.081,0.059,0.000:
0000
0000
0000
0000
,
1000
0000
0000
0000
,
0001
0000
0000
0000
,
0100
0000
0000
0000
,
0010
0000
0000
0000
,
1000
0000
0000
0000
,
0100
0000
0000
0000
,
0010
0000
0000
0000
,
0001
0000
0000
0000
,
1001
0000
1000
0000
,
0001
0000
0100
0000
,
0010
0000
1000
0000
,
0001
0000
0100
0000
,
0001
0000
1000
0000
,
0100
0000
1000
0000
,
0001
0000
0100
0000
,
0010
0000
1000
0000
,
1001
0000
0001
0000
,
1001
0000
1000
0000
,
1001
0000
0001
0000
,
1001
0000
1000
0000
,
1001
0000
1001
0000
,
1001
0000
1001
0000
,
2002
0000
0000
0000
,
0000
0000
0000
3003
0000
0000
0000
0000
,
0001
0000
0010
0000
,
0100
0000
1000
0000
,
0001
0000
0100
0000
,
0010
0000
1000
0000
,
0001
0000
1000
0000
,
0010
0000
0100
0000
,
0001
0000
0010
0000
,
0100
0000
2000
0000
,
3001
0000
0100
0000
,
0010
0000
1000
0000
,
0001
0000
0010
0000
,
0100
0000
1000
0000
,
0100
0000
0010
0000
,
0001
0000
1000
0000
,
0010
0000
0100
0000
,
0001
0000
2000
0000
,
3001
0000
1000
0001
,
2000
0000
0000
3000
,
0010
0000
0100
0010
,
0200
0000
0000
0300
,
0001
0000
1000
0001
,
2000
0000
0000
3000
,
0010
0000
0100
0010
,
0200
0000
0000
0300
,
0001
0000
1000
0000
,
0010
0000
0100
0000
,
0001
0000
0010
0000
,
0100
0000
1000
0000
,
0001
0000
0100
0000
,
0010
0000
1000
0000
,
0001
0000
0010
0000
,
0100
0000
1000
0000
,
1001
0000
0000
0000
;
