#TITLE:Art Through Adversity;
#SUBTITLE:;
#ARTIST:Jake Kaufman;
#TITLETRANSLIT:;
#SUBTITLETRANSLIT:;
#ARTISTTRANSLIT:;
#GENRE:CHIP SENSO;
#CREDIT:Telperion+;
#BANNER:[ROUND F] - Art Through Adversity.png;
#BACKGROUND:[ROUND F] - Art Through Adversity-bg.png;
#JACKET:[ROUND F] - Art Through Adversity-jacket.png;
#LYRICSPATH:;
#CDTITLE:cdtitle.png;
#MUSIC:[ROUND F] - Art Through Adversity.ogg;
#OFFSET:-0.222000;
#SAMPLESTART:23.555000;
#SAMPLELENGTH:10.626659;
#LASTBEATHINT:359.224121;
#SELECTABLE:YES;
#BPMS:0.000000=180.000000
;
#STOPS:
;
#BGCHANGES:;
#KEYSOUNDS:;
#ATTACKS:;

//---------------dance-single - Telperion----------------
#NOTES:
     dance-single:
     Telperion:
     Hard:
     9:
     0.698556,0.672152,0.342126,0.500672,0.154374,586.000000,545.000000,41.000000,60.000000,4.000000,0.000000,0.698556,0.672152,0.342126,0.500672,0.154374,586.000000,545.000000,41.000000,60.000000,4.000000,0.000000:
// measure 0
MMMM
0000
0000
0000
0000
0000
0000
0000
0000
0000
0000
0000
0000
0000
0000
0000
0000
0000
1000
0000
0000
0001
0000
0000
1000
0000
0000
0000
0000
0000
0000
0000
0100
0000
0000
0000
0000
0000
0000
0000
0010
0000
0000
0000
0000
0000
0000
0000
,  // measure 1
0004
0000
0003
0000
,  // measure 2
0100
0010
2000
0000
0001
0000
3100
0000
,  // measure 3
1000
0100
0020
0000
1000
0000
0130
0000
,  // measure 4
0010
0001
2000
0000
0001
0000
3010
0000
,  // measure 5
1000
0010
0100
0001
0010
0000
1000
0010
,  // measure 6
0001
1000
0020
0000
1000
0000
0031
0000
,  // measure 7
0020
2030
3002
0023
,  // measure 8
0130
1000
0002
0000
1000
0000
0013
0000
,  // measure 9
0001
0010
0100
1000
0010
1000
0001
0010
,  // measure 10
0100
0010
0002
0000
1000
0000
0103
0000
,  // measure 11
0001
0000
0000
0000
0000
0000
0000
0000
0000
0000
0000
0000
0000
0000
0000
0000
0000
0100
0000
0000
0000
0000
0000
0000
0000
0000
0000
0000
0000
0000
0000
0000
0000
0000
0010
0000
0000
0000
0000
0000
0000
0000
0000
0000
0000
0000
0000
0000
1000
0000
0000
0000
0000
0000
0000
0000
0000
0000
0000
0000
0000
0000
0000
0000
0000
0000
0000
0000
0000
0000
0000
0000
0000
0000
0000
0000
0000
0000
0000
0000
0000
0000
0000
0000
0000
0000
0000
0000
0000
0000
0000
0000
0000
0000
0000
0000
1000
0000
0000
0000
0000
0000
0000
0000
0000
0000
0000
0000
0000
0000
0000
0000
0000
0100
0000
0000
0000
0000
0000
0000
0000
0000
0000
0000
0000
0000
0000
0000
0000
0000
0010
0000
0000
0000
0000
0000
0000
0000
0000
0000
0000
0000
0000
0000
0001
0000
0000
0000
0000
0000
0000
0000
0000
0000
0000
0000
0000
0000
0000
0000
0000
0000
0000
0000
0000
0000
0000
0000
0000
0000
0000
0000
0000
0000
0000
0000
0000
0000
0000
0000
0000
0000
0000
0000
0000
0000
0000
0000
0000
0000
0000
0000
,  // measure 12
0010
0100
2000
0000
0001
0000
3010
0000
,  // measure 13
1000
0000
0000
0000
0000
0000
0000
0000
0000
0000
0000
0000
0000
0000
0000
0000
0000
0100
0000
0000
0000
0000
0000
0000
0000
0000
0000
0000
0000
0000
0000
0000
0000
0000
1000
0000
0000
0000
0000
0000
0000
0000
0000
0000
0000
0000
0000
0000
0010
0000
0000
0000
0000
0000
0000
0000
0000
0000
0000
0000
0000
0000
0000
0000
0000
0000
0000
0000
0000
0000
0000
0000
0000
0000
0000
0000
0000
0000
0000
0000
0000
0000
0000
0000
0000
0000
0000
0000
0000
0000
0000
0000
0000
0000
0000
0000
0100
0000
0000
0000
0000
0000
0000
0000
0000
0000
0000
0000
0000
0000
0000
0000
0000
0001
0000
0000
0000
0000
0000
0000
0000
0000
0000
0000
0000
0000
0000
0000
0000
0000
0010
0000
0000
0000
0000
0000
0000
0000
0000
0000
0000
0000
0000
0000
0001
0000
0000
0000
0000
0000
0000
0000
0000
0000
0000
0000
0000
0000
0000
0000
0000
0000
0000
0000
0000
0000
0000
0000
0000
0000
0000
0000
0000
0000
0000
0000
0000
0000
0000
0000
0000
0000
0000
0000
0000
0000
0000
0000
0000
0000
0000
0000
,  // measure 14
1000
0001
0020
0000
0001
0000
1030
0000
,  // measure 15
0020
0032
2003
3020
,  // measure 16
0130
0000
0001
0100
0001
0000
0000
0000
1000
0100
1000
0000
0000
0000
0001
0010
,  // measure 17
0001
0000
0000
0000
1000
0010
1000
0000
0000
0000
0001
0000
0100
0000
0010
0000
,  // measure 18
1000
0100
0001
0100
1000
0001
0200
0000
,  // measure 19
0300
0010
0001
0010
1000
0100
0020
0000
,  // measure 20
0030
0100
0001
0100
1000
0001
0100
0010
,  // measure 21
1000
0100
1000
0100
0010
0000
0101
0000
,  // measure 22
0001
0100
1000
0100
0001
1000
0100
0010
,  // measure 23
0001
0000
0100
0000
0001
0000
0100
0000
0020
0000
0000
0000
0030
0000
0000
0100
,  // measure 24
0001
0000
0100
0000
1000
0000
0100
0000
0001
0000
0000
0000
1001
0000
0000
0001
,  // measure 25
1000
0100
0001
0100
0010
0000
1100
0000
,  // measure 26
0002
0000
0013
0001
2000
0000
3010
1000
,  // measure 27
1001
0101
0011
0001
,  // measure 28
2000
0000
3010
1000
0002
0000
0013
0100
,  // measure 29
1000
0000
0100
0000
0010
0000
0001
1000
0001
0000
0000
0000
1100
0000
0000
0000
,  // measure 30
0002
0000
0000
0000
0103
0000
0001
1000
0001
0000
0100
0000
0010
0000
0100
0000
,  // measure 31
1000
0001
0010
1000
0002
0000
2003
0000
,  // measure 32
3200
0000
0001
0000
2300
0000
0000
3001
,  // measure 33
1001
0000
0000
0000
1100
0000
0000
0000
0001
1000
0000
0000
0102
0000
0000
0000
,  // measure 34
1003
0010
0100
0020
1000
0000
0130
0000
,  // measure 35
0001
0010
0100
2000
0001
0000
3100
0000
,  // measure 36
0001
1000
0010
0200
0010
0000
0301
0000
,  // measure 37
1000
0001
1000
0200
0010
0000
1300
0001
,  // measure 38
0100
0000
0010
1000
0010
0000
0011
0000
,  // measure 39
1000
0100
1000
0001
0010
0000
1010
0000
,  // measure 40
0001
0100
1000
0100
0010
1000
0000
0001
,  // measure 41
0010
0100
0001
0100
1000
0000
2100
0000
,  // measure 42
3001
0010
0100
0010
0001
0010
0100
0000
,  // measure 43
1000
0010
0100
0010
1000
0010
0100
0000
,  // measure 44
0001
1000
0001
0010
0001
1000
0010
0000
,  // measure 45
1000
0010
1000
0100
0010
0001
1000
0000
,  // measure 46
0100
0000
0010
0001
0010
0000
1010
0000
,  // measure 47
0001
0100
0001
1000
0010
0000
0011
0000
,  // measure 48
1001
1100
1010
1100
,  // measure 49
0101
0001
1000
0100
0010
0000
1002
0000
,  // measure 50
0103
0010
2000
0000
0001
0000
3100
0000
,  // measure 51
1000
0000
0000
0000
0000
0000
0000
0000
0000
0000
0000
0000
0000
0000
0000
0000
0000
0100
0000
0000
0000
0000
0000
0000
0000
0000
0000
0000
0000
0000
0000
0000
0000
0000
0010
0000
0000
0000
0000
0000
0000
0000
0000
0000
0000
0000
0000
0000
0001
0000
0000
0000
0000
0000
0000
0000
0000
0000
0000
0000
0000
0000
0000
0000
0000
0000
0000
0000
0000
0000
0000
0000
0000
0000
0000
0000
0000
0000
0000
0000
0000
0000
0000
0000
0000
0000
0000
0000
0000
0000
0000
0000
0000
0000
0000
0000
0001
0000
0000
0000
0000
0000
0000
0000
0000
0000
0000
0000
0000
0000
0000
0000
0000
0100
0000
0000
0000
0000
0000
0000
0000
0000
0000
0000
0000
0000
0000
0000
0000
0000
0010
0000
0000
0000
0000
0000
0000
0000
0000
0000
0000
0000
0000
0000
1000
0000
0000
0000
0000
0000
0000
0000
0000
0000
0000
0000
0000
0000
0000
0000
0000
0000
0000
0000
0000
0000
0000
0000
0000
0000
0000
0000
0000
0000
0000
0000
0000
0000
0000
0000
0000
0000
0000
0000
0000
0000
0000
0000
0000
0000
0000
0000
,  // measure 52
0010
0100
0002
0000
1000
0000
0013
0000
,  // measure 53
0001
0000
0000
0000
0000
0000
0000
0000
0000
0000
0000
0000
0000
0000
0000
0000
0000
0100
0000
0000
0000
0000
0000
0000
0000
0000
0000
0000
0000
0000
0000
0000
0000
0000
0001
0000
0000
0000
0000
0000
0000
0000
0000
0000
0000
0000
0000
0000
0010
0000
0000
0000
0000
0000
0000
0000
0000
0000
0000
0000
0000
0000
0000
0000
0000
0000
0000
0000
0000
0000
0000
0000
0000
0000
0000
0000
0000
0000
0000
0000
0000
0000
0000
0000
0000
0000
0000
0000
0000
0000
0000
0000
0000
0000
0000
0000
0100
0000
0000
0000
0000
0000
0000
0000
0000
0000
0000
0000
0000
0000
0000
0000
0000
1000
0000
0000
0000
0000
0000
0000
0000
0000
0000
0000
0000
0000
0000
0000
0000
0000
0010
0000
0000
0000
0000
0000
0000
0000
0000
0000
0000
0000
0000
0000
1000
0000
0000
0000
0000
0000
0000
0000
0000
0000
0000
0000
0000
0000
0000
0000
0000
0000
0000
0000
0000
0000
0000
0000
0000
0000
0000
0000
0000
0000
0000
0000
0000
0000
0000
0000
0000
0000
0000
0000
0000
0000
0000
0000
0000
0000
0000
0000
,  // measure 54
0001
1000
0020
0000
1000
0000
0031
0000
,  // measure 55
0020
2030
3002
0023
,  // measure 56
0130
0000
1000
0100
1000
0000
0000
0000
0001
0100
0001
0000
0000
0000
1000
0010
,  // measure 57
1000
0000
0000
0000
0001
0010
0001
0000
0000
0000
1000
0000
0100
0000
0010
0000
,  // measure 58
0001
0100
1000
0100
0010
1000
0200
0000
,  // measure 59
0300
0010
1000
0010
0001
1000
0020
0000
,  // measure 60
0030
0100
1000
0100
0001
0010
0100
1000
,  // measure 61
0001
0100
0001
0100
0010
0000
1100
0000
,  // measure 62
1000
0100
0001
0100
1000
0010
0100
0001
,  // measure 63
1000
0000
0100
0000
1000
0000
0100
0000
0020
0000
0000
0000
0030
0000
0000
0100
,  // measure 64
1000
0000
0100
0000
0001
0000
0100
0000
1000
0000
0000
0000
1001
0000
0000
1000
,  // measure 65
0001
0100
1000
0100
0010
0000
0101
0000
,  // measure 66
2000
0000
3010
1000
0002
0000
0013
0001
,  // measure 67
1001
1100
0101
1000
,  // measure 68
0002
0000
0013
0001
2000
0000
3010
0100
,  // measure 69
0001
0000
0100
0000
0010
0000
1000
0001
1000
0000
0000
0000
0110
0000
0000
0000
,  // measure 70
2000
0000
0000
0000
3100
0000
1000
0001
1000
0000
0100
0000
0010
0000
0100
0000
,  // measure 71
0001
1000
0010
0001
2000
0000
3002
0000
,  // measure 72
0203
0000
1000
0000
0302
0000
0000
1003
,  // measure 73
1001
0000
0000
0000
0101
0000
0000
0000
1000
0001
0000
0000
2100
0000
0000
0000
,  // measure 74
3001
0010
0100
0020
0001
0000
0130
0000
,  // measure 75
1000
0010
0100
0002
1000
0000
0103
0000
,  // measure 76
1000
0001
0010
0200
0010
0000
1300
0000
,  // measure 77
0001
1000
0001
0200
0010
0000
0301
1000
,  // measure 78
0100
0000
0010
0001
0010
0000
1010
0000
,  // measure 79
0001
0100
0001
1000
0010
0000
0011
0000
,  // measure 80
1000
0100
0010
1000
0010
0001
0000
1000
,  // measure 81
0010
0100
1000
0100
0001
0000
0102
0000
,  // measure 82
1003
0010
0100
0010
1000
0010
0100
0000
,  // measure 83
0001
0010
0100
0010
0001
0010
0100
0000
,  // measure 84
1000
0001
1000
0010
1000
0001
0010
0000
,  // measure 85
0001
0100
0001
0010
0100
1000
0001
0000
,  // measure 86
0100
0000
0010
1000
0010
0000
0011
0000
,  // measure 87
1000
0100
1000
0001
0010
0000
1010
0000
,  // measure 88
1001
0101
0011
0101
,  // measure 89
1100
1000
0001
0100
0010
0000
0000
0000
;

//---------------dance-single - Telperion----------------
#NOTES:
     dance-single:
     Telperion:
     Medium:
     7:
     0.534050,0.560126,0.300403,0.283714,0.025034,448.000000,412.000000,36.000000,34.000000,16.000000,0.000000,0.534050,0.560126,0.300403,0.283714,0.025034,448.000000,412.000000,36.000000,34.000000,16.000000,0.000000:
MMMM
0000
0000
0000
0000
0000
000M
0000
00M0
0000
0M00
0000
,
M000
M000
M000
M000
M000
M000
M000
M000
M000
0000
0000
0000
0000
0000
0000
0000
,
0001
0100
1000
0010
,
1000
0100
0010
0000
0001
1000
0010
0000
,
1000
0100
0001
0010
,
0001
1000
0010
0000
0100
0001
0010
0000
,
0001
0100
1000
0010
,
1000
0001
0010
0000
0100
0010
0001
0000
,
1000
0100
0001
1000
,
0010
1000
0010
1000
0001
0100
0001
0100
,
0010
1000
0001
0010
,
0001
0011
1000
1010
,
0001
0010
1000
0001
,
1000
1010
0001
0011
,
1000
0100
0001
0010
,
1000
0010
1000
0100
1000
0010
1000
0000
,
0001
0100
0010
0000
0010
1000
0000
1000
,
0001
0000
0001
0010
0000
0010
0100
0000
,
1000
0000
0010
0000
0001
0100
0010
0000
,
1000
0000
0100
0000
0001
0010
0100
0000
,
1000
1000
0001
0001
,
0100
0001
0100
0001
1000
0000
1000
0000
,
0001
0000
0010
0000
1000
0100
0010
0000
,
0001
0100
1000
0010
,
0001
0010
0001
0010
0100
0000
0000
0000
,
1000
0001
1000
0001
0100
0000
0000
0000
,
0020
0130
2000
3001
,
1100
1001
1010
0000
,
0020
0130
2000
3001
,
1010
0000
0001
0010
0100
0000
0000
0000
,
0020
0000
0130
0000
0001
1000
0100
0000
,
0010
0100
1000
0000
0002
0000
2003
0000
,
3020
0030
2000
0000
,
3001
0000
0101
0000
0001
0010
0100
0000
,
1000
0001
1000
0001
0200
0000
0300
0000
,
0010
1000
0010
1000
0002
0000
0003
0000
,
0010
0001
0010
0001
2000
0000
3000
0000
,
0100
1000
0001
0100
0020
0000
0030
0000
,
1000
0000
0001
0010
0100
0000
1100
0000
,
0001
0100
0001
0000
1001
0000
0000
0000
,
1000
0001
0010
0000
0100
1000
0010
0000
,
0100
0001
0100
0010
1000
0000
0000
0000
,
0001
1000
0001
1000
0200
0000
0300
0000
,
0010
0001
0010
0001
2000
0000
3000
0000
,
0010
1000
0010
1000
0002
0000
0003
0000
,
0100
0001
1000
0100
0020
0000
0030
0000
,
0001
0000
1000
0010
0100
0000
0101
0000
,
1000
0100
1000
0000
1001
0000
0000
0000
,
0101
1010
1100
0011
,
1001
0100
0010
0000
,
1000
0001
0100
0010
,
1000
1010
0001
0011
,
1000
0010
0001
1000
,
0001
0011
1000
1010
,
0001
0100
1000
0010
,
0001
0010
0001
0100
0001
0010
0001
0000
,
1000
0100
0010
0000
0010
0001
0000
0001
,
1000
0000
1000
0010
0000
0010
0100
0000
,
0001
0000
0010
0000
1000
0100
0010
0000
,
0001
0000
0100
0000
1000
0010
0100
0000
,
0001
0001
1000
1000
,
0100
1000
0100
1000
0001
0000
0001
0000
,
1000
0000
0010
0000
0001
0100
0010
0000
,
1000
0100
0001
0010
,
1000
0010
1000
0010
0100
0000
0000
0000
,
0001
1000
0001
1000
0100
0000
0000
0000
,
0020
0130
0002
1003
,
0101
1001
0011
0000
,
0020
0130
0002
1003
,
0011
0000
1000
0010
0100
0000
0000
0000
,
0020
0000
0130
0000
1000
0001
0100
0000
,
0010
0100
0001
0000
2000
0000
3002
0000
,
0023
0030
0002
0000
,
1003
0000
1100
0000
1000
0010
0100
0000
,
0001
1000
0001
1000
0200
0000
0300
0000
,
0010
0100
0010
0100
2000
0000
3000
0000
,
0001
0100
0001
0100
0020
0000
0030
0000
,
0100
0001
1000
0100
0020
0000
0030
0000
,
0001
0000
1000
0010
0100
0000
0101
0000
,
1000
0100
1000
0000
1001
0000
0000
0000
,
0001
1000
0010
0000
0100
0001
0010
0000
,
0100
1000
0100
0010
0001
0000
0000
0000
,
1000
0001
1000
0001
0200
0000
0300
0000
,
0010
0100
0010
0100
0002
0000
0003
0000
,
1000
0001
1000
0001
0020
0000
0030
0000
,
0100
1000
0001
0100
0020
0000
0030
0000
,
1000
0000
0001
0010
0100
0000
1100
0000
,
0001
0100
0001
0000
1001
0000
0000
0000
,
1100
0011
0101
1010
,
1001
0100
0010
0000
;

//---------------dance-single - Telperion----------------
#NOTES:
     dance-single:
     Telperion:
     Easy:
     5:
     0.350470,0.336076,0.075101,0.383848,0.000000,294.000000,285.000000,9.000000,46.000000,4.000000,0.000000,0.350470,0.336076,0.075101,0.383848,0.000000,294.000000,285.000000,9.000000,46.000000,4.000000,0.000000:
MMMM
0000
0000
0000
,
0000
0000
0000
0000
,
1000
0100
1000
0010
,
0100
0001
0010
0100
,
1000
0001
1000
0000
,
0001
0100
0010
1000
,
0001
0100
0001
0010
,
0100
1000
0010
0100
,
0001
1000
0001
0000
,
0010
0001
0010
0100
,
1000
0001
0100
0000
,
0202
0303
2200
3300
,
0001
1000
0100
0000
,
2200
3300
0202
0303
,
1000
0100
1000
0100
,
0010
0001
0010
0001
,
2000
0000
0010
0000
0000
0001
0000
0000
,
3200
0000
0000
0320
0000
0000
0031
0000
,
1000
0010
0100
0001
,
0000
0010
0100
1000
,
0000
0010
0100
0001
,
1000
0100
0020
0030
,
0001
0010
0100
1000
,
0001
0100
0010
0000
,
1000
0001
0010
0000
,
0001
0100
0010
0000
,
2000
3000
0002
0003
,
2000
0100
3001
1000
,
0002
0003
2000
3000
,
0002
0010
1003
0001
,
0020
0030
0010
0100
,
1000
0001
0100
0000
,
0020
0030
2000
0000
,
3002
0100
0100
0103
,
0001
0010
0100
0000
,
1000
0001
0100
0000
,
0010
1000
0001
0000
,
0010
0100
1000
0000
,
0001
0100
0100
0010
,
1000
1000
0001
0000
,
0010
0100
1000
0001
,
0100
0100
0010
0000
,
1000
0010
0100
0001
,
1000
0010
0100
0000
,
0001
0010
0100
1000
,
0001
0010
0100
0000
,
1000
0100
0100
0010
,
0001
0001
1000
0000
,
0010
0010
0100
0100
,
0002
2000
3003
0000
,
0001
1000
0010
0000
,
2020
3030
0022
0033
,
1000
0001
0010
0000
,
0022
0033
2020
3030
,
0001
0100
0001
0100
,
0010
1000
0010
1000
,
0002
0000
0010
0000
0000
1000
0000
0000
,
0203
0000
0000
0320
0000
0000
1030
0000
,
0001
0010
0100
1000
,
0000
0010
0100
0001
,
0000
0010
0100
1000
,
0001
0100
0020
0030
,
1000
0010
0100
0001
,
1000
0100
0010
0000
,
0001
1000
0010
0000
,
1000
0100
0010
0000
,
0002
0003
2000
3000
,
0002
0100
1003
0001
,
2000
3000
0002
0003
,
2000
0010
3001
1000
,
0020
0030
0010
0100
,
0001
1000
0100
0000
,
0020
0030
0002
0000
,
2003
0100
0100
3100
,
1000
0010
0100
0000
,
0001
1000
0100
0000
,
0010
0001
1000
0000
,
0010
0100
0001
0000
,
1000
0100
0100
0010
,
0001
0001
1000
0000
,
0010
0100
0001
1000
,
0100
0100
0010
0000
,
0001
0010
0100
1000
,
0001
0010
0100
0000
,
1000
0010
0100
0001
,
1000
0010
0100
0000
,
0001
0100
0100
0010
,
1000
1000
0001
0000
,
0010
0010
0100
0100
,
1000
0001
1001
0000
;

//---------------dance-single - Telperion----------------
#NOTES:
     dance-single:
     Telperion:
     Beginner:
     2:
     0.139473,0.261392,0.016689,0.000000,0.000000,117.000000,115.000000,2.000000,0.000000,4.000000,0.000000,0.139473,0.261392,0.016689,0.000000,0.000000,117.000000,115.000000,2.000000,0.000000,4.000000,0.000000:
MMMM
0000
0000
0000
,
0000
0000
0000
0000
,
1000
0001
1000
0001
1000
0000
0000
0000
,
0000
0000
0000
0000
,
0001
1000
0001
1000
0001
0000
0000
0000
,
0000
0000
0000
0000
,
1000
0001
1000
0001
1000
0000
0000
0000
,
0000
0000
0000
0000
,
0001
1000
0001
1000
0001
0000
0000
0000
,
0000
0000
0000
0000
,
1000
0000
0000
0000
,
0004
0003
4000
3000
,
0000
0000
0000
0000
,
4000
3000
0004
0003
,
0000
0000
0000
0000
,
0010
0000
0000
0000
,
0000
0000
1000
0000
0000
0001
0000
0000
,
1000
0000
0000
0001
0000
0000
0000
0000
,
0100
0000
0000
0000
,
0010
0000
0000
0000
,
1000
0000
0000
0000
,
0001
0000
0000
0000
,
0010
0000
0000
0000
,
0100
0000
0000
0000
,
0001
0000
0000
0000
,
1000
0000
0000
0000
,
0010
0000
0000
0000
,
0100
0000
0000
0000
,
1000
0000
0000
0000
,
0001
0000
0000
0000
,
0100
0000
0000
0000
,
0010
0000
0000
0000
,
0001
0000
0000
0000
,
1000
0000
0000
0000
,
0001
0001
0001
0000
,
1000
1000
1000
0000
,
0001
0000
0001
0000
,
1000
0000
1000
0000
,
0000
0000
0000
0000
,
0000
0000
0000
0000
,
0000
0000
0000
0000
,
0000
0000
0000
0000
,
1000
1000
1000
0000
,
0001
0001
0001
0000
,
1000
0000
1000
0000
,
0001
0000
0001
0000
,
0000
0000
0000
0000
,
0000
0000
0000
0000
,
0000
0000
0000
0000
,
0010
0000
1001
0000
,
0000
0000
0000
0000
,
4000
3000
0004
0003
,
0000
0000
0000
0000
,
0004
0003
4000
3000
,
0000
0000
0000
0000
,
0010
0000
0000
0000
,
0000
0000
0001
0000
0000
1000
0000
0000
,
0001
0000
0000
1000
0000
0000
0000
0000
,
0100
0000
0000
0000
,
0010
0000
0000
0000
,
0001
0000
0000
0000
,
1000
0000
0000
0000
,
0010
0000
0000
0000
,
0100
0000
0000
0000
,
1000
0000
0000
0000
,
0001
0000
0000
0000
,
0010
0000
0000
0000
,
0100
0000
0000
0000
,
0001
0000
0000
0000
,
1000
0000
0000
0000
,
0100
0000
0000
0000
,
0010
0000
0000
0000
,
1000
0000
0000
0000
,
0001
0000
0000
0000
,
1000
1000
1000
0000
,
0001
0001
0001
0000
,
1000
0000
1000
0000
,
0001
0000
0001
0000
,
0000
0000
0000
0000
,
0000
0000
0000
0000
,
0000
0000
0000
0000
,
0000
0000
0000
0000
,
0001
0001
0001
0000
,
1000
1000
1000
0000
,
0001
0000
0001
0000
,
1000
0000
1000
0000
,
0000
0000
0000
0000
,
0000
0000
0000
0000
,
0000
0000
0000
0000
,
0010
0000
1001
0000
;

//---------------dance-single - Telperion----------------
#NOTES:
     dance-single:
     Telperion:
     Challenge:
     11:
     1.051411,1.232278,0.400537,0.333781,0.955449,882.000000,834.000000,48.000000,40.000000,48.000000,0.000000,1.051411,1.232278,0.400537,0.333781,0.955449,882.000000,834.000000,48.000000,40.000000,48.000000,0.000000:
// measure 0
MMMM
0000
0000
0000
0000
0000
0000
0000
0000
0000
0000
0000
0000
0000
0000
0000
0000
0000
1000
0000
0000
0001
0000
0000
1000
0000
0000
0000
0000
0000
0000
0000
0100
0000
0000
0000
0000
0000
0000
0000
0010
0000
0000
0000
0000
0000
0000
0000
,  // measure 1
0004
0000
0003
0000
,  // measure 2
1000
0100
1000
0001
0010
0001
0100
0001
1000
0010
1000
0001
0100
0001
0010
0001
,  // measure 3
1000
0100
1000
0100
0010
0001
0010
0001
1000
0010
1000
0010
0100
0001
0100
0001
,  // measure 4
1000
0100
0010
0001
1000
0001
0100
0010
1000
0010
0100
0001
1000
0001
0010
0100
,  // measure 5
1000
0100
0000
1000
0001
0010
0000
0001
1000
0010
0000
0100
0001
1000
0000
0010
,  // measure 6
1000
0100
0010
0001
1000
0100
1000
0001
1000
0010
0100
0001
1000
0010
1000
0100
,  // measure 7
0010
0001
0010
0001
1000
0010
1000
0010
0100
0001
0100
0001
1000
0100
1000
0100
,  // measure 8
0010
0001
0010
0100
1000
0001
0100
0010
1000
0010
0100
0001
1000
0100
0010
0001
,  // measure 9
1000
0000
0010
0100
0001
0000
0010
0100
1000
0000
0010
0100
0001
0000
0010
0100
,  // measure 10
1000
0001
0100
0001
1000
0100
1000
0001
0100
0001
1000
0010
1000
0001
0010
0001
,  // measure 11
1000
0000
0000
0000
0000
0000
0000
0000
0000
0000
0000
0000
0000
0000
0000
0000
0000
0100
0000
0000
0000
0000
0000
0000
0000
0000
0000
0000
0000
0000
0000
0000
0000
0000
1000
0000
0000
0000
0000
0000
0000
0000
0000
0000
0000
0000
0000
0000
1010
0000
0000
0000
0000
0000
0000
0000
0000
0000
0000
0000
0000
0000
0000
0000
0000
0000
0000
0000
0000
0000
0000
0000
0000
0000
0000
0000
0000
0000
0000
0000
0000
0000
0000
0000
0000
0000
0000
0000
0000
0000
0000
0000
0000
0000
0000
0000
0001
0000
0000
0000
0000
0000
0000
0000
0000
0000
0000
0000
0000
0000
0000
0000
0000
0100
0000
0000
0000
0000
0000
0000
0000
0000
0000
0000
0000
0000
0000
0000
0000
0000
0001
0000
0000
0000
0000
0000
0000
0000
0000
0000
0000
0000
0000
0000
1001
0000
0000
0000
0000
0000
0000
0000
0000
0000
0000
0000
0000
0000
0000
0000
0000
0000
0000
0000
0000
0000
0000
0000
0000
0000
0000
0000
0000
0000
0000
0000
0000
0000
0000
0000
0000
0000
0000
0000
0000
0000
0000
0000
0000
0000
0000
0000
,  // measure 12
0001
1000
0100
1000
0001
0100
0001
1000
0100
1000
0001
0010
0001
1000
0010
1000
,  // measure 13
0001
0000
0000
0000
0000
0000
0000
0000
0000
0000
0000
0000
0000
0000
0000
0000
0000
0100
0000
0000
0000
0000
0000
0000
0000
0000
0000
0000
0000
0000
0000
0000
0000
0000
0010
0000
0000
0000
0000
0000
0000
0000
0000
0000
0000
0000
0000
0000
1010
0000
0000
0000
0000
0000
0000
0000
0000
0000
0000
0000
0000
0000
0000
0000
0000
0000
0000
0000
0000
0000
0000
0000
0000
0000
0000
0000
0000
0000
0000
0000
0000
0000
0000
0000
0000
0000
0000
0000
0000
0000
0000
0000
0000
0000
0000
0000
1000
0000
0000
0000
0000
0000
0000
0000
0000
0000
0000
0000
0000
0000
0000
0000
0000
0100
0000
0000
0000
0000
0000
0000
0000
0000
0000
0000
0000
0000
0000
0000
0000
0000
0010
0000
0000
0000
0000
0000
0000
0000
0000
0000
0000
0000
0000
0000
0011
0000
0000
0000
0000
0000
0000
0000
0000
0000
0000
0000
0000
0000
0000
0000
0000
0000
0000
0000
0000
0000
0000
0000
0000
0000
0000
0000
0000
0000
0000
0000
0000
0000
0000
0000
0000
0000
0000
0000
0000
0000
0000
0000
0000
0000
0000
0000
,  // measure 14
0001
1000
0010
1000
0001
0100
0010
0100
0001
1000
0100
1000
0001
0010
0100
1000
,  // measure 15
0001
0100
0010
1000
0001
0010
0100
1000
0001
1000
0100
0010
0001
1000
0010
0100
,  // measure 16
0001
0000
1000
0100
1000
0000
0MM0
0000
0001
0100
0001
0000
0MM0
0000
1000
0010
,  // measure 17
0100
0000
M0M0
0000
0001
1000
0100
0000
M00M
0000
0010
0100
1000
0100
0010
0001
,  // measure 18
1000
0010
0001
0010
0100
1000
0200
0000
,  // measure 19
0300
0001
0010
0100
0001
0100
0020
0000
,  // measure 20
0030
0001
1000
0010
0001
0010
1000
0001
,  // measure 21
0010
0100
0001
0100
1000
0000
1001
1000
,  // measure 22
0001
0100
1000
0100
0010
0001
0010
1000
,  // measure 23
0001
0000
0000
0000
0010
0000
0000
0000
1000
0000
0000
0000
0010
0000
0000
0000
0002
0000
0000
0000
0000
0000
0000
0000
0003
0000
0000
0000
0000
0000
1000
0001
,  // measure 24
1000
0000
0000
0000
0010
0000
0000
0000
0001
0000
0000
0000
0010
0000
0000
0000
0100
0000
0000
0000
0000
0000
0000
0000
M0MM
0000
0000
0000
0000
0000
0001
1000
,  // measure 25
0001
0010
1000
0010
0200
0000
M3MM
0000
,  // measure 26
2000
0000
0000
0000
0000
0000
0000
0000
0000
0000
0000
3000
M010
0000
0000
0000
0000
0000
1000
0000
0000
0000
0000
0000
0002
0000
0000
0000
0000
0000
0000
0000
0000
0000
0000
0003
001M
0000
0000
0000
0000
0000
0001
0000
0000
0000
0000
0000
,  // measure 27
0101
0000
0100
0000
0110
0000
0010
0000
1010
0000
1000
0100
1000
0000
0000
0000
,  // measure 28
0002
0000
0000
0000
0000
0000
0000
0000
0000
0000
0000
0003
001M
0000
0000
0000
0000
0000
0001
0000
0000
0000
0000
0000
2000
0000
0000
0000
0000
0000
0000
0000
0000
0000
0000
3000
M010
0000
0000
0000
0000
0000
1000
0000
0000
0000
0000
0000
,  // measure 29
1100
0000
0100
0000
0110
0000
0010
0001
1000
0000
0001
0100
0001
0000
0000
0000
,  // measure 30
1000
0000
0100
0000
1100
0000
1000
0100
0010
0000
0001
0000
1001
0000
1000
0000
,  // measure 31
0010
0100
0101
0001
0020
0000
0230
0000
,  // measure 32
0300
0000
0000
1000
0010
1000
0001
0000
0000
0000
0000
0000
0100
0000
0000
0010
0000
0000
1010
0000
0000
1000
0000
0000
,  // measure 33
1001
0000
0000
0000
0110
0000
0000
0000
0001
1000
0000
1000
0010
1000
0001
0010
,  // measure 34
0100
0010
0001
1000
0020
0100
1000
0130
,  // measure 35
0010
1000
0001
0010
0200
0010
1000
0310
,  // measure 36
0100
1000
0010
0100
0002
1000
0010
1003
,  // measure 37
0001
0010
0100
1000
0002
0100
1003
0001
,  // measure 38
0010
0000
0000
0000
0000
0000
0001
0000
0100
0000
0001
0000
1000
0000
0000
0000
0000
0000
0010
0000
0000
0000
0000
0000
0200
0000
0000
0000
0000
0000
0000
0000
0000
0000
0000
0300
0M02
0000
0000
0000
0000
0000
0000
0000
0000
0000
0000
0000
,  // measure 39
1003
0000
0100
0000
0110
0000
1000
0000
0001
0000
0100
0000
0001
0000
1000
0100
,  // measure 40
0010
0001
0011
1000
0010
1000
1001
0001
,  // measure 41
0100
0000
0000
0001
0000
0000
0100
0000
0000
0010
0000
0000
2000
0000
0000
0000
0000
0000
3001
0000
0000
1000
0100
0010
,  // measure 42
0001
1000
0001
0000
0010
0000
0001
0000
0010
0100
0010
0000
0001
0000
1000
0000
,  // measure 43
0010
1000
0010
0000
0100
0000
0001
0000
0100
0010
0100
0010
1000
0000
0001
0000
,  // measure 44
1000
0010
1000
0000
0001
0000
1000
0000
0010
0100
0010
0000
1000
0000
0001
0000
,  // measure 45
0010
0001
0010
0000
0100
0000
1000
0000
0100
0010
0100
0010
0002
0000
0000
0000
,  // measure 46
1003
0000
0000
0000
0000
0000
0010
0000
0100
0000
0010
0000
1000
0000
0000
0000
0000
0000
0001
0000
0000
0000
0000
0000
0020
0000
0000
0000
0000
0000
0000
0000
0000
0000
0000
0030
02M0
0000
0000
0000
0000
0000
0000
0000
0000
0000
0000
0000
,  // measure 47
1300
0100
0001
0100
0110
1000
1001
0001
,  // measure 48
0101
0000
0000
0000
0110
0000
0010
0000
1010
0000
1000
0001
0010
0000
0100
0000
,  // measure 49
1000
0010
0001
0010
0100
0000
M0MM
0000
,  // measure 50
0001
1000
0100
1000
0001
0100
0001
1000
0100
1000
0001
0010
0001
1000
0010
1000
,  // measure 51
0001
0000
0000
0000
0000
0000
0000
0000
0000
0000
0000
0000
0000
0000
0000
0000
0000
0100
0000
0000
0000
0000
0000
0000
0000
0000
0000
0000
0000
0000
0000
0000
0000
0000
0001
0000
0000
0000
0000
0000
0000
0000
0000
0000
0000
0000
0000
0000
0011
0000
0000
0000
0000
0000
0000
0000
0000
0000
0000
0000
0000
0000
0000
0000
0000
0000
0000
0000
0000
0000
0000
0000
0000
0000
0000
0000
0000
0000
0000
0000
0000
0000
0000
0000
0000
0000
0000
0000
0000
0000
0000
0000
0000
0000
0000
0000
1000
0000
0000
0000
0000
0000
0000
0000
0000
0000
0000
0000
0000
0000
0000
0000
0000
0100
0000
0000
0000
0000
0000
0000
0000
0000
0000
0000
0000
0000
0000
0000
0000
0000
1000
0000
0000
0000
0000
0000
0000
0000
0000
0000
0000
0000
0000
0000
1001
0000
0000
0000
0000
0000
0000
0000
0000
0000
0000
0000
0000
0000
0000
0000
0000
0000
0000
0000
0000
0000
0000
0000
0000
0000
0000
0000
0000
0000
0000
0000
0000
0000
0000
0000
0000
0000
0000
0000
0000
0000
0000
0000
0000
0000
0000
0000
,  // measure 52
1000
0001
0100
0001
1000
0100
1000
0001
0100
0001
1000
0010
1000
0001
0010
0001
,  // measure 53
1000
0000
0000
0000
0000
0000
0000
0000
0000
0000
0000
0000
0000
0000
0000
0000
0000
0100
0000
0000
0000
0000
0000
0000
0000
0000
0000
0000
0000
0000
0000
0000
0000
0000
0010
0000
0000
0000
0000
0000
0000
0000
0000
0000
0000
0000
0000
0000
0011
0000
0000
0000
0000
0000
0000
0000
0000
0000
0000
0000
0000
0000
0000
0000
0000
0000
0000
0000
0000
0000
0000
0000
0000
0000
0000
0000
0000
0000
0000
0000
0000
0000
0000
0000
0000
0000
0000
0000
0000
0000
0000
0000
0000
0000
0000
0000
0001
0000
0000
0000
0000
0000
0000
0000
0000
0000
0000
0000
0000
0000
0000
0000
0000
0100
0000
0000
0000
0000
0000
0000
0000
0000
0000
0000
0000
0000
0000
0000
0000
0000
0010
0000
0000
0000
0000
0000
0000
0000
0000
0000
0000
0000
0000
0000
1010
0000
0000
0000
0000
0000
0000
0000
0000
0000
0000
0000
0000
0000
0000
0000
0000
0000
0000
0000
0000
0000
0000
0000
0000
0000
0000
0000
0000
0000
0000
0000
0000
0000
0000
0000
0000
0000
0000
0000
0000
0000
0000
0000
0000
0000
0000
0000
,  // measure 54
1000
0001
0010
0001
1000
0100
0010
0100
1000
0001
0100
0001
1000
0010
0100
0001
,  // measure 55
1000
0100
0010
0001
1000
0010
0100
0001
1000
0001
0100
0010
1000
0001
0010
0100
,  // measure 56
1000
0000
0001
0100
0001
0000
0MM0
0000
1000
0100
1000
0000
0MM0
0000
0001
0010
,  // measure 57
0100
0000
00MM
0000
1000
0001
0100
0000
M00M
0000
0010
0100
0001
0100
0010
1000
,  // measure 58
0001
0010
1000
0010
0100
0001
0200
0000
,  // measure 59
0300
1000
0010
0100
1000
0100
0020
0000
,  // measure 60
0030
1000
0001
0010
1000
0010
0001
1000
,  // measure 61
0010
0100
1000
0100
0001
0000
1001
0001
,  // measure 62
1000
0100
0001
0100
0010
1000
0010
0001
,  // measure 63
1000
0000
0000
0000
0010
0000
0000
0000
0001
0000
0000
0000
0010
0000
0000
0000
2000
0000
0000
0000
0000
0000
0000
0000
3000
0000
0000
0000
0000
0000
0001
1000
,  // measure 64
0001
0000
0000
0000
0100
0000
0000
0000
1000
0000
0000
0000
0100
0000
0000
0000
0010
0000
0000
0000
0000
0000
0000
0000
MM0M
0000
0000
0000
0000
0000
1000
0001
,  // measure 65
1000
0100
0001
0100
0020
0000
MM3M
0000
,  // measure 66
0002
0000
0000
0000
0000
0000
0000
0000
0000
0000
0000
0003
001M
0000
0000
0000
0000
0000
0001
0000
0000
0000
0000
0000
2000
0000
0000
0000
0000
0000
0000
0000
0000
0000
0000
3000
M010
0000
0000
0000
0000
0000
1000
0000
0000
0000
0000
0000
,  // measure 67
1100
0000
0100
0000
0110
0000
0010
0000
0011
0000
0001
0100
0001
0000
0000
0000
,  // measure 68
2000
0000
0000
0000
0000
0000
0000
0000
0000
0000
0000
3000
M010
0000
0000
0000
0000
0000
1000
0000
0000
0000
0000
0000
0002
0000
0000
0000
0000
0000
0000
0000
0000
0000
0000
0003
001M
0000
0000
0000
0000
0000
0001
0000
0000
0000
0000
0000
,  // measure 69
0101
0000
0100
0000
0110
0000
0010
1000
0001
0000
1000
0100
1000
0000
0000
0000
,  // measure 70
0001
0000
0100
0000
0101
0000
0001
0100
0010
0000
1000
0000
1001
0000
0001
0000
,  // measure 71
0010
0100
1100
1000
0020
0000
0230
0000
,  // measure 72
0300
0000
0000
0001
0010
0001
1000
0000
0000
0000
0000
0000
0100
0000
0000
0010
0000
0000
0011
0000
0000
0001
0000
0000
,  // measure 73
1001
0000
0000
0000
0110
0000
0000
0000
1000
0001
0000
0001
0010
0100
1000
0001
,  // measure 74
0100
0010
1000
0001
0020
0100
1000
0130
,  // measure 75
0010
0001
1000
0010
0200
0010
1000
0310
,  // measure 76
0100
0001
0010
0100
2000
0001
0010
3001
,  // measure 77
1000
0010
0100
0001
2000
0100
3001
1000
,  // measure 78
0010
0000
0000
0000
0000
0000
1000
0000
0100
0000
1000
0000
0001
0000
0000
0000
0000
0000
0010
0000
0000
0000
0000
0000
0200
0000
0000
0000
0000
0000
0000
0000
0000
0000
0000
0300
2M00
0000
0000
0000
0000
0000
0000
0000
0000
0000
0000
0000
,  // measure 79
3001
0000
0100
0000
0110
0000
0001
0000
1000
0000
0100
0000
1000
0000
0001
0100
,  // measure 80
0010
1000
1010
0001
0010
0001
1001
1000
,  // measure 81
0100
0000
0000
1000
0000
0000
0100
0000
0000
0010
0000
0000
0002
0000
0000
0000
0000
0000
1003
0000
0000
0001
0100
0010
,  // measure 82
1000
0001
1000
0000
0010
1000
0010
0000
0100
0010
0100
0000
0001
0100
0001
0000
,  // measure 83
0010
0001
0010
0000
0100
0010
0100
0000
1000
0100
1000
0100
0010
0001
1000
0000
,  // measure 84
0001
0010
0001
0000
1000
0001
1000
0000
0010
0100
0010
0000
0100
0001
0100
0000
,  // measure 85
0001
1000
0001
0010
0001
1000
0001
0000
0100
0010
0100
0010
2000
0000
0000
0000
,  // measure 86
3001
0000
0000
0000
0000
0000
0010
0000
0100
0000
0010
0000
0001
0000
0000
0000
0000
0000
1000
0000
0000
0000
0000
0000
0020
0000
0000
0000
0000
0000
0000
0000
0000
0000
0000
0030
02M0
0000
0000
0000
0000
0000
0000
0000
0000
0000
0000
0000
,  // measure 87
0301
0100
1000
0100
0110
0001
1001
1000
,  // measure 88
1100
0000
0000
0000
0110
0000
0010
0000
0011
0000
0001
1000
0010
0000
0100
0000
,  // measure 89
0001
0010
1000
0010
010M
0000
0000
0000
;
