#TITLE:TAKE A LOOK AROUND;
#SUBTITLE:;
#ARTIST:DJ X-MEN;
#TITLETRANSLIT:;
#SUBTITLETRANSLIT:;
#ARTISTTRANSLIT:;
#CREDIT:;
#BANNER:;
#BACKGROUND:[ROUND E] - TAKE A LOOK AROUND-bg.png;
#LYRICSPATH:;
#CDTITLE:Dance Mania Bass 8.png;
#MUSIC:[ROUND E] - TAKE A LOOK AROUND.mp3;
#OFFSET:-3.861;
#SAMPLESTART:76.240;
#SAMPLELENGTH:13.370;
#SELECTABLE:YES;
#BPMS:0.000=125.980;
#STOPS:;
#BGCHANGES:0.000=Spiral Stairs.avi=1.400=1=1=1,
4.000=Gears.avi=1.400=0=1=1,
4.500=Gears R.avi=1.400=0=1=1,
5.000=Gears.avi=1.400=0=1=1,
5.500=Gears R.avi=1.400=0=1=1,
6.000=Arrow Wheel.avi=2.000=0=1=1,
7.000=Turntable.avi=1.400=0=1=1,
8.000=Rainy Sidewalk.avi=1.000=0=1=1,
16.000=Light Vortex.avi=1.000=0=1=1,
23.000=Turntable.avi=1.400=0=1=1,
24.000=Rainy Sidewalk.avi=1.000=0=1=1,
32.000=Light Vortex.avi=1.000=0=1=1,
36.000=Audience.avi=1.400=0=1=1,
38.000=Arrow Wheel.avi=2.000=0=1=1,
40.000=Gears.avi=1.400=0=1=1,
48.000=Speaker Fountain.avi=1.400=0=1=1,
56.000=Japanese Purple.avi=1.000=0=1=1,
64.000=Speaker Fountain.avi=1.400=0=1=1,
72.000=Rainy Sidewalk.avi=1.000=0=1=1,
80.000=Light Vortex.avi=1.000=0=1=1,
86.000=Turntable.avi=1.400=0=1=1,
87.000=Turntable.avi=1.400=0=1=1,
87.500=Turntable.avi=1.400=0=1=1,
87.750=Turntable.avi=1.400=0=1=1,
88.000=Audience.avi=1.400=0=1=1,
96.000=Spiral Stairs.avi=1.400=0=1=1,
104.000=Feel.avi=1.400=0=1=1,
112.000=Starbox.avi=1.400=0=1=1,
120.000=Light Vortex.avi=1.000=0=1=1,
124.000=Shooting Stars.avi=1.000=0=1=1,
127.500=Shooting Stars.avi=2.000=0=1=1,
128.000=Light Vortex R.avi=1.000=0=1=1,
132.000=Shooting Stars.avi=2.000=0=1=1,
136.000=Gears.avi=1.400=0=1=1,
139.000=Speaker Fountain.avi=1.400=0=1=1,
140.000=Japanese Purple.avi=1.400=0=1=1,
143.000=Speaker Fountain.avi=1.400=0=1=1,
144.000=Gears.avi=1.400=0=1=1,
146.000=Speaker Fountain.avi=1.400=0=1=1,
148.000=Turntable.avi=1.400=0=1=1,
152.000=Feel.avi=1.400=0=1=1,
155.000=Gears.avi=1.400=0=1=1,
156.000=Feel.avi=1.400=0=1=1,
159.000=Gears.avi=1.400=0=1=1,
160.000=Audience.avi=1.400=0=1=1,
163.000=Starbox.avi=1.400=0=1=1,
164.000=Audience.avi=1.400=0=1=1,
167.000=Starbox.avi=1.400=0=1=1,
168.000=Feel.avi=2.000=0=1=1,
171.000=Gears.avi=1.400=0=1=1,
171.500=Gears R.avi=1.400=0=1=1,
172.000=Feel.avi=2.000=0=1=1,
175.000=Gears.avi=1.400=0=1=1,
175.500=Gears R.avi=1.400=0=1=1,
176.000=Starbox.avi=2.000=0=1=1,
176.750=Starbox R.avi=2.000=0=1=1,
177.500=Starbox.avi=2.000=0=1=1,
178.250=Starbox R.avi=2.000=0=1=1,
179.000=Gears.avi=1.400=0=1=1,
179.500=Gears R.avi=1.400=0=1=1,
180.000=Light Vortex.avi=2.000=0=1=1,
183.000=Gears.avi=2.000=0=1=1,
183.500=Gears R.avi=2.000=0=1=1,
184.000=Spiral Stairs.avi=1.400=0=1=1,
196.000=Speaker Fountain.avi=1.400=0=1=1,
198.000=Arrow Wheel.avi=2.000=0=1=1,
199.000=Turntable.avi=1.400=0=1=1,
200.000=[ROUND E] - TAKE A LOOK AROUND-bg.png=1.000=0=0=1,
99999=-nosongbg-=1.000=0=0=0 // don't automatically add -songbackground-
;

//---------------dance-single - ChiselEssiestudy ZSS----------------
#NOTES:
     dance-single:
     ChiselEssiestudy ZSS:
     Hard:
     8:
     0.585,0.640,0.236,0.266,0.409: // measure 1
0000
0000
0000
0000
,  // measure 2
2000
3000
0200
0300
0020
0030
0200
0300
0010
0001
0100
0001
0010
0000
0000
0000
,  // measure 3
0200
0000
0000
1000
0000
0000
0010
0000
0000
1000
0000
0000
0310
0000
0001
0010
,  // measure 4
0200
0000
0000
1000
0000
0000
0010
0000
0000
1000
0000
0000
0310
0000
0001
0000
,  // measure 5
2000
0000
0000
0001
0000
0000
0100
0000
0000
0010
0000
0000
3001
0000
1000
0010
,  // measure 6
0200
0000
0000
0001
0000
0000
0010
0000
0000
0301
0000
0000
2002
0000
0000
3003
,  // measure 7
0020
0000
0000
1000
0000
0000
0100
0000
0000
1000
0000
0000
0130
0000
0001
1000
,  // measure 8
0200
0000
0000
1000
0000
0000
0010
0000
0000
1000
0000
0000
0310
0000
0001
0000
,  // measure 9
2000
0000
0000
0010
0000
0000
0100
0000
0000
0001
0000
0000
3100
0000
0010
0000
,  // measure 10
0101
0000
0000
0000
0000
0000
0000
0000
1000
0100
0010
0100
1000
0010
1000
0000
,  // measure 11
0001
0000
0001
0000
0100
0000
0001
0000
0010
0000
0000
0100
0000
0000
0010
0000
,  // measure 12
0001
0000
0001
0000
1000
0000
0010
0000
1000
0000
0100
0000
0000
0100
0000
0000
,  // measure 13
0010
0000
0010
0000
0001
0000
0100
0000
0001
0000
0010
0000
0100
0010
0000
0000
,  // measure 14
0100
0100
1000
0001
0100
0100
0001
1000
,  // measure 15
0010
0000
0010
0000
1000
0000
0100
0000
1000
0000
0000
0001
0000
0000
1000
0000
,  // measure 16
0010
0000
0010
0000
0100
0000
0001
0000
0100
0000
0010
0000
0000
1000
0000
0000
,  // measure 17
0001
0001
1000
0010
1000
0100
1000
0000
,  // measure 18
0010
0010
0100
0001
0010
0010
0100
1000
,  // measure 19
0020
0000
0000
0100
0000
0000
1000
0000
0100
0000
0100
0000
1030
0000
0001
0000
,  // measure 20
0200
0000
0000
0001
0000
0000
0010
0000
0001
0000
0001
0000
0310
0000
1000
0000
,  // measure 21
0200
0010
0310
0000
0002
0100
0103
0000
,  // measure 22
0001
0000
0100
0000
0001
0000
1000
0000
0010
0000
1000
0000
0001
0000
0100
0001
,  // measure 23
0100
0100
0001
1000
0001
0000
0010
0001
,  // measure 24
1000
0000
1000
0000
0010
0000
0100
0000
0010
0000
0100
0000
0000
0001
0000
0000
,  // measure 25
1000
1000
0001
0010
0001
0100
0010
0000
,  // measure 26
1000
1000
0100
0010
0001
0001
0100
0010
,  // measure 27
0100
0000
0100
0000
0001
0000
0100
0000
0010
0000
0000
0100
0000
0000
0010
0000
,  // measure 28
1000
0000
1000
0000
0001
0000
0100
0000
0001
0000
0010
0000
0000
0001
0000
0000
,  // measure 29
0010
0010
0001
1000
0001
1000
0100
0000
,  // measure 30
1000
1000
0001
0100
0001
0001
1000
0100
,  // measure 31
0120
0000
0000
0000
0100
0000
0000
0001
0000
0000
0130
0000
0010
0000
0001
0000
,  // measure 32
0012
0000
0000
0000
0010
0000
0000
1000
0000
0000
0013
0000
0001
0000
0110
0000
,  // measure 33
0201
0000
0000
0000
0001
0000
0000
0010
0000
0000
0301
0000
0010
0000
0011
0000
,  // measure 34
1002
0000
0000
0000
1000
0000
0000
0100
0000
0000
1003
0000
0010
0000
0110
0000
,  // measure 35
1001
0000
0000
0001
1000
0000
0010
0000
0000
0000
0100
0000
0010
0000
0100
0000
,  // measure 36
1001
0000
0000
1000
0001
0000
0010
0000
0000
0000
0001
0000
0100
0000
0001
0000
,  // measure 37
0011
0000
0000
0001
0010
0000
0001
0000
0101
0000
0000
0100
0001
0000
0100
0000
,  // measure 38
0120
0000
0000
0000
0100
0000
0000
0100
0000
0000
0130
0000
0001
0000
0001
0000
,  // measure 39
1000
0100
0000
1000
0100
0000
1000
0100
0000
1000
0100
0000
0010
0000
0001
0000
,  // measure 40
0100
0001
0000
0100
0001
0000
0100
0001
0000
0100
0001
0000
0010
0000
0100
0000
,  // measure 41
1000
0001
0000
1000
0001
0000
1000
0001
0000
1000
0001
0000
0100
0000
0001
0000
,  // measure 42
0010
0100
0000
0010
0100
0000
0010
0100
0000
0010
0100
0000
0010
0000
0001
0000
,  // measure 43
1000
0010
0000
1000
0100
0000
1000
0010
0000
1000
0100
0000
1010
0000
0101
0000
,  // measure 44
0100
0001
0000
0010
0001
0000
0100
0001
0000
0010
0001
0000
0110
0000
0110
0000
,  // measure 45
1000
0100
0000
0010
0100
0000
1000
0010
0000
0100
0010
0000
0101
0000
1100
0000
,  // measure 46
0010
0001
0000
0100
0010
0000
0100
0001
0000
0010
0100
0000
1001
0000
0110
0000
,  // measure 47
2010
0000
0000
0100
0000
0000
0010
0000
0000
0001
0000
0000
3100
0000
0010
0000
,  // measure 48
0002
0000
0000
0100
0000
0000
0010
0000
0000
1000
0000
0000
0103
0000
0010
0000
,  // measure 49
0200
0000
0000
0010
0000
0000
0001
0000
0000
0010
0000
0000
0301
0000
0010
0000
,  // measure 50
0220
0000
0000
0000
0330
0000
0000
0000
1000
0100
0010
0100
1000
0010
0000
0000
,  // measure 51
0100
0000
0000
0000
;

//---------------dance-single - ChiselEssiestudy ZSS----------------
#NOTES:
     dance-single:
     ChiselEssiestudy ZSS:
     Medium:
     6:
     0.422,0.394,0.217,0.177,0.118:
0000
0000
0000
0000
,
0001
0000
1000
0000
0001
0000
1000
0000
0020
0000
0000
0000
0200
0330
0000
0000
,
0001
0000
0110
0100
0000
0100
0010
0000
,
0100
0000
1001
0001
0000
0001
1000
0000
,
0010
0000
0101
0100
0000
0100
0001
0000
,
0010
0000
1100
0100
0000
0100
1001
0000
,
0001
0000
1001
1000
0000
1000
0001
0000
,
0010
0000
0110
0100
0000
0100
0010
0000
,
1000
0000
0101
0001
0000
0001
0100
0000
,
0220
0000
0330
0000
1000
0100
1000
0100
,
1000
0000
0001
0100
0000
0100
0001
0000
,
1000
0000
0010
0100
0000
0100
0010
0000
,
1000
0000
0001
0010
0000
0010
0001
0000
,
0100
0000
0010
0100
0010
0100
0001
0000
,
0100
0000
0001
1000
0000
1000
0100
0000
,
1000
0000
0001
0010
0000
0010
0001
0000
,
1000
0000
0100
1000
0000
1000
0010
0000
,
0100
0000
0001
0100
0001
0100
0010
0000
,
2000
0001
0001
3001
,
0200
0010
0010
0310
,
0200
0301
2000
3100
,
0020
0000
0031
0000
2000
0000
3001
0100
,
0001
0000
1001
1000
0000
1000
0100
0000
,
1000
0000
0110
0010
0000
0010
0100
0000
,
0001
0000
1100
0100
0000
0100
1000
0000
,
0010
0000
0110
0100
0001
0100
0010
0000
,
0100
0000
0101
0001
0000
0001
0010
0000
,
0001
0000
1001
1000
0000
1000
0001
0000
,
0010
0000
1100
0100
0000
0100
1000
0000
,
0001
0000
0101
0100
0010
0100
0001
1000
,
0210
0000
0000
0000
0010
0000
0000
0010
0000
0000
0010
0000
0300
0000
0000
0000
,
0002
0000
0000
0000
1000
0000
0000
1000
0000
0000
1000
0000
0003
0000
0001
0000
,
0120
0000
0000
0000
0100
0000
0000
0100
0000
0000
0100
0000
0030
0000
0010
0000
,
2000
0000
0000
0000
0001
0000
0000
0001
0000
0000
0001
0000
3001
0000
0100
0000
,
0010
0000
0000
1000
0000
0000
0100
0000
0000
0000
0010
0000
0001
0000
0010
0000
,
0100
0000
0000
1000
0000
0000
0010
0000
0000
0000
0100
0000
0010
0000
0100
0000
,
0010
0000
0000
1000
0000
0000
0100
0000
1000
0000
0000
0010
0000
0000
0100
0000
,
0002
0000
0000
0000
1000
0000
0000
1000
0000
0000
1000
0000
2000
0000
3003
0000
,
0001
0000
0000
0010
0000
0000
0001
0000
0000
0010
0000
0000
0001
0000
0010
0000
,
0100
0000
0000
1000
0000
0000
0100
0000
0000
1000
0000
0000
0100
0000
1000
0000
,
0010
0000
0000
1000
0000
0000
0010
0000
0000
1000
0000
0000
0010
0000
0100
0000
,
0001
0000
0000
0100
0000
0000
0001
0000
0000
0100
0000
0000
0001
0000
0010
0000
,
0100
0000
0000
1000
0000
0000
0010
0000
0000
1000
0000
0000
0100
0000
0010
0000
,
0001
0000
0000
1000
0000
0000
0010
0000
0000
1000
0000
0000
0100
0000
0010
0000
,
0001
0000
0000
1000
0000
0000
0001
0000
0000
1000
0000
0000
0001
0000
0100
0000
,
0010
0000
0000
0100
0000
0000
0010
0000
0100
0000
0010
0000
0100
0000
0010
0000
,
1000
0000
0110
0010
0000
0010
0100
0000
,
0010
0000
1001
1000
0000
1000
0001
0000
,
0010
0000
0101
0001
0000
0001
0100
0000
,
0020
0000
0030
0000
1000
0001
2000
0000
,
3001
0000
0000
0000
;

//---------------dance-single - ChiselEssiestudy ZSS----------------
#NOTES:
     dance-single:
     ChiselEssiestudy ZSS:
     Easy:
     3:
     0.231,0.271,0.069,0.148,0.000:
0000
0000
0000
0000
,
1000
0001
1000
0110
,
2000
0000
0000
3000
,
0020
0000
0000
0030
,
2000
0000
0000
3000
,
0002
0003
0100
1001
,
0020
0000
0000
0030
,
0002
0000
0000
0003
,
0200
0000
0000
0300
,
0110
0000
0100
0010
,
1000
0001
0000
0100
,
0001
0010
0000
0100
,
0010
0001
0000
1000
,
0001
0100
0001
0010
,
0100
1000
0000
0001
,
0100
0010
0000
0100
,
0001
1000
0000
0100
,
1000
0001
0010
0100
,
2000
0000
0000
3000
,
0020
0000
0000
0030
,
0200
0000
0000
0300
,
0020
0000
0030
0000
0100
0000
0001
1000
,
0001
0100
0000
0001
,
0010
0100
0000
0010
,
0100
1000
0000
0100
,
0010
0100
1000
0100
,
0010
0001
0000
1000
,
0001
0100
0000
0010
,
0100
0001
0000
0100
,
0010
1000
0001
1000
,
1001
0000
0000
0000
,
1001
0000
0000
0000
0000
0000
0000
1000
,
1000
0000
0000
0000
0000
0000
0000
0010
,
0010
0100
0100
0100
,
0001
0010
0000
0001
,
1000
0010
0000
1000
,
0100
0010
0100
1000
,
0110
0000
0000
0000
,
1000
0000
0100
0000
1000
0000
0001
0001
,
0100
0000
0001
0000
0100
0000
0010
0010
,
0100
0000
0001
0000
0100
0000
0001
0001
,
1000
0000
0100
0000
1000
0000
0010
0010
,
0100
0000
0010
0000
0100
0000
0001
0001
,
1000
0000
0100
0000
1000
0000
0100
0100
,
0010
0000
0001
0000
1000
0000
0001
0001
,
0100
0000
0010
0000
1000
0000
0100
0100
,
0020
0000
0000
0030
,
0002
0000
0000
0003
,
2000
0000
0000
3000
,
0020
0030
0100
1001
,
0100
0000
0000
0000
;

//---------------dance-single - ChiselEssiestudy ZSS----------------
#NOTES:
     dance-single:
     ChiselEssiestudy ZSS:
     Beginner:
     1:
     0.134,0.197,0.079,0.000,0.000:
0000
0000
0000
0000
,
0000
0000
0000
0000
,
1000
0000
0000
0000
,
0001
0000
0000
0000
,
1000
0000
0000
0000
,
0010
0000
1000
1001
,
0001
0000
0000
0000
,
1000
0000
0000
0000
,
0001
0000
0000
0000
,
0100
0000
0010
0010
,
0100
0000
0000
0000
,
0010
0000
0000
0000
,
0100
0000
0000
0000
,
0001
0000
1000
0000
,
0001
0000
0000
0000
,
0010
0000
0000
0000
,
0001
0000
0000
0000
,
1000
0000
0001
0000
,
0100
0000
0000
0000
,
0001
0000
0000
0000
,
1000
0000
0000
0000
,
0001
0000
0100
0100
,
0010
0000
0000
0000
,
0100
0000
0000
0000
,
0010
0000
0000
0000
,
1000
0000
0001
0000
,
1000
0000
0000
0000
,
0010
0000
0000
0000
,
0001
0000
0000
0000
,
1000
0000
0010
0000
,
1001
0000
0000
0000
,
0110
0000
0000
1000
,
1001
0000
0000
0000
,
0010
0000
0100
0100
,
1001
0000
0000
0010
,
0110
0000
0000
1000
,
1001
0000
0100
0000
,
0001
0001
0001
0001
,
1000
0001
0000
0001
,
0100
0010
0000
0100
,
0001
1000
0000
1000
,
0001
1000
0001
1000
,
0010
0100
0000
0100
,
0001
1000
0000
1000
,
0100
0010
0000
0010
,
0100
0010
0100
0010
,
0100
0000
0000
0000
,
0010
0000
0000
0000
,
1000
0000
0000
0000
,
0010
0000
0100
0000
,
1001
0000
0000
0000
;

//---------------dance-single - ChiselEssiestudy ZSS----------------
#NOTES:
     dance-single:
     ChiselEssiestudy ZSS:
     Challenge:
     9:
     0.761,0.779,0.433,0.364,0.665: // measure 1
0000
0000
0000
0000
,  // measure 2
2000
0000
0000
0000
3000
0000
0000
0000
0002
0000
0000
0000
0003
0000
0000
0000
2000
0000
0000
0000
3000
0000
0000
0000
0002
0000
0000
0000
0003
0000
0000
0000
2000
3000
0200
0300
0020
0030
0002
0003
2000
0000
3000
0000
0020
0000
0030
0000
2000
0000
0000
0000
0002
0000
0000
0000
0000
0000
0000
0000
3003
0000
0000
0000
,  // measure 3
1000
0000
0000
0100
1000
0000
0100
0000
0010
0001
0000
1000
0001
0000
0100
0010
,  // measure 4
0100
0000
0000
0001
1000
0000
0100
0000
1000
0100
0000
1000
0010
0000
0100
0000
,  // measure 5
0010
0000
0000
0100
0001
0000
0010
0000
0001
0100
0000
0001
1000
0000
0100
0000
,  // measure 6
1000
0000
0000
0010
0100
0000
0010
1000
0000
0001
0100
0000
0220
0000
0330
0000
,  // measure 7
1000
0000
0000
0100
1000
0000
0001
0000
0100
0001
0000
0010
0100
0000
0010
0000
,  // measure 8
0100
0000
0000
1000
0001
0000
1000
0000
0001
0100
0000
0010
0100
0000
0001
0000
,  // measure 9
0010
0000
0000
0100
0010
0000
0001
0000
1000
0001
0000
0100
0010
0000
0100
0000
,  // measure 10
0021
0000
0000
0000
0000
0000
0000
0000
0000
0000
0000
0000
0001
0000
0000
0000
0000
0000
0000
0000
0000
0000
0000
0000
0031
0000
0000
0000
0000
0000
0000
0000
0020
0030
0200
0300
2000
3000
0002
0003
0200
0000
0300
0000
0020
0000
0030
0000
1000
0000
0000
0000
0100
0000
0000
0000
0010
0000
0000
0000
0000
0000
0000
0000
,  // measure 11
0001
0100
0001
0000
0010
0000
0001
0000
1000
0000
0010
0000
1001
0000
0100
0000
,  // measure 12
1000
0010
1000
0000
0001
0000
1000
0000
0010
0000
1000
0000
0110
0000
0100
0000
,  // measure 13
0010
0100
0010
0000
0100
0000
0001
0010
0000
0100
0000
0000
1010
0000
0000
0000
,  // measure 14
0010
0100
0010
0000
1000
0000
0100
0000
0010
0100
0010
0000
0001
0000
0100
0000
,  // measure 15
0001
0100
0001
0000
1000
0000
0100
0000
1000
0000
0010
0000
0110
0000
0100
0000
,  // measure 16
0001
0010
0001
0000
0100
0000
0010
0000
0100
0000
0001
0000
1100
0000
0010
0000
,  // measure 17
0100
1000
0100
0000
0010
0000
0100
0000
1000
0000
0010
0000
1001
0000
0001
0000
,  // measure 18
0100
0010
0100
0000
0001
0000
1000
0000
0100
0010
0100
0000
1000
0000
0010
0000
,  // measure 19
0200
0000
0000
0001
0000
0000
1000
0000
0301
0010
0001
0000
0100
0000
0001
0000
,  // measure 20
0020
0000
0000
0001
0000
0000
1030
0001
0100
0010
0100
0000
0010
0000
0001
0000
,  // measure 21
0200
0001
0310
0000
2000
0010
3001
0000
,  // measure 22
0100
0000
0001
0000
0010
0000
0100
0000
1000
0000
0010
0000
0110
0000
0001
0010
,  // measure 23
0100
1000
0100
0000
1000
0000
0010
0000
0100
0000
0010
0000
0101
0000
0100
0000
,  // measure 24
0010
0100
0010
0000
0100
0000
0001
0000
1000
0001
1000
0000
1010
0000
0100
0000
,  // measure 25
0001
0010
0001
0000
0100
0000
0010
1000
0010
0000
1000
0000
0110
0000
1000
0000
,  // measure 26
0100
1000
0100
0000
0010
0000
0001
0000
1000
0100
1000
0000
0010
0000
0100
0000
,  // measure 27
0010
1000
0010
0000
0100
0000
0001
0000
0010
0001
0010
0000
1001
0000
0100
0000
,  // measure 28
0010
0001
0010
0000
0100
0000
0010
0000
0001
0000
1000
0000
0110
0000
0100
0000
,  // measure 29
0001
0010
0001
0000
0010
0000
0100
0000
1000
0000
0010
0000
0110
0000
0100
0000
,  // measure 30
0001
0010
0001
0000
0100
0000
0001
0000
0010
0001
0010
0000
0001
0000
1000
0000
,  // measure 31
0110
0000
0000
0100
0010
0000
0100
0001
0000
0100
0010
0000
1000
0000
0100
0000
,  // measure 32
0011
0000
0000
0001
0100
0000
0001
0010
0000
0001
0100
0000
0010
0000
1010
0000
,  // measure 33
0101
0000
0000
0001
0100
0000
0001
0010
0000
0001
0100
0000
0010
0000
1100
0000
,  // measure 34
0011
0000
0000
0001
0010
0000
0001
0100
0000
0001
0010
0000
0100
1000
0100
0000
,  // measure 35
1001
0000
0000
1000
0100
0000
0010
0000
0000
0100
1000
0000
0100
0000
0100
0000
,  // measure 36
0011
0000
0000
0001
0010
0000
0100
0000
0000
0010
0001
0000
1000
0000
1000
0000
,  // measure 37
1001
0000
0000
0001
0100
0000
0010
0000
0110
0000
0000
0100
0001
0000
0010
0000
,  // measure 38
1001
0000
0000
0001
1000
0000
0001
1000
0000
0001
1000
0000
0110
0000
0110
0000
,  // measure 39
0100
0001
0000
0100
0010
0000
0100
0001
0000
0010
0100
0000
1100
0000
1100
0000
,  // measure 40
0001
1000
0000
0010
1000
0000
0100
0010
0000
0100
1000
0000
1010
0000
1010
0000
,  // measure 41
0100
0001
0000
0100
0010
0000
1000
0100
0000
0010
0100
0000
1100
0000
1100
0000
,  // measure 42
0010
0001
0000
0100
0010
0000
0100
0001
0000
1000
0100
0000
0011
0000
0011
0000
,  // measure 43
0100
0010
0000
1000
0001
0000
0010
0100
0000
1000
0001
0000
0110
0000
1001
0000
,  // measure 44
0100
0001
0000
1000
0100
0000
0010
0001
0000
1000
0010
0000
0101
0000
1010
0000
,  // measure 45
1000
0100
0000
1000
0010
0000
0100
0001
0000
0010
0001
0000
1100
0000
0011
0000
,  // measure 46
1000
0010
0000
0100
0001
0000
0010
0100
1000
0001
0100
0010
1000
0001
0010
0000
,  // measure 47
0100
0000
0000
1000
0100
0000
1000
0000
0010
1000
0000
0010
0100
0000
0001
0010
,  // measure 48
0001
0000
0000
0100
0001
0000
0010
0000
0001
0100
0000
0010
0100
0000
0001
0000
,  // measure 49
0010
0000
0000
0001
1000
0000
0010
0000
1000
0010
0000
1000
0001
0000
0010
0000
,  // measure 50
0220
0000
0000
0000
0000
0000
0000
0000
0000
0000
0000
0000
0000
0000
0000
0000
0330
0000
0000
0000
0000
0000
0000
0000
0000
0000
0000
0000
0000
0000
0000
0000
0020
0030
0200
0300
2000
3000
0020
0030
0200
0000
0300
0000
0020
0000
0030
0000
2000
0000
0000
0000
0002
0000
0000
0000
3003
0000
0000
0000
0000
0000
0000
0000
,  // measure 51
0220
0000
0000
0000
,  // measure 52
0330
0000
0000
0000
;
