#TITLE:Super Fantasy;
#SUBTITLE:;
#ARTIST:SHK;
#TITLETRANSLIT:;
#SUBTITLETRANSLIT:;
#ARTISTTRANSLIT:;
#GENRE:;
#CREDIT:;
#BANNER:[ROUND E] - Super Fantasy.png;
#BACKGROUND:[ROUND E] - Super Fantasy-bg.png;
#LYRICSPATH:;
#CDTITLE:;
#MUSIC:[ROUND E] - Super Fantasy.mp3;
#OFFSET:-0.110000;
#SAMPLESTART:13.321379;
#SAMPLELENGTH:13.241379;
#SELECTABLE:YES;
#BPMS:0.000000=145.000000
,62.500000=72.500000
,63.000000=145.000000
,63.500000=290.000000
,65.500000=145.000000
,66.000000=72.500000
,67.000000=145.000000
,67.500000=290.000000
,69.500000=145.000000
,70.000000=72.500000
,71.000000=145.000000
,71.500000=290.000000
,73.500000=145.000000
,74.000000=72.500000
,75.000000=145.000000
,75.500000=290.000000
,77.500000=145.000000
,78.000000=72.500000
,79.000000=145.000000
,79.500000=290.000000
,81.500000=145.000000
,82.000000=72.500000
,83.000000=145.000000
,83.500000=290.000000
,85.500000=145.000000
,86.000000=72.500000
,87.000000=145.000000
,87.500000=290.000000
,89.500000=145.000000
,90.000000=72.500000
,91.000000=145.000000
,91.500000=290.000000
,96.500000=145.000000
,175.500000=72.500000
,176.000000=145.000000
,176.500000=290.000000
,178.500000=145.000000
,179.000000=72.500000
,180.000000=145.000000
,180.500000=290.000000
,182.500000=145.000000
,183.000000=72.500000
,184.000000=145.000000
,184.500000=290.000000
,186.500000=145.000000
,187.000000=72.500000
,188.000000=145.000000
,188.500000=290.000000
,190.500000=145.000000
,191.500000=72.500000
,192.000000=145.000000
,192.500000=290.000000
,194.500000=145.000000
,195.000000=72.500000
,196.000000=145.000000
,196.500000=290.000000
,198.500000=145.000000
,199.000000=72.500000
,200.000000=145.000000
,200.500000=290.000000
,202.500000=145.000000
,203.000000=72.500000
,204.000000=145.000000
,204.500000=290.000000
,207.500000=145.000000
,238.000000=72.500000
,238.500000=145.000000
,270.500000=72.500000
,271.000000=145.000000
,271.500000=217.500000
,272.000000=290.000000
,272.500000=362.500000
,273.000000=435.000000
,273.500000=507.499969
,274.000000=580.000000
,311.500000=145.000000
;
#STOPS:31.000000=0.069000,
31.166666=0.069000,
31.333334=0.069000,
50.500000=0.207000,
54.000000=0.207000,
111.479164=0.422000,
191.000000=0.207000,
207.500000=0.207000,
227.000000=0.207000,
230.500000=0.207000,
311.500000=0.207000
;
#BGCHANGES:;
#KEYSOUNDS:;
#ATTACKS:;

//---------------dance-single - ----------------
#NOTES:
     dance-single:
     :
     Beginner:
     2:
     0.152010,0.291339,0.000000,0.083130,0.000000,128.000000,128.000000,0.000000,10.000000,0.000000,0.000000,0.152010,0.291339,0.000000,0.083130,0.000000,128.000000,128.000000,0.000000,10.000000,0.000000,0.000000:
0000
0000
0000
0000
,
0000
0000
0000
0000
,
0000
0000
0000
0000
,
0000
0000
0000
0000
,
2000
0000
0000
0000
,
3200
0000
0000
0000
,
0320
0000
0000
0000
,
0032
0000
0000
0000
0000
0000
0003
1000
,
0000
0000
0000
0000
0000
0010
0000
0010
,
0000
0000
0000
0000
0000
0100
0000
0100
,
0000
0000
0000
0001
0000
0000
0000
1000
,
0000
0000
0000
0100
0000
0000
0000
0010
,
0000
0000
0000
0001
0000
0000
1000
0000
,
0000
0000
0100
0000
0000
0010
0000
0000
,
0000
0001
0000
0000
0000
1000
0000
0000
,
0000
1000
0000
0000
0000
0002
0000
0000
,
0000
0000
0000
0000
,
0000
0000
0000
0000
,
0000
0000
0000
0000
,
0000
0000
0000
0000
0000
2003
0000
0000
,
0000
0000
0000
0000
,
0000
0000
0000
0000
,
0000
0000
0000
0000
,
0000
0000
0000
0000
,
0000
3000
0000
0001
0000
0000
0000
0100
,
0000
0000
0000
0010
0000
0000
0000
0010
,
0000
0000
0000
1000
0000
0000
0000
0010
,
0000
0000
0000
0100
0000
0000
0000
0000
,
0000
0001
0000
0000
0000
1000
0000
0100
,
0000
0000
0000
0000
0000
0010
0000
0001
,
0000
0000
0000
0000
0000
0100
0000
0010
,
0000
0000
0000
0100
0000
0000
0000
0001
,
0000
1000
0000
0000
0000
0100
0000
0010
,
0000
0000
0000
0000
0000
0001
0000
1000
,
0000
0000
0000
0000
0000
0100
0000
0010
,
0000
0000
0000
0100
0000
0000
0000
1000
,
0000
0001
0000
0000
0000
0000
0000
0100
,
0000
0100
0000
0100
0000
0100
0000
0010
,
0000
0100
0000
0000
0000
0000
0000
0001
,
0000
0001
0000
0001
0000
0001
0000
0000
,
0000
1000
0000
0000
0000
0100
0000
0000
,
0000
0010
0000
0010
0000
0010
0000
0010
,
0000
0001
0000
0000
0000
0100
0000
0000
,
0000
0010
0000
0010
0000
0010
0000
0020
,
0000
0000
0000
0000
,
0000
0000
0000
0000
,
0000
0000
0000
0000
,
0000
0000
0000
0000
0000
0000
0030
0200
,
0000
0000
0000
0000
,
0000
0000
0000
0000
,
0000
0000
0000
0000
,
0000
0000
0000
0000
0000
0000
0000
0300
,
0001
0100
0000
0100
,
0010
1000
0000
1000
,
0001
0100
0000
0100
,
0010
1000
0001
1000
,
0001
0000
0001
0000
0001
0000
0000
1000
,
0000
1000
0000
1000
0000
0000
0001
0000
,
0000
0010
0000
0100
,
0000
0000
1000
0000
2000
3001
0000
0100
,
0000
0001
0000
0100
0000
0010
0000
0010
,
0000
0100
0000
0100
0000
0010
0000
1000
,
0000
0010
0000
1000
0000
0001
0000
0010
,
0000
0100
0000
0100
0000
1000
0000
0100
,
0000
1000
0000
0100
0000
0010
0000
0010
,
0000
0100
0000
0100
0000
0010
0000
0001
,
0000
0010
0000
0001
0000
1000
0000
0100
,
0000
0010
0000
0010
0000
0002
0000
0000
,
0000
0000
0000
0000
,
0000
0000
0000
0000
,
0000
0000
0000
0000
,
0000
0000
0000
0000
,
0000
0000
0000
0000
,
0000
0000
0000
0000
,
0000
0000
0000
0000
,
0000
0000
0000
0000
,
0000
0000
0000
0000
,
0000
0000
0000
0000
0000
0000
0000
0000
0000
0000
0000
0000
0000
0000
0000
0000
0000
0000
0000
0000
0000
0000
0000
0000
0000
0000
0000
0000
0000
0000
0000
0000
0000
0000
0000
0000
0000
0000
0000
0000
0000
0000
0000
0000
0000
0000
0000
0000
0000
0000
0000
0000
0000
0000
0000
0000
0000
0000
0000
0000
0000
0000
0000
0000
0000
0000
0000
0000
0000
0000
0000
0000
0000
0000
0000
0000
0000
0000
0000
0000
0000
0000
0000
0000
0000
0000
0000
0000
0000
0000
0000
0000
0000
0000
0000
0000
0000
0000
0000
0000
0000
0000
0000
0000
0000
0000
0000
0000
0000
0000
0000
0000
0000
0000
0000
0000
0000
0000
0000
0000
0000
0000
0000
0000
0000
0000
0000
0000
0000
0000
0000
0000
0000
0000
0000
0000
0000
0000
0000
0000
0000
0000
0000
0000
0000
0000
0000
0000
0000
0000
0000
0000
0000
0000
0000
0000
0000
0000
0000
0000
0000
0000
0000
0000
0000
0000
0000
0000
0000
0003
0000
0000
0000
0000
0000
0000
0000
0000
0000
0000
0000
0000
0000
0000
0000
0000
0000
0000
0000
0000
0000
0000
;

//---------------dance-single - ----------------
#NOTES:
     dance-single:
     :
     Hard:
     9:
     0.570037,0.809276,0.074817,0.324208,0.315895,480.000000,471.000000,9.000000,39.000000,0.000000,0.000000,0.570037,0.809276,0.074817,0.324208,0.315895,480.000000,471.000000,9.000000,39.000000,0.000000,0.000000:
0000
0000
0000
0000
,
0000
0000
0000
0000
,
0000
0000
0000
0000
,
0000
0000
0000
0000
,
1000
0010
0100
0100
,
0001
0010
0100
0100
,
0010
0001
1000
1000
,
0002
0000
0000
0000
0000
0000
0000
0000
0000
0000
0000
0000
0000
0000
0000
0000
0000
0000
1003
0001
1000
0001
0000
0000
,
0010
1000
0010
0100
1000
0100
1000
0001
,
0100
1000
0100
0010
1000
0010
1000
0001
,
0010
1000
0010
0100
1000
0001
0100
0010
,
0100
0001
0010
1000
0010
0100
1000
0001
,
0100
0000
0000
0000
0000
0000
0000
0000
0000
0000
0000
0000
0000
0000
0000
0000
0000
0000
0000
0000
0000
0000
0000
0000
0010
0000
0000
0000
0000
0000
0000
0000
0000
0000
0000
0000
0000
0000
0000
0000
0000
0000
0000
0000
0000
0000
0000
0000
0100
0000
0000
0000
0000
0000
0000
0000
0000
0000
0000
0000
0000
0000
0000
0000
0000
0000
0000
0000
0000
0000
0000
0000
0001
0000
0000
0000
0000
0000
0000
0000
0000
0000
0000
0000
0000
0000
0000
0000
0000
0000
0000
0000
0000
0000
0000
0000
1000
0000
0000
0000
0000
0000
0000
0000
0000
0000
0000
0000
0000
0000
0000
0000
0000
0000
0000
0000
0000
0000
0000
0000
2002
3003
0000
0000
0000
0000
0000
0000
0000
0000
0000
0000
0000
0000
0000
0000
0000
0000
0000
0000
0000
0000
0000
0000
1000
0000
0000
0000
0000
0000
0000
0000
0000
0000
0000
0000
0000
0000
0000
0000
0000
0000
0000
0000
0000
0000
0000
0000
0100
0000
0000
0000
0000
0000
0000
0000
0000
0000
0000
0000
0000
0000
0000
0000
0000
0000
0000
0000
0000
0000
0000
0000
,
0010
0000
0000
0000
0000
0000
0000
0000
0000
0000
0000
0000
0000
0000
0000
0000
0000
0000
0000
0000
0000
0000
0000
0000
0100
0000
0000
0000
0000
0000
0000
0000
0000
0000
0000
0000
0000
0000
0000
0000
0000
0000
0000
0000
0000
0000
0000
0000
1000
0000
0000
0000
0000
0000
0000
0000
0000
0000
0000
0000
0000
0000
0000
0000
0000
0000
0000
0000
0000
0000
0000
0000
0001
0000
0000
0000
0000
0000
0000
0000
0000
0000
0000
0000
0000
0000
0000
0000
0000
0000
0000
0000
0000
0000
0000
0000
2002
3003
0000
0000
0000
0000
0000
0000
0000
0000
0000
0000
0000
0000
0000
0000
0000
0000
0000
0000
0000
0000
0000
0000
0001
0000
0000
0000
0000
0000
0000
0000
0000
0000
0000
0000
0000
0000
0000
0000
0000
0000
0000
0000
0000
0000
0000
0000
0100
0000
0000
0000
0000
0000
0000
0000
0000
0000
0000
0000
0000
0000
0000
0000
0000
0000
0000
0000
0000
0000
0000
0000
0010
0000
0000
0000
0000
0000
0000
0000
0000
0000
0000
0000
0000
0000
0000
0000
0000
0000
0000
0000
0000
0000
0000
0000
,
0100
0001
0010
1000
0010
0001
1000
0001
,
0010
0001
0100
0001
1000
1001
0010
0000
,
0000
0200
0000
0000
0302
0013
0100
0000
,
0000
0010
0000
0000
0002
1003
0010
0000
,
0000
0200
0000
0000
0320
1030
0100
0000
,
0000
0010
0000
0000
0200
1300
0001
0000
,
0000
0200
0000
0000
0320
1030
0001
0000
,
0000
0100
0000
0000
0020
0130
0001
0000
,
0000
2000
0000
0000
3200
0310
0100
0000
,
0000
1000
0000
0001
0000
1000
0000
0001
,
0000
0000
1000
0000
0000
0001
0100
0000
0000
0100
0010
0000
0000
0010
1000
0000
,
0000
1000
0001
0000
0000
0001
0100
0000
0000
0001
0100
0000
0000
0001
0100
0000
,
0000
0001
0010
0000
0000
0010
0100
0000
0000
0010
0100
0000
0000
0100
1000
0000
,
0000
0100
1000
0000
0000
1000
0001
0000
0000
1000
0001
0000
0100
0000
0001
0000
,
1000
0000
0010
0000
0001
0000
0010
0000
0100
0000
0001
0000
1000
0001
0000
0000
,
1000
0000
0100
0000
0001
0000
0100
0000
0010
0000
0001
0000
1000
0001
0000
0000
,
1000
0010
0001
0010
0100
0001
0010
1000
,
0010
0100
0010
0001
0100
0001
1000
0001
,
1000
0000
0010
0000
0001
0000
0010
0000
0100
0000
0001
0000
1000
0001
0000
0000
,
1000
0000
0100
0000
0001
0000
0100
0000
0010
0000
0001
0000
1000
0001
1000
0000
,
0010
0100
0010
0001
0010
0100
0010
1000
,
0001
1000
0100
1000
0010
1000
0001
1000
,
0010
1000
0010
0000
0100
0010
0100
0000
0001
0100
0001
0000
0010
0000
0002
0000
,
0000
0010
0000
1000
0000
0103
0000
0001
,
0100
0001
0100
0000
0010
0100
0010
0000
1000
0010
1000
0000
0100
0000
2000
0000
,
0000
0100
0000
0001
0000
3010
0000
1000
,
0010
1000
0010
0000
1000
0001
1000
0000
0001
0100
0001
0000
0010
0000
0011
0000
,
0000
0110
0000
1010
0000
1001
0000
0001
,
0100
0001
0100
0000
0001
1000
0001
0000
1000
0000
0010
0000
0001
0000
0010
0000
,
0100
0010
1000
0100
0001
0100
0010
0001
,
0100
0000
0000
0000
0000
0000
0000
0000
0000
0010
0000
0000
0000
0100
0000
0000
0010
0000
0100
0010
0100
0020
0000
0000
,
2030
0000
0000
0000
0000
0000
0000
0000
0000
3001
0000
0000
0000
1000
0000
0000
0001
0000
1000
0001
1000
0002
0000
0000
,
0000
0000
0000
0000
0000
0000
0000
0000
0000
0103
0000
0000
0000
0001
0000
0000
0100
0000
0002
0000
0000
0103
0000
0010
,
0000
0000
0000
0000
0000
0000
0000
0000
0000
0000
0000
0000
0000
0000
0000
0000
0000
0000
0000
0000
0000
0000
0000
0000
1000
0000
0000
0000
0000
0000
0000
0000
0000
0000
0000
0000
0000
0000
0000
0000
0000
0000
0000
0000
0000
0000
0000
0000
0000
0000
0000
0000
0000
0000
0000
0000
0000
0000
0000
0000
0000
0000
0000
0000
0000
0000
0000
0000
0000
0000
0000
0000
0020
0000
0000
0000
0000
0000
0000
0000
0000
0000
0000
0000
0000
0000
0000
0000
0000
0000
0000
0000
0000
0000
0000
0000
0000
0000
0000
0000
0000
0000
0000
0000
0000
0000
0000
0000
0000
0000
0000
0000
0000
0000
0000
0000
0000
0000
0000
0000
0000
0000
0000
0000
0000
0000
0000
0000
0000
0000
0000
0000
0000
0000
0000
0000
0000
0000
0000
0000
0000
0000
0000
0000
0200
0330
0000
0000
0000
0000
0000
0000
0000
0000
0000
0000
0000
0000
0000
0000
0000
0000
0000
0000
0000
0000
0000
0000
0020
0000
0000
0000
0000
0000
0000
0000
0000
0000
0000
0000
0000
0000
0000
0000
0000
0000
0000
0000
0000
0000
0000
0000
,
0000
0000
0000
0000
0000
0000
0000
0000
0000
0130
0000
0000
0000
0010
0000
0000
0100
0000
0010
0100
0010
0200
0000
0000
,
0302
0000
0000
0000
0000
0000
0000
0000
0000
1003
0000
0000
0000
0001
0000
0000
1000
0000
0001
1000
0001
2000
0000
0000
,
0000
0000
0000
0000
0000
0000
0000
0000
0000
3100
0000
0000
0000
1000
0000
0000
0100
0000
2000
0000
0000
3200
0000
0000
,
0000
0000
0000
0000
0000
0000
0000
0000
0000
0000
0000
0000
0000
0000
0000
0000
0000
0000
0000
0000
0000
0000
0000
0000
0000
0000
0000
0000
0000
0000
0000
0000
0000
0000
0000
0000
0000
0000
0000
0000
0000
0000
0000
0000
0000
0000
0000
0000
0000
0000
0000
0000
0000
0000
0000
0000
0000
0000
0000
0000
0000
0000
0000
0000
0000
0000
0000
0000
0000
0000
0000
0000
0320
0000
0000
0000
0000
0000
0000
0000
0000
0000
0000
0000
0000
0000
0000
0000
0000
0000
0000
0000
0000
0000
0000
0000
0000
0000
0000
0000
0000
0000
0000
0000
0000
0000
0000
0000
0000
0000
0000
0000
0000
0000
0000
0000
0000
0000
0000
0000
0000
0000
0000
0000
0000
0000
0000
0000
0000
0000
0000
0000
0000
0000
0000
0000
0000
0000
0000
0000
0000
0000
0000
0000
0000
0000
0000
0000
0000
0000
0000
0000
0000
0000
0000
0000
0000
0000
0000
0000
0000
0000
0000
0000
0000
0000
0000
0000
0032
0003
0000
0000
0000
0000
0000
0000
0000
0000
0000
0000
0000
0000
0000
0000
0000
0000
0000
0000
0000
0000
0000
0000
,
1000
0000
0010
0000
0001
0000
0010
0000
1000
0000
0010
0000
0001
0000
0010
0100
,
0001
0000
0010
0000
1000
0000
0010
0000
0001
0000
0010
0000
1000
0000
0010
0100
,
1000
0010
0001
0010
1000
0100
0001
0100
,
0010
0001
0100
0010
0001
0010
1000
0100
,
0010
0000
0000
0000
0000
0000
0000
0000
0000
0000
0000
0000
0000
0000
0000
0000
0000
0000
0000
0000
0000
0000
0000
0000
0001
0000
0000
0000
0000
0000
0000
0000
0000
0000
0000
0000
0010
0000
0000
0000
0000
0000
0000
0000
0000
0000
0000
0000
0001
0000
0000
0000
0000
0000
0000
0000
0000
0000
0000
0000
0000
0000
0000
0000
0000
0000
0000
0000
0000
0000
0000
0000
0010
0000
0000
0000
0000
0000
0000
0000
0000
0000
0000
0000
0000
0000
0000
0000
0000
0000
0000
0000
0000
0000
0000
0000
0001
0000
0000
0000
0000
0000
0000
0000
0000
0000
0000
0000
0000
0000
0000
0000
0000
0000
0000
0000
0000
0000
0000
0000
0010
0000
0000
0000
0000
0000
0000
0000
0000
0000
0000
0000
0000
0000
0000
0000
0000
0000
0000
0000
0000
0000
0000
0000
0022
0033
0000
0000
0000
0000
0000
0000
0000
0000
0000
0000
0000
0000
0000
0000
0000
0000
0000
0000
0000
0000
0000
0000
0001
0000
0000
0000
0000
0000
0000
0000
0000
0000
0000
0000
1000
0000
0000
0000
0000
0000
0000
0000
0000
0000
0000
0000
,
0001
0000
0000
0000
0000
0000
0000
0000
0000
0000
0000
0000
0000
0000
0000
0000
0000
0000
0000
0000
0000
0000
0000
0000
0100
0000
0000
0000
0000
0000
0000
0000
0000
0000
0000
0000
0000
0000
0000
0000
0000
0000
0000
0000
0000
0000
0000
0000
0001
0000
0000
0000
0000
0000
0000
0000
0000
0000
0000
0000
0000
0000
0000
0000
0000
0000
0000
0000
0000
0000
0000
0000
0100
0000
0000
0000
0000
0000
0000
0000
0000
0000
0000
0000
0000
0000
0000
0000
0000
0000
0000
0000
0000
0000
0000
0000
0001
0000
0000
0000
0000
0000
0000
0000
0000
0000
0000
0000
0000
0000
0000
0000
0000
0000
0000
0000
0000
0000
0000
0000
0202
0303
0000
0000
0000
0000
0000
0000
0000
0000
0000
0000
0000
0000
0000
0000
0000
0000
0000
0000
0000
0000
0000
0000
0001
0000
0000
0000
0000
0000
0000
0000
0000
0000
0000
0000
0000
0000
0000
0000
0000
0000
0000
0000
0000
0000
0000
0000
0100
0000
0000
0000
0000
0000
0000
0000
0000
0000
0000
0000
0000
0000
0000
0000
0000
0000
0000
0000
0000
0000
0000
0000
,
0010
0100
0001
1000
0100
0010
0100
1000
,
0010
0000
0100
0000
0001
0000
0100
0000
0020
0000
1030
0100
0010
0000
0010
0001
,
0010
0000
0001
0010
0100
0000
0100
1000
0100
0000
1000
0000
0010
0000
0001
0000
,
0010
0000
1000
0000
0100
0000
0001
0000
0100
0000
1000
0010
1000
0000
0010
0100
,
0010
0000
0100
0001
0100
0000
0001
0010
0001
0000
0010
0000
0100
0000
0010
0000
,
0001
0000
1000
0000
0010
0000
0001
0000
0010
0000
0100
0001
1000
0000
1000
0100
,
1000
0000
0100
1000
0001
0000
0001
0010
0001
0000
0100
0000
0001
0000
1000
0000
,
0010
0000
0001
0000
0010
0000
0100
0000
0001
0000
1000
0100
1000
0000
0100
0010
,
0100
0000
0010
0001
0010
0000
0001
1000
0001
0000
1000
0000
0100
0000
0001
0000
,
0100
0000
1000
0001
1000
0001
1000
0001
1000
0001
1000
0000
0000
0000
0000
0000
,
0000
0000
0000
0000
,
0000
0000
0000
0000
0000
0000
0000
0002
,
0000
0000
0000
0000
,
0000
0000
0000
0000
,
0000
0000
0000
0000
,
0000
0000
0000
0000
,
0000
0000
0000
0000
,
0000
0000
0000
0000
,
0000
0000
0000
0000
,
0000
0000
0000
0000
0000
0000
0000
0000
0000
0000
0000
0000
0000
0000
0000
0000
0000
0000
0000
0000
0000
0000
0000
0000
0000
0000
0000
0000
0000
0000
0000
0000
0000
0000
0000
0000
0000
0000
0000
0000
0000
0000
0000
0000
0000
0000
0000
0000
0000
0000
0000
0000
0000
0000
0000
0000
0000
0000
0000
0000
0000
0000
0000
0000
0000
0000
0000
0000
0000
0000
0000
0000
0000
0000
0000
0000
0000
0000
0000
0000
0000
0000
0000
0000
0000
0000
0000
0000
0000
0000
0000
0000
0000
0000
0000
0000
0000
0000
0000
0000
0000
0000
0000
0000
0000
0000
0000
0000
0000
0000
0000
0000
0000
0000
0000
0000
0000
0000
0000
0000
0000
0000
0000
0000
0000
0000
0000
0000
0000
0000
0000
0000
0000
0000
0000
0000
0000
0000
0000
0000
0000
0000
0000
0000
0000
0000
0000
0000
0000
0000
0000
0000
0000
0000
0000
0000
0000
0000
0000
0000
0000
0000
0000
0000
0000
0000
0000
0000
2000
3003
0000
0000
0000
0000
0000
0000
0000
0000
0000
0000
0000
0000
0000
0000
0000
0000
0000
0000
0000
0000
0000
0000
;

//---------------dance-single - ----------------
#NOTES:
     dance-single:
     :
     Challenge:
     10:
     0.877619,1.197729,0.174574,0.390713,1.172138,739.000000,718.000000,21.000000,47.000000,8.000000,0.000000,0.877619,1.197729,0.174574,0.390713,1.172138,739.000000,718.000000,21.000000,47.000000,8.000000,0.000000:
// measure 0
0000
0000
0000
0000
,  // measure 1
0000
0000
0000
0000
,  // measure 2
0000
0000
0000
0000
,  // measure 3
0000
0000
0000
0000
,  // measure 4
1000
0000
0000
0100
0010
0000
0100
0000
0001
0000
0100
0000
1000
0000
0000
0000
,  // measure 5
0001
0000
0000
0100
0010
0000
0100
0000
1000
0000
0100
0000
0001
0000
0000
0000
,  // measure 6
0010
0000
0000
0001
1000
0000
0100
0000
0001
0000
0100
0000
1000
0000
0000
0000
,  // measure 7
0002
0000
0000
0000
0000
0000
0000
0000
0000
0000
0000
0000
0000
0000
0000
0000
0000
0000
1003
0010
0100
0001
0000
0000
,  // measure 8
1000
0100
0010
0000
0100
1000
0001
1000
0001
1000
0010
1000
0001
0100
0010
0000
,  // measure 9
0100
0001
1000
0000
0100
0010
0001
0010
0001
0010
0100
0010
0001
1000
0100
0000
,  // measure 10
0010
0001
1000
0000
0010
0100
0001
0100
0001
0100
0001
0100
0001
0100
0010
1000
,  // measure 11
0100
0010
0100
1000
0010
0100
0001
0100
0010
0100
0001
1000
0100
0010
0001
0010
,  // measure 12
0001
0000
0000
0000
0000
0000
0000
0000
0000
0000
0000
0000
0010
0000
0000
0000
0000
0000
0000
0000
0000
0000
0000
0000
0100
0000
0000
0000
0000
0000
0000
0000
0000
0000
0000
0000
0010
0000
0000
0000
0000
0000
0000
0000
0000
0000
0000
0000
0100
0000
0000
0000
0000
0000
0000
0000
0000
0000
0000
0000
0010
0000
0000
0000
0000
0000
0000
0000
0000
0000
0000
0000
0100
0000
0000
0000
0000
0000
0000
0000
0000
0000
0000
0000
1000
0000
0000
0000
0000
0000
0000
0000
0000
0000
0000
0000
0100
0000
0000
0000
0000
0000
0000
0000
0000
0000
0000
0000
1000
0000
0000
0000
0000
0000
0000
0000
0000
0000
0000
0000
2200
3300
0000
0000
0000
0000
0000
0000
0000
0000
0000
0000
0000
0000
0000
0000
0000
0000
0000
0000
0000
0000
0000
0000
1000
0000
0000
0000
0000
0000
0000
0000
0000
0000
0000
0000
0010
0000
0000
0000
0000
0000
0000
0000
0000
0000
0000
0000
1000
0000
0000
0000
0000
0000
0000
0000
0000
0000
0000
0000
0010
0000
0000
0000
0000
0000
0000
0000
0000
0000
0000
0000
,  // measure 13
0100
0000
0000
0000
0000
0000
0000
0000
0000
0000
0000
0000
0010
0000
0000
0000
0000
0000
0000
0000
0000
0000
0000
0000
0100
0000
0000
0000
0000
0000
0000
0000
0000
0000
0000
0000
0010
0000
0000
0000
0000
0000
0000
0000
0000
0000
0000
0000
0100
0000
0000
0000
0000
0000
0000
0000
0000
0000
0000
0000
0001
0000
0000
0000
0000
0000
0000
0000
0000
0000
0000
0000
0100
0000
0000
0000
0000
0000
0000
0000
0000
0000
0000
0000
0001
0000
0000
0000
0000
0000
0000
0000
0000
0000
0000
0000
0202
0303
0000
0000
0000
0000
0000
0000
0000
0000
0000
0000
0000
0000
0000
0000
0000
0000
0000
0000
0000
0000
0000
0000
0001
0000
0000
0000
0000
0000
0000
0000
0000
0000
0000
0000
1000
0000
0000
0000
0000
0000
0000
0000
0000
0000
0000
0000
0001
0000
0000
0000
0000
0000
0000
0000
0000
0000
0000
0000
1000
0000
0000
0000
0000
0000
0000
0000
0000
0000
0000
0000
0100
0000
0000
0000
0000
0000
0000
0000
0000
0000
0000
0000
1000
0000
0000
0000
0000
0000
0000
0000
0000
0000
0000
0000
,  // measure 14
0100
1000
0100
0010
0100
1000
0001
0100
0001
1000
0010
0100
0010
0000
0010
0001
,  // measure 15
0010
0000
0010
1000
0100
0010
0100
1000
0001
0100
0201
0000
1000
0000
0000
0000
,  // measure 16
0000
0320
0000
0000
2030
3200
0010
0300
,  // measure 17
0100
2000
0000
0000
3020
0230
1000
0000
,  // measure 18
0000
0320
0000
0000
0230
0301
0010
0010
,  // measure 19
0000
0200
0000
0000
2300
3200
0001
0000
,  // measure 20
0000
0320
0000
0000
0032
0203
1000
0000
,  // measure 21
0310
0000
0000
0000
2000
0000
0000
0000
0000
0000
0000
0000
0000
0000
0000
0000
3002
0000
0000
0000
1003
0100
0010
0001
1000
0000
0100
0000
0010
0000
0000
0000
,  // measure 22
0001
0000
0000
0000
2000
0000
0000
0000
0000
0000
0000
0000
0000
0000
0000
0000
3020
0000
0000
0000
1030
0010
0100
0001
1000
0000
0010
0000
0100
0000
0000
0000
,  // measure 23
0001
1000
0000
0001
0000
1000
0001
1000
,  // measure 24
0001
0000
1000
0000
0001
0100
0010
0000
1000
0010
0100
0000
0010
1000
0100
0000
,  // measure 25
1000
0100
0010
0000
0001
0010
0100
0000
0010
0100
1000
0000
0100
1000
0001
0000
,  // measure 26
1000
0010
0100
0000
0001
0100
0010
0000
0100
0010
1000
0000
0001
0010
0100
0000
,  // measure 27
0010
0001
1000
0010
1000
0010
0100
0001
0100
0001
0010
0001
1000
0001
0001
0000
,  // measure 28
0010
0000
0110
0000
0010
0001
1000
0010
0100
0010
1000
0010
0100
0001
1000
0000
,  // measure 29
0010
0000
0110
0000
0010
1000
0001
0010
0100
0010
0001
0010
0100
1000
0001
0000
,  // measure 30
1000
0010
0100
0001
0100
0010
1000
0010
0100
0001
1000
0100
0010
0100
1000
0001
,  // measure 31
0100
0010
0100
1000
0100
0010
1000
0010
0100
0010
1000
0001
0010
0100
1000
0000
,  // measure 32
0100
0000
0110
0000
0100
1000
0001
0100
0010
0100
0001
0100
0010
1000
0001
0000
,  // measure 33
0100
0000
0110
0000
0100
0001
1000
0100
0010
0100
1000
0100
0010
0001
1000
0010
,  // measure 34
0100
0001
1000
0100
0010
0001
1000
0010
0100
0001
1000
0100
0010
0001
0100
0010
,  // measure 35
0100
0000
0100
1000
0100
0000
0100
0001
0010
0100
0010
0001
1000
0010
0100
0000
,  // measure 36
0001
0010
0100
0000
0001
0100
0010
0000
0001
0100
0010
0000
0100
0000
0101
0000
,  // measure 37
0100
0110
0010
1010
1000
1001
0000
0100
,  // measure 38
1000
0010
0100
0000
1000
0100
0010
0000
1000
0100
0010
0000
0100
0000
1100
0000
,  // measure 39
0100
0110
0010
0011
0001
1001
0000
0100
,  // measure 40
0001
1000
0010
0000
0001
0010
1000
0000
0001
0010
1000
0000
0010
0000
1010
0000
,  // measure 41
0010
0000
0110
0000
0010
0000
0011
0000
0001
0000
1001
0000
0000
0000
0001
0100
,  // measure 42
0010
1000
0001
0100
0010
1000
0001
0010
0100
1000
0001
0010
0100
1000
0010
0100
,  // measure 43
0010
0000
0010
0001
0010
0000
0010
1000
0100
0010
0100
1000
0001
0100
0020
0000
,  // measure 44
0000
0000
0000
0000
0000
0000
0000
0000
0000
0130
0000
0000
0000
0010
0000
0000
1000
0000
0100
0010
0001
2000
0000
0000
,  // measure 45
3020
0000
0000
0000
0000
0000
0000
0000
0000
1030
0000
0000
0000
0010
0000
0000
0100
0000
0001
0010
0100
2000
0000
0000
,  // measure 46
0000
0000
0000
0000
0000
0000
0000
0000
0000
3001
0000
0000
0000
0010
0000
0000
0100
0000
2000
0000
0000
3200
0000
0320
,  // measure 47
0000
0000
0000
0000
0000
0000
0000
0000
0000
0000
0000
0000
0000
0000
0000
0000
0000
0000
0000
0000
0000
0000
0000
0000
0032
0000
0000
0000
0000
0000
0000
0000
0000
0000
0000
0000
0000
0000
0000
0000
0000
0000
0000
0000
0000
0000
0000
0000
0000
0000
0000
0000
0000
0000
0000
0000
0000
0000
0000
0000
0000
0000
0000
0000
0000
0000
0000
0000
0000
0000
0000
0000
2003
0000
0000
0000
0000
0000
0000
0000
0000
0000
0000
0000
0000
0000
0000
0000
0000
0000
0000
0000
0000
0000
0000
0000
0000
0000
0000
0000
0000
0000
0000
0000
0000
0000
0000
0000
0000
0000
0000
0000
0000
0000
0000
0000
0000
0000
0000
0000
0000
0000
0000
0000
0000
0000
0000
0000
0000
0000
0000
0000
0000
0000
0000
0000
0000
0000
0000
0000
0000
0000
0000
0000
0020
3030
0000
0000
0000
0000
0000
0000
0000
0000
0000
0000
0000
0000
0000
0000
0000
0000
0000
0000
0000
0000
0000
0000
0200
0000
0000
0000
0000
0000
0000
0000
0000
0000
0000
0000
0000
0000
0000
0000
0000
0000
0000
0000
0000
0000
0000
0000
,  // measure 48
0000
0000
0000
0000
0000
0000
0000
0000
0000
0310
0000
0000
0000
1000
0000
0000
0100
0000
0010
0100
1000
0002
0000
0000
,  // measure 49
0203
0000
0000
0000
0000
0000
0000
0000
0000
0310
0000
0000
0000
0100
0000
0000
0001
0000
1000
0100
0010
0002
0000
0000
,  // measure 50
0000
0000
0000
0000
0000
0000
0000
0000
0000
0000
0000
0000
0000
0000
0000
0000
0000
0000
0000
0000
0000
0000
0000
0000
0000
0000
0000
0000
0000
0000
0000
0000
0000
0000
0000
0000
0000
0000
0000
0000
0000
0000
0000
0000
0000
0000
0000
0000
0000
0000
0000
0000
0000
0000
0000
0000
0000
0000
0000
0000
0000
0000
0000
0000
0000
0000
0000
0000
0000
0000
0000
0000
0103
0000
0000
0000
0000
0000
0000
0000
0000
0000
0000
0000
0000
0000
0000
0000
0000
0000
0000
0000
0000
0000
0000
0000
0000
0000
0000
0000
0000
0000
0000
0000
0001
0000
0000
0000
0000
0000
0000
0000
0000
0000
0000
0000
0000
0000
0000
0000
0000
0000
0000
0000
0000
0000
0000
0000
1000
0000
0000
0000
0000
0000
0000
0000
0000
0000
0000
0000
0000
0000
0000
0000
0020
0000
0000
0000
0000
0000
0000
0000
0000
0000
0000
0000
0000
0000
0000
0000
0000
0000
0000
0000
0000
0000
0000
0000
0130
0000
0000
0000
0000
0000
0010
0000
0000
0000
0000
0000
0100
0000
0000
0000
0000
0000
0010
0000
0000
0000
0000
0000
,  // measure 51
0100
0000
0000
0000
0000
0000
0000
0000
0000
0000
0000
0000
0010
0000
0000
0000
0000
0000
0000
0000
0000
0000
0000
0000
0100
0000
0000
0000
0000
0000
0000
0000
0000
0000
0000
0000
0000
0000
0000
0000
0000
0000
0000
0000
0000
0000
0000
0000
0010
0000
0000
0000
0000
0000
0000
0000
0000
0000
0000
0000
0000
0000
0000
0000
0000
0000
0000
0000
0000
0000
0000
0000
0200
0000
0000
0000
0000
0000
0000
0000
0000
0000
0000
0000
0000
0000
0000
0000
0000
0000
0000
0000
0000
0000
0000
0000
0000
0000
0000
0000
0000
0000
0000
0000
0000
0000
0000
0000
0000
0000
0000
0000
0000
0000
0000
0000
0000
0000
0000
0000
0000
0000
0000
0000
0000
0000
0000
0000
0000
0000
0000
0000
0000
0000
0000
0000
0000
0000
0000
0000
0000
0000
0000
0000
0000
0000
0000
0000
0000
0000
0000
0000
0000
0000
0000
0000
0000
0000
0000
0000
0000
0000
0000
0000
0000
0000
0000
0000
0020
0330
0000
0000
0000
0000
0000
0000
0000
0000
0000
0000
0000
0000
0000
0000
0000
0000
0000
0000
0000
0000
0000
0000
,  // measure 52
1000
0100
0010
0100
1000
0010
0100
0010
1000
0100
0010
1000
0010
0100
1000
0010
,  // measure 53
MMMM
0000
0010
0100
0001
0010
0100
0010
0001
0100
0010
0001
0010
0100
0001
0010
,  // measure 54
MMMM
0000
0001
1000
0010
0100
0001
0010
0100
0010
0001
1000
0010
0100
0010
1000
,  // measure 55
0100
0010
0100
1000
0010
0100
0001
0100
0010
1000
0001
0100
0010
1000
0010
0100
,  // measure 56
0001
0000
0000
0000
0000
0000
0000
0000
0000
0000
0000
0000
0000
0000
0000
0000
0000
0000
0000
0000
0000
0000
0000
0000
0010
0000
0000
0000
0000
0000
0000
0000
0000
0000
0000
0000
0100
0000
0000
0000
0000
0000
0000
0000
0000
0000
0000
0000
1000
0000
0000
0000
0000
0000
0000
0000
0000
0000
0000
0000
0000
0000
0000
0000
0000
0000
0000
0000
0000
0000
0000
0000
0100
0000
0000
0000
0000
0000
0000
0000
0000
0000
0000
0000
0000
0000
0000
0000
0000
0000
0000
0000
0000
0000
0000
0000
0001
0000
0000
0000
0000
0000
0000
0000
0000
0000
0000
0000
0000
0000
0000
0000
0000
0000
0000
0000
0000
0000
0000
0000
0100
0000
0000
0000
0000
0000
0000
0000
0000
0000
0000
0000
0000
0000
0000
0000
0000
0000
0000
0000
0000
0000
0000
0000
2002
3003
0000
0000
0000
0000
0000
0000
0000
0000
0000
0000
0000
0000
0000
0000
0000
0000
0000
0000
0000
0000
0000
0000
1000
0000
0000
0000
0000
0000
0000
0000
0000
0000
0000
0000
0010
0000
0000
0000
0000
0000
0000
0000
0000
0000
0000
0000
,  // measure 57
0100
0000
0000
0000
0000
0000
0000
0000
0000
0000
0000
0000
0000
0000
0000
0000
0000
0000
0000
0000
0000
0000
0000
0000
0001
0000
0000
0000
0000
0000
0000
0000
0000
0000
0000
0000
0000
0000
0000
0000
0000
0000
0000
0000
0000
0000
0000
0000
0100
0000
0000
0000
0000
0000
0000
0000
0000
0000
0000
0000
0000
0000
0000
0000
0000
0000
0000
0000
0000
0000
0000
0000
1000
0000
0000
0000
0000
0000
0000
0000
0000
0000
0000
0000
0000
0000
0000
0000
0000
0000
0000
0000
0000
0000
0000
0000
0100
0000
0000
0000
0000
0000
0000
0000
0000
0000
0000
0000
0000
0000
0000
0000
0000
0000
0000
0000
0000
0000
0000
0000
2002
3003
0000
0000
0000
0000
0000
0000
0000
0000
0000
0000
0000
0000
0000
0000
0000
0000
0000
0000
0000
0000
0000
0000
0001
0000
0000
0000
0000
0000
0000
0000
0000
0000
0000
0000
0010
0000
0000
0000
0000
0000
0000
0000
0000
0000
0000
0000
0001
0000
0000
0000
0000
0000
0000
0000
0000
0000
0000
0000
0010
0000
0000
0000
0000
0000
0000
0000
0000
0000
0000
0000
,  // measure 58
0100
0010
0100
0010
1000
0010
1000
0010
0100
0010
0100
0010
0001
0100
0010
0100
,  // measure 59
1000
0000
0100
0000
0010
0000
0100
0000
0001
0000
0010
0000
0100
0000
0010
0000
0001
1000
0010
0100
0001
0000
0100
0000
1000
0000
0000
0000
0100
0000
0001
0000
,  // measure 60
1000
0000
0001
0010
1000
0000
0010
0001
1000
0000
0010
1000
0010
1000
0010
0100
,  // measure 61
0010
0100
0001
0100
0001
0100
0001
1000
0001
0000
1000
0010
0100
0000
0010
0100
,  // measure 62
0001
0000
0010
0001
0100
0000
0010
1000
0100
0000
1000
0100
0010
0100
1000
0100
,  // measure 63
0010
0000
0001
0010
0100
0010
0001
0010
0100
0000
1000
0100
0001
0000
0100
1000
,  // measure 64
0001
0000
1000
0010
0001
0000
0010
1000
0001
0000
0010
0001
0010
0001
0010
0100
,  // measure 65
0010
0100
1000
0100
1000
0100
1000
0001
1000
0001
1000
0100
0010
0100
1000
0100
,  // measure 66
0010
0100
1000
0010
0100
0010
1000
0010
0100
0010
1000
0100
0010
0100
0001
0100
,  // measure 67
0010
0000
0000
0100
0000
0000
1000
0000
0010
0000
1000
0000
0010
0000
0100
0000
0010
0000
0100
0000
0001
0000
0100
0000
0001
0000
1000
0000
0001
0000
1000
0000
0000
0000
0000
0000
0000
0000
0000
0000
0000
0000
0000
0000
0000
0000
0000
0000
,  // measure 68
0000
0000
0000
0000
,  // measure 69
0000
0000
0000
0000
0000
0000
0000
0002
,  // measure 70
0000
0000
0000
0000
,  // measure 71
0000
0000
0000
0000
,  // measure 72
0000
0000
0000
0000
,  // measure 73
0000
0000
0000
0000
,  // measure 74
0000
0000
0000
0000
,  // measure 75
0000
0000
0000
0000
,  // measure 76
0000
0000
0000
0000
,  // measure 77
0000
0000
0000
0000
0000
0000
0000
0000
0000
0000
0000
0000
0000
0000
0000
0000
0000
0000
0000
0000
0000
0000
0000
0000
0000
0000
0000
0000
0000
0000
0000
0000
0000
0000
0000
0000
0000
0000
0000
0000
0000
0000
0000
0000
0000
0000
0000
0000
0000
0000
0000
0000
0000
0000
0000
0000
0000
0000
0000
0000
0000
0000
0000
0000
0000
0000
0000
0000
0000
0000
0000
0000
0000
0000
0000
0000
0000
0000
0000
0000
0000
0000
0000
0000
0000
0000
0000
0000
0000
0000
0000
0000
0000
0000
0000
0000
0000
0000
0000
0000
0000
0000
0000
0000
0000
0000
0000
0000
0000
0000
0000
0000
0000
0000
0000
0000
0000
0000
0000
0000
0000
0000
0000
0000
0000
0000
0000
0000
0000
0000
0000
0000
0000
0000
0000
0000
0000
0000
0000
0000
0000
0000
0000
0000
0000
0000
0000
0000
0000
0000
0000
0000
0000
0000
0000
0000
0000
0000
0000
0000
0000
0000
0000
0000
0000
0000
0000
0000
2000
3003
0000
0000
0000
0000
0000
0000
0000
0000
0000
0000
0000
0000
0000
0000
0000
0000
0000
0000
0000
0000
0000
0000
;

//---------------dance-single - ----------------
#NOTES:
     dance-single:
     :
     Medium:
     7:
     0.413277,0.582679,0.166261,0.390713,0.000000,348.000000,328.000000,20.000000,47.000000,0.000000,0.000000,0.413277,0.582679,0.166261,0.390713,0.000000,348.000000,328.000000,20.000000,47.000000,0.000000,0.000000:
0000
0000
0000
0000
,
0000
0000
0000
0000
,
0000
0000
0000
0000
,
0000
0000
0000
0000
,
0002
0010
1000
1000
,
0203
0001
0010
0010
,
0320
1000
0100
0130
,
0220
0000
0000
0000
0000
0000
0330
1000
,
0000
0100
1000
0010
1000
0001
0100
0001
,
0000
0100
0001
0010
0001
1000
0100
1000
,
0000
0001
1000
0010
0100
0010
0100
0001
,
0010
0001
0100
0010
1000
0100
1000
0001
,
0000
0000
0000
0000
0000
0000
0000
0000
0000
0000
0000
0000
0000
0000
0000
0000
0000
0000
0000
0000
0000
0000
0000
0000
1000
0000
0000
0000
0000
0000
0000
0000
0000
0000
0000
0000
0000
0000
0000
0000
0000
0000
0000
0000
0000
0000
0000
0000
0010
0000
0000
0000
0000
0000
0000
0000
0000
0000
0000
0000
0000
0000
0000
0000
0000
0000
0000
0000
0000
0000
0000
0000
0100
0000
0000
0000
0000
0000
0000
0000
0000
0000
0000
0000
0000
0000
0000
0000
0000
0000
0000
0000
0000
0000
0000
0000
0001
0000
0000
0000
0000
0000
0000
0000
0000
0000
0000
0000
0000
0000
0000
0000
0000
0000
0000
0000
0000
0000
0000
0000
0200
0300
0000
0000
0000
0000
0000
0000
0000
0000
0000
0000
0000
0000
0000
0000
0000
0000
0000
0000
0000
0000
0000
0000
0001
0000
0000
0000
0000
0000
0000
0000
0000
0000
0000
0000
0000
0000
0000
0000
0000
0000
0000
0000
0000
0000
0000
0000
0000
0000
0000
0000
0000
0000
0000
0000
0000
0000
0000
0000
0000
0000
0000
0000
0000
0000
0000
0000
0000
0000
0000
0000
,
1000
0000
0000
0000
0000
0000
0000
0000
0000
0000
0000
0000
0000
0000
0000
0000
0000
0000
0000
0000
0000
0000
0000
0000
0100
0000
0000
0000
0000
0000
0000
0000
0000
0000
0000
0000
0000
0000
0000
0000
0000
0000
0000
0000
0000
0000
0000
0000
0010
0000
0000
0000
0000
0000
0000
0000
0000
0000
0000
0000
0000
0000
0000
0000
0000
0000
0000
0000
0000
0000
0000
0000
0001
0000
0000
0000
0000
0000
0000
0000
0000
0000
0000
0000
0000
0000
0000
0000
0000
0000
0000
0000
0000
0000
0000
0000
0020
0030
0000
0000
0000
0000
0000
0000
0000
0000
0000
0000
0000
0000
0000
0000
0000
0000
0000
0000
0000
0000
0000
0000
0001
0000
0000
0000
0000
0000
0000
0000
0000
0000
0000
0000
0000
0000
0000
0000
0000
0000
0000
0000
0000
0000
0000
0000
0010
0000
0000
0000
0000
0000
0000
0000
0000
0000
0000
0000
0000
0000
0000
0000
0000
0000
0000
0000
0000
0000
0000
0000
0100
0000
0000
0000
0000
0000
0000
0000
0000
0000
0000
0000
0000
0000
0000
0000
0000
0000
0000
0000
0000
0000
0000
0000
,
1000
0010
1000
0001
0100
0101
0000
0110
,
0000
1010
0000
1000
0001
2000
0000
0000
,
0000
3002
0000
0000
0000
0023
0000
0000
,
0000
0230
0000
0000
0000
0320
0000
0000
,
0000
0032
0000
0000
0000
2003
0000
0000
,
0000
3020
0000
0000
0000
2030
0000
0000
,
0000
3002
0000
0000
0000
0203
0000
0000
,
0000
0320
0000
0000
0000
0230
0000
0000
,
0000
0302
0000
0000
0000
2003
0000
0000
,
0000
3002
0000
0000
0000
0000
0000
0000
,
0000
1003
0000
0010
0000
0001
0000
0010
,
0000
0100
0000
0001
0000
0001
0000
0001
,
0000
1000
0000
0100
0000
0100
0000
0010
,
0000
0010
0000
0001
0000
1000
0000
0001
,
0010
0001
0010
0100
1000
0100
0010
0001
,
0100
0001
0100
0010
1000
0010
0100
0001
,
1000
0010
1000
0001
0100
0001
0100
0010
,
0100
0001
0010
0100
0010
0001
1000
0001
,
0100
0001
0100
0010
1000
0010
0100
0001
,
0010
0001
0010
0100
1000
0100
0010
0001
,
0100
0010
1000
0010
0100
0001
0100
0110
,
0000
1010
0000
1001
0000
1100
0000
1000
,
0000
0100
0000
0001
0000
0010
0000
1000
,
0000
0100
0000
0001
0000
0100
0000
1000
,
0000
0010
0000
0001
0000
0100
0000
1000
,
0000
0010
0000
0001
0000
0010
0000
1000
,
0000
0100
0000
0010
0000
0001
0000
0011
,
0000
1100
0000
0011
0000
1100
0000
1000
,
0001
1000
0001
0100
0010
0100
0010
1010
,
0000
0110
0000
0011
0000
1001
0000
2000
,
0000
0000
0000
3200
0000
0000
0000
0320
,
0000
0000
0000
0032
0000
0000
0000
0203
,
0000
0000
0000
0320
0000
0000
0000
2030
,
0000
0000
0000
0000
0000
0000
0000
0000
0000
0000
0000
0000
0000
0000
0000
0000
0000
0000
0000
0000
0000
0000
0000
0000
0000
0000
0000
0000
0000
0000
0000
0000
0000
0000
0000
0000
0000
0000
0000
0000
0000
0000
0000
0000
0000
0000
0000
0000
0000
0000
0000
0000
0000
0000
0000
0000
0000
0000
0000
0000
0000
0000
0000
0000
0000
0000
0000
0000
0000
0000
0000
0000
3002
0000
0000
0000
0000
0000
0000
0000
0000
0000
0000
0000
0000
0000
0000
0000
0000
0000
0000
0000
0000
0000
0000
0000
0000
0000
0000
0000
0000
0000
0000
0000
0000
0000
0000
0000
0000
0000
0000
0000
0000
0000
0000
0000
0000
0000
0000
0000
0000
0000
0000
0000
0000
0000
0000
0000
0000
0000
0000
0000
0000
0000
0000
0000
0000
0000
0000
0000
0000
0000
0000
0000
2003
3000
0000
0000
0000
0000
0000
0000
0000
0000
0000
0000
0000
0000
0000
0000
0000
0000
0000
0000
0000
0000
0000
0000
0002
0000
0000
0000
0000
0000
0000
0000
0000
0000
0000
0000
0000
0000
0000
0000
0000
0000
0000
0000
0000
0000
0000
0000
,
0000
0000
0000
2003
0000
0000
0000
3020
,
0000
0000
0000
2030
0000
0000
0000
3002
,
0000
0000
0000
0203
0000
0000
0000
0320
,
0000
0000
0000
0000
0000
0000
0000
0000
0000
0000
0000
0000
0000
0000
0000
0000
0000
0000
0000
0000
0000
0000
0000
0000
0000
0000
0000
0000
0000
0000
0000
0000
0000
0000
0000
0000
0000
0000
0000
0000
0000
0000
0000
0000
0000
0000
0000
0000
0000
0000
0000
0000
0000
0000
0000
0000
0000
0000
0000
0000
0000
0000
0000
0000
0000
0000
0000
0000
0000
0000
0000
0000
0230
0000
0000
0000
0000
0000
0000
0000
0000
0000
0000
0000
0000
0000
0000
0000
0000
0000
0000
0000
0000
0000
0000
0000
0000
0000
0000
0000
0000
0000
0000
0000
0000
0000
0000
0000
0000
0000
0000
0000
0000
0000
0000
0000
0000
0000
0000
0000
0000
0000
0000
0000
0000
0000
0000
0000
0000
0000
0000
0000
0000
0000
0000
0000
0000
0000
0000
0000
0000
0000
0000
0000
0000
0000
0000
0000
0000
0000
0000
0000
0000
0000
0000
0000
0000
0000
0000
0000
0000
0000
0000
0000
0000
0000
0000
0000
0320
0030
0000
0000
0000
0000
0000
0000
0000
0000
0000
0000
0000
0000
0000
0000
0000
0000
0000
0000
0000
0000
0000
0000
,
1000
0000
0100
0000
0001
0100
0001
0100
,
0010
0000
0001
0000
1000
0001
1000
0001
,
1000
0010
0100
0001
1000
0010
0100
0010
,
1000
0100
0010
0001
1000
0100
0010
0100
,
1000
0000
0000
0000
0000
0000
0000
0000
0000
0000
0000
0000
0000
0000
0000
0000
0000
0000
0000
0000
0000
0000
0000
0000
0001
0000
0000
0000
0000
0000
0000
0000
0000
0000
0000
0000
0000
0000
0000
0000
0000
0000
0000
0000
0000
0000
0000
0000
0100
0000
0000
0000
0000
0000
0000
0000
0000
0000
0000
0000
0000
0000
0000
0000
0000
0000
0000
0000
0000
0000
0000
0000
0001
0000
0000
0000
0000
0000
0000
0000
0000
0000
0000
0000
0000
0000
0000
0000
0000
0000
0000
0000
0000
0000
0000
0000
1000
0000
0000
0000
0000
0000
0000
0000
0000
0000
0000
0000
0000
0000
0000
0000
0000
0000
0000
0000
0000
0000
0000
0000
0010
0000
0000
0000
0000
0000
0000
0000
0000
0000
0000
0000
0000
0000
0000
0000
0000
0000
0000
0000
0000
0000
0000
0000
2000
3000
0000
0000
0000
0000
0000
0000
0000
0000
0000
0000
0000
0000
0000
0000
0000
0000
0000
0000
0000
0000
0000
0000
0001
0000
0000
0000
0000
0000
0000
0000
0000
0000
0000
0000
0000
0000
0000
0000
0000
0000
0000
0000
0000
0000
0000
0000
,
1000
0000
0000
0000
0000
0000
0000
0000
0000
0000
0000
0000
0000
0000
0000
0000
0000
0000
0000
0000
0000
0000
0000
0000
0100
0000
0000
0000
0000
0000
0000
0000
0000
0000
0000
0000
0000
0000
0000
0000
0000
0000
0000
0000
0000
0000
0000
0000
1000
0000
0000
0000
0000
0000
0000
0000
0000
0000
0000
0000
0000
0000
0000
0000
0000
0000
0000
0000
0000
0000
0000
0000
0001
0000
0000
0000
0000
0000
0000
0000
0000
0000
0000
0000
0000
0000
0000
0000
0000
0000
0000
0000
0000
0000
0000
0000
0010
0000
0000
0000
0000
0000
0000
0000
0000
0000
0000
0000
0000
0000
0000
0000
0000
0000
0000
0000
0000
0000
0000
0000
0002
0003
0000
0000
0000
0000
0000
0000
0000
0000
0000
0000
0000
0000
0000
0000
0000
0000
0000
0000
0000
0000
0000
0000
0010
0000
0000
0000
0000
0000
0000
0000
0000
0000
0000
0000
0000
0000
0000
0000
0000
0000
0000
0000
0000
0000
0000
0000
0100
0000
0000
0000
0000
0000
0000
0000
0000
0000
0000
0000
0000
0000
0000
0000
0000
0000
0000
0000
0000
0000
0000
0000
,
0010
0001
0010
0100
1000
0001
0100
0010
,
1000
0010
0100
0010
2000
3001
0010
1000
,
0010
0001
0010
1000
0010
0001
0000
0101
,
0000
0010
0000
1010
0000
1000
0010
0100
,
0010
0001
0010
0100
0010
1000
0100
0010
,
0001
0100
0010
0100
0001
1000
0100
0001
,
0100
1000
0100
0001
0100
1000
0000
1010
,
0000
0100
0000
0101
0000
0001
0010
1000
,
0001
0100
0010
0001
0100
1000
0100
0010
,
0100
1000
0100
0001
1000
0002
0000
0000
,
0000
0000
0000
0000
,
0000
0000
0000
0000
0000
0000
0000
2003
,
0000
0000
0000
0000
,
0000
0000
0000
0000
,
0000
0000
0000
0000
,
0000
0000
0000
0000
,
0000
0000
0000
0000
,
0000
0000
0000
0000
,
0000
0000
0000
0000
,
0000
0000
0000
0000
0000
0000
0000
0000
0000
0000
0000
0000
0000
0000
0000
0000
0000
0000
0000
0000
0000
0000
0000
0000
0000
0000
0000
0000
0000
0000
0000
0000
0000
0000
0000
0000
0000
0000
0000
0000
0000
0000
0000
0000
0000
0000
0000
0000
0000
0000
0000
0000
0000
0000
0000
0000
0000
0000
0000
0000
0000
0000
0000
0000
0000
0000
0000
0000
0000
0000
0000
0000
0000
0000
0000
0000
0000
0000
0000
0000
0000
0000
0000
0000
0000
0000
0000
0000
0000
0000
0000
0000
0000
0000
0000
0000
0000
0000
0000
0000
0000
0000
0000
0000
0000
0000
0000
0000
0000
0000
0000
0000
0000
0000
0000
0000
0000
0000
0000
0000
0000
0000
0000
0000
0000
0000
0000
0000
0000
0000
0000
0000
0000
0000
0000
0000
0000
0000
0000
0000
0000
0000
0000
0000
0000
0000
0000
0000
0000
0000
0000
0000
0000
0000
0000
0000
0000
0000
0000
0000
0000
0000
0000
0000
0000
0000
0000
0000
0002
3003
0000
0000
0000
0000
0000
0000
0000
0000
0000
0000
0000
0000
0000
0000
0000
0000
0000
0000
0000
0000
0000
0000
;

//---------------dance-single - ----------------
#NOTES:
     dance-single:
     :
     Easy:
     5:
     0.287394,0.550308,0.199513,0.216139,0.000000,242.000000,218.000000,24.000000,26.000000,0.000000,0.000000,0.287394,0.550308,0.199513,0.216139,0.000000,242.000000,218.000000,24.000000,26.000000,0.000000,0.000000:
0000
0000
0000
0000
,
0000
0000
0000
0000
,
0000
0000
0000
0000
,
0000
0000
0000
0000
,
0001
0001
1000
1000
,
0100
0100
0010
0010
,
0100
1000
0001
0001
,
2000
0000
0000
0000
0000
0000
3000
0001
,
0000
0100
0000
0010
0000
0010
0000
1000
,
0000
0100
0000
0010
0000
0010
0000
0100
,
0000
1000
0000
0001
0000
0001
0000
0100
,
0000
0100
0000
0010
0000
0010
0000
1000
,
0000
0001
0000
1000
0000
1001
0010
0000
,
0100
0000
0010
0000
0110
1000
0000
0010
,
0000
1000
0000
0010
0000
0100
0000
0001
,
0000
1000
0000
0001
0000
2000
0000
0000
,
0000
3000
0000
0000
0000
0002
0000
0003
,
0000
0000
0000
0000
0000
0200
0000
0000
,
0000
0300
0000
0000
0000
0020
0000
0030
,
0000
0000
0000
0000
0000
0200
0000
0000
,
0000
0300
0000
0000
0000
0002
0000
0003
,
0000
0000
0000
0000
0000
0020
0000
0000
,
0000
0030
0000
0000
0000
0200
0000
0000
,
0000
2300
0000
0000
0000
0000
0000
0000
,
0000
3001
0000
0001
0000
1000
0000
0100
,
0000
0100
0000
0010
0000
0010
0000
0010
,
0000
0001
0000
1000
0000
1000
0000
0100
,
0000
0100
0000
0010
0000
0100
0000
1000
,
0000
0001
0000
0100
0000
0010
0100
0010
,
0000
1000
0000
0100
0000
0010
0000
0001
,
0000
0010
0000
0100
0000
0010
0000
0001
,
0000
1000
0000
0001
0000
0001
0000
1000
,
0000
0010
0000
0100
0000
0010
0100
0010
,
0000
1000
0000
0100
0000
0010
0000
0001
,
0000
0010
0000
0100
0000
0010
0000
0001
,
0000
1000
0000
0001
0000
0001
0000
1000
,
0000
1010
0000
0100
0000
0101
0000
0001
,
0000
0100
0000
0010
0000
1000
0000
0001
,
0000
0101
0000
0010
0000
1010
0000
1000
,
0000
0010
0000
0100
0000
0001
0000
0011
,
0000
0110
0000
1100
0000
0110
0000
1001
,
0000
1001
0000
0110
0000
0110
0000
1000
,
0000
1000
0000
0001
0000
0001
0000
0100
,
0000
0010
0000
1000
0000
0001
0000
2000
,
0000
0000
0000
0000
0000
0000
0000
3002
,
0003
0000
0000
0000
0000
0000
0000
0200
,
0000
0000
0000
0000
0000
0000
0300
0010
,
0000
0000
0000
0000
0000
0000
0000
0000
0000
0000
0000
0000
0000
0000
0000
0000
0000
0000
0000
0000
0000
0000
0000
0000
0000
0000
0000
0000
0000
0000
0000
0000
0000
0000
0000
0000
0000
0000
0000
0000
0000
0000
0000
0000
0000
0000
0000
0000
0000
0000
0000
0000
0000
0000
0000
0000
0000
0000
0000
0000
0000
0000
0000
0000
0000
0000
0000
0000
0000
0000
0000
0000
0000
0000
0000
0000
0000
0000
0000
0000
0000
0000
0000
0000
0000
0000
0000
0000
0000
0000
0000
0000
0000
0000
0000
0000
0000
0000
0000
0000
0000
0000
0000
0000
0000
0000
0000
0000
0000
0000
0000
0000
0000
0000
0000
0000
0000
0000
0000
0000
0000
0000
0000
0000
0000
0000
0000
0000
0000
0000
0000
0000
0000
0000
0000
0000
0000
0000
0000
0000
0000
0000
0000
0000
0200
0300
0000
0000
0000
0000
0000
0000
0000
0000
0000
0000
0000
0000
0000
0000
0000
0000
0000
0000
0000
0000
0000
0000
0200
0000
0000
0000
0000
0000
0000
0000
0000
0000
0000
0000
0000
0000
0000
0000
0000
0000
0000
0000
0000
0000
0000
0000
,
0000
0000
0000
0000
0000
0000
0000
0320
,
0030
0000
0000
0000
0000
0000
0000
2000
,
0000
0000
0000
0000
0000
0000
3000
0002
,
0000
0000
0000
0000
0000
0000
0000
0000
0000
0000
0000
0000
0000
0000
0000
0000
0000
0000
0000
0000
0000
0000
0000
0000
0000
0000
0000
0000
0000
0000
0000
0000
0000
0000
0000
0000
0000
0000
0000
0000
0000
0000
0000
0000
0000
0000
0000
0000
0000
0000
0000
0000
0000
0000
0000
0000
0000
0000
0000
0000
0000
0000
0000
0000
0000
0000
0000
0000
0000
0000
0000
0000
0000
0000
0000
0000
0000
0000
0000
0000
0000
0000
0000
0000
0000
0000
0000
0000
0000
0000
0000
0000
0000
0000
0000
0000
0000
0000
0000
0000
0000
0000
0000
0000
0000
0000
0000
0000
0000
0000
0000
0000
0000
0000
0000
0000
0000
0000
0000
0000
0000
0000
0000
0000
0000
0000
0000
0000
0000
0000
0000
0000
0000
0000
0000
0000
0000
0000
0000
0000
0000
0000
0000
0000
0000
0000
0000
0000
0000
0000
0000
0000
0000
0000
0000
0000
0000
0000
0000
0000
0000
0000
0000
0000
0000
0000
0000
0000
2003
3000
0000
0000
0000
0000
0000
0000
0000
0000
0000
0000
0000
0000
0000
0000
0000
0000
0000
0000
0000
0000
0000
0000
,
0001
0010
1000
1000
,
0010
0001
0100
0100
,
1000
0100
0010
1000
,
0100
0010
0100
0010
,
0001
0000
0000
0000
0000
0000
0000
0000
0000
0000
0000
0000
0000
0000
0000
0000
0000
0000
0000
0000
0000
0000
0000
0000
0000
0000
0000
0000
0000
0000
0000
0000
0000
0000
0000
0000
0000
0000
0000
0000
0000
0000
0000
0000
0000
0000
0000
0000
0100
0000
0000
0000
0000
0000
0000
0000
0000
0000
0000
0000
0000
0000
0000
0000
0000
0000
0000
0000
0000
0000
0000
0000
0000
0000
0000
0000
0000
0000
0000
0000
0000
0000
0000
0000
0000
0000
0000
0000
0000
0000
0000
0000
0000
0000
0000
0000
0010
0000
0000
0000
0000
0000
0000
0000
0000
0000
0000
0000
0000
0000
0000
0000
0000
0000
0000
0000
0000
0000
0000
0000
0000
0000
0000
0000
0000
0000
0000
0000
0000
0000
0000
0000
0000
0000
0000
0000
0000
0000
0000
0000
0000
0000
0000
0000
2020
3030
0000
0000
0000
0000
0000
0000
0000
0000
0000
0000
0000
0000
0000
0000
0000
0000
0000
0000
0000
0000
0000
0000
1000
0000
0000
0000
0000
0000
0000
0000
0000
0000
0000
0000
0000
0000
0000
0000
0000
0000
0000
0000
0000
0000
0000
0000
,
0000
0000
0000
0000
0000
0000
0000
0000
0000
0000
0000
0000
0000
0000
0000
0000
0000
0000
0000
0000
0000
0000
0000
0000
0100
0000
0000
0000
0000
0000
0000
0000
0000
0000
0000
0000
0000
0000
0000
0000
0000
0000
0000
0000
0000
0000
0000
0000
0000
0000
0000
0000
0000
0000
0000
0000
0000
0000
0000
0000
0000
0000
0000
0000
0000
0000
0000
0000
0000
0000
0000
0000
0010
0000
0000
0000
0000
0000
0000
0000
0000
0000
0000
0000
0000
0000
0000
0000
0000
0000
0000
0000
0000
0000
0000
0000
0000
0000
0000
0000
0000
0000
0000
0000
0000
0000
0000
0000
0000
0000
0000
0000
0000
0000
0000
0000
0000
0000
0000
0000
0022
0033
0000
0000
0000
0000
0000
0000
0000
0000
0000
0000
0000
0000
0000
0000
0000
0000
0000
0000
0000
0000
0000
0000
0001
0000
0000
0000
0000
0000
0000
0000
0000
0000
0000
0000
0000
0000
0000
0000
0000
0000
0000
0000
0000
0000
0000
0000
0000
0000
0000
0000
0000
0000
0000
0000
0000
0000
0000
0000
0000
0000
0000
0000
0000
0000
0000
0000
0000
0000
0000
0000
,
0010
1000
0100
0001
,
0010
0000
0100
0000
2000
3001
1000
0001
,
0000
0100
0000
0010
0000
1000
0010
1000
,
0000
0010
0000
0100
0000
1010
0000
1100
,
0000
0110
0000
0011
0000
1000
0000
0001
,
0000
1000
0000
0001
0000
1000
0001
1000
,
0000
0100
0000
0010
0000
0001
0010
0001
,
0000
0010
0000
0100
0000
0011
0000
0101
,
0000
0110
0000
1010
0000
1000
0000
0001
,
0000
1000
0001
1000
0001
1000
0000
0000
,
0000
0000
0000
0000
,
0000
0000
0000
0000
0000
0000
0000
0002
,
0000
0000
0000
0000
,
0000
0000
0000
0000
,
0000
0000
0000
0000
,
0000
0000
0000
0000
,
0000
0000
0000
0000
,
0000
0000
0000
0000
,
0000
0000
0000
0000
,
0000
0000
0000
0000
0000
0000
0000
0000
0000
0000
0000
0000
0000
0000
0000
0000
0000
0000
0000
0000
0000
0000
0000
0000
0000
0000
0000
0000
0000
0000
0000
0000
0000
0000
0000
0000
0000
0000
0000
0000
0000
0000
0000
0000
0000
0000
0000
0000
0000
0000
0000
0000
0000
0000
0000
0000
0000
0000
0000
0000
0000
0000
0000
0000
0000
0000
0000
0000
0000
0000
0000
0000
0000
0000
0000
0000
0000
0000
0000
0000
0000
0000
0000
0000
0000
0000
0000
0000
0000
0000
0000
0000
0000
0000
0000
0000
0000
0000
0000
0000
0000
0000
0000
0000
0000
0000
0000
0000
0000
0000
0000
0000
0000
0000
0000
0000
0000
0000
0000
0000
0000
0000
0000
0000
0000
0000
0000
0000
0000
0000
0000
0000
0000
0000
0000
0000
0000
0000
0000
0000
0000
0000
0000
0000
0000
0000
0000
0000
0000
0000
0000
0000
0000
0000
0000
0000
0000
0000
0000
0000
0000
0000
0000
0000
0000
0000
0000
0000
2000
3003
0000
0000
0000
0000
0000
0000
0000
0000
0000
0000
0000
0000
0000
0000
0000
0000
0000
0000
0000
0000
0000
0000
;
