#TITLE:Star Scat;
#SUBTITLE:;
#ARTIST:Caravan Palace;
#TITLETRANSLIT:;
#SUBTITLETRANSLIT:;
#ARTISTTRANSLIT:;
#CREDIT:;
#BANNER:Star Scat.png;
#BACKGROUND:Star Scat-bg.png;
#LYRICSPATH:;
#CDTITLE:;
#MUSIC:[ROUND E] - Star Scat.ogg;
#OFFSET:-0.039;
#SAMPLESTART:39.527;
#SAMPLELENGTH:12.308;
#SELECTABLE:YES;
#BPMS:0.000=78.000,20.000=156.000,76.000=78.000,80.000=156.000,192.000=78.000,208.000=156.000,263.000=100.000,263.333=78.000,263.667=56.000,264.000=34.000;
#STOPS:;
#BGCHANGES:;

//---------------dance-single - ----------------
#NOTES:
     dance-single:
     :
     Hard:
     9:
     0.731,0.933,0.234,0.075,1.000:
0000
0000
0000
0000
,
1000
0000
1000
0100
0000
0100
1000
0000
1000
0010
0000
0010
1000
0000
0000
0000
0000
1010
0000
0000
0000
0000
0000
0000
,
0001
0000
0001
0100
0000
0100
0001
0000
0001
0010
0000
0010
0001
0000
0001
0000
0000
0011
0000
0000
0000
0000
0000
0000
,
1001
0000
0001
0100
0000
0010
1000
0000
0001
0100
0000
0010
1000
0000
0000
0000
0000
1001
0000
0000
0000
0000
0000
0000
,
1001
0000
1000
0100
0000
0010
0001
0000
1000
0100
0000
0010
0001
0000
0001
0000
0000
1001
0000
0000
0000
0000
0000
0000
,
0001
0100
0010
0100
0000
0100
0010
0000
0010
1000
0000
1000
,
0100
0010
0001
0010
0000
0100
1000
0000
1000
0100
1000
0100
,
0010
0000
0010
0001
0000
0001
0100
0000
0100
0010
1000
0010
,
0100
0000
0100
0010
0000
0010
1000
0000
1000
0001
1000
0001
,
1000
0100
0010
0001
0010
0100
1000
0100
0010
0001
0000
0001
,
0100
0001
1000
0010
1000
0010
1000
0100
0010
0001
0010
0100
,
0010
0000
0010
0001
0000
0001
0100
0000
0100
0010
1000
0010
,
0100
0000
0100
0001
0000
0001
1000
0000
1001
0000
0000
0000
,
1000
0010
0100
0001
0000
0001
0100
0000
0100
0010
1000
0010
,
0100
0001
0010
0001
0000
0001
0010
0000
0010
0100
1000
0100
,
0010
0000
0010
0001
0000
0001
1000
0000
1000
0010
0100
0001
,
0010
0000
0100
1000
0000
1000
0010
0000
0010
0100
0000
0100
,
0001
0010
0100
1000
0000
1000
0100
0000
0010
0001
0000
0001
,
0010
0100
1000
0001
0010
0100
1000
0000
1000
0100
1000
0001
,
0100
0000
0100
0010
0000
0010
1000
0000
1000
0001
0000
0001
0100
0000
0100
0010
0000
0000
1010
0000
1000
0010
0000
0100
,
0001
0000
0001
0010
0000
0011
0000
0000
0010
0100
0000
0100
,
1000
0000
1000
0010
0000
1010
0000
0000
0010
0100
0000
0100
,
0001
0000
0001
0100
0000
1000
0100
0000
0001
0100
0000
1000
,
0010
0000
0001
0010
0000
1010
0000
0000
1000
0010
0000
0010
,
0001
0000
0001
0100
0000
0101
0000
0000
0010
1000
0000
2010
,
0000
0000
0000
0000
0000
0001
0000
0000
3001
0100
0000
0100
,
1000
0000
1000
0100
0000
0100
0001
0000
0001
0010
0000
0010
,
0001
0000
0000
0100
0000
0000
0010
0000
0000
1000
0000
0000
0010
0000
0000
0100
0000
0000
0000
0000
0100
0000
0000
0000
0001
0000
0000
0000
0100
0000
0000
0000
0001
0000
0000
0000
0100
0000
0000
0000
0010
0000
0000
0000
1000
0000
0000
0000
,
0010
0100
0001
0010
0000
1100
0000
0000
1000
0100
0010
0001
,
0100
0010
0100
0001
0000
0101
0000
0000
0001
0100
0010
1000
,
0020
0000
0000
0130
0000
0100
0001
0010
0100
1000
0000
1000
,
0100
0000
0100
0010
0000
0010
0001
0000
0011
0000
0000
1001
,
0000
0000
0001
0100
0000
0100
1000
0000
1000
0100
0000
0100
,
0001
0000
0001
0010
0000
0010
1000
0000
1000
0010
0000
0010
,
0001
0000
0100
0010
0000
1000
0001
0000
0100
0010
0000
1000
,
0001
0000
0000
1000
0000
0000
0001
0000
0000
0000
0000
0000
1000
0000
0000
0000
0000
0000
0000
0000
1000
0000
0000
0000
0001
0000
0000
0000
0000
0000
0000
0000
0001
0000
0000
0000
0100
0000
0000
0000
0010
0000
0000
0000
0100
0000
0000
0000
,
0001
0000
0010
0000
0000
0100
1000
0000
1000
0001
0000
0001
,
0100
0000
0100
0010
0000
0010
1000
0000
1000
0001
0100
0001
,
0100
0000
0000
0010
0000
1000
0100
0000
0001
0100
0000
0000
,
2000
0000
3010
0000
0000
0002
0000
0000
0013
0100
0000
1000
,
0010
0100
0001
0010
0100
1000
0010
0100
0001
0020
0000
0031
,
0100
0000
0100
1000
0000
1000
0100
0000
0100
0001
0000
0001
,
1000
0000
1000
0100
0000
0110
0000
0000
0010
0001
0000
0001
,
1000
0000
1000
0001
0000
0001
0010
0000
0010
0001
0000
0001
,
0100
0010
1000
0010
0100
0001
0010
0100
1000
0010
0100
0001
,
0010
0000
0000
0000
0000
0000
0000
0000
0010
0000
0000
0000
0001
0000
0000
0000
0000
0000
0000
0000
0001
0000
0000
0000
0010
0000
0000
0000
0000
0000
0000
0000
0100
0000
0000
0000
1000
0000
0000
0100
0000
0000
1000
0000
0000
0100
0000
0000
,
1000
0000
0010
0100
0000
0100
0001
0000
0001
1000
0000
1000
,
0010
0000
0010
0000
0000
0100
0010
0000
1000
0000
0000
0000
,
1001
0000
0000
0000
0000
0000
1000
0000
0000
0000
0001
0000
1000
0000
0000
0000
0001
0000
1000
0001
0000
0000
0000
0000
0010
0000
0000
0000
0100
0000
0001
0000
0000
0000
0010
0000
1000
0000
0000
0000
1000
0000
0001
1000
0000
0000
0000
0000
,
0010
0000
0100
1000
0000
1000
0010
0000
0010
0100
0000
0100
0001
0000
0001
0010
0000
0010
0100
0000
1100
0000
0000
0100
,
1000
0000
0000
0000
1000
0000
0100
0000
0000
0000
0100
0000
0010
0000
0000
0000
0010
0000
0001
0010
0000
0000
0000
0000
0010
0000
0000
0000
0100
0000
1000
0000
0000
0000
0010
0000
0001
0000
0000
0000
0011
0000
0000
0000
0000
0000
0001
0000
,
0010
0000
0100
1000
0000
1000
0010
0000
0100
0001
0000
0000
1002
0000
0100
0100
0000
0010
0010
0000
1000
1000
0003
0001
,
0100
0000
0100
0010
0000
0010
0100
0000
0100
0001
1000
0100
,
0010
0000
0010
0001
0000
0001
0010
0000
0010
0001
1000
0010
,
0100
0000
0010
0000
0000
0010
1000
0000
1001
0000
0000
0110
,
0000
0000
0100
0001
0010
0100
1000
0010
0100
0001
0010
0100
,
1000
0000
0000
0000
0000
0000
0000
0000
0010
0000
0000
0000
0000
0000
0000
0000
0010
0000
0000
0000
1000
0000
0000
0000
0100
0000
0000
0000
0010
0000
0000
0000
0001
0000
0000
0000
0010
0000
0000
0100
0000
0000
0010
0000
0000
0000
0000
0000
,
0000
0001
0100
0001
1000
0001
0010
0000
0010
0100
0000
0100
,
0000
0000
1100
0000
0000
1000
0100
0000
0010
0000
0000
0011
,
0000
0000
0101
0000
0000
0001
0100
0010
1000
0100
0010
0001
,
0100
1000
0100
0001
0000
0001
0010
0000
0010
0100
1000
0100
,
0010
0001
0010
0100
0000
0100
0000
0000
0000
0000
2002
0000
,
0000
0000
0000
0000
3003
0000
0000
0000
0010
0001
0010
0000
0000
0000
0000
0000
0000
0000
0000
0000
0000
0000
0100
1000
,
0100
1000
0100
1000
0100
1000
0100
1000
0100
1000
0100
1000
0100
0010
0001
0020
0000
0000
0000
0000
0000
0000
0000
0000
,
0000
0000
0000
0000
,
0000
0000
0000
0030
;

//---------------dance-single - Copied from----------------
#NOTES:
     dance-single:
     Copied from:
     Challenge:
     8:
     0.657,0.905,0.200,0.092,1.000:
0000
0000
0000
0000
,
1000
0000
1000
0100
0000
0100
1000
0000
1000
0010
0000
0010
1000
0000
0000
0000
0000
1010
0000
0000
0000
0000
0000
0000
,
0001
0000
0001
0100
0000
0100
0001
0000
0001
0010
0000
0010
0001
0000
0001
0000
0000
0011
0000
0000
0000
0000
0000
0000
,
1001
0000
0001
0100
0000
0010
1000
0000
0001
0100
0000
0010
1000
0000
0000
0000
0000
1001
0000
0000
0000
0000
0000
0000
,
1001
0000
1000
0100
0000
0010
0001
0000
1000
0100
0000
0010
0001
0000
0001
0000
0000
1001
0000
0000
0000
0000
0000
0000
,
0001
0100
0010
0100
0000
0100
0010
0000
0010
1000
0000
1000
,
0100
0010
0001
0010
0000
0100
1000
0000
1000
0100
1000
0100
,
0010
0000
0010
0001
0000
0001
0100
0000
0100
0010
1000
0010
,
0100
0000
0100
0010
0000
0010
1000
0000
1000
0001
0000
0001
,
1000
0100
0010
0001
0000
0001
1000
0000
1000
0001
0000
0001
,
0100
0001
1000
0010
1000
0010
1000
0100
0010
0001
0010
0100
,
0010
0000
0010
0001
0000
0001
0100
0000
0100
0010
0000
0010
,
0100
0000
0100
0001
0000
0001
1000
0000
MMMM
0000
0000
0000
,
1000
0010
0100
0001
0000
0001
0100
0000
0100
0010
0000
0010
,
0100
0001
0010
0001
0000
0001
0010
0000
0010
0100
1000
0100
,
0010
0000
0010
0001
0000
0001
1000
0000
1000
0010
0100
0001
,
0010
0000
0100
1000
0000
1000
0010
0000
0010
0100
0000
0100
,
0001
0010
0100
1000
0000
1000
0100
0000
0010
0001
0000
0001
,
0010
0100
1000
0001
0010
0100
1000
0000
1000
0100
1000
0001
,
0100
0000
0100
0010
0000
0010
1000
0000
1000
0001
0000
0001
0100
0000
0100
0010
0000
0000
1010
0000
1000
0010
0000
0100
,
0001
0000
0001
0010
0000
0011
0000
0000
0010
0100
0000
0100
,
1000
0000
1000
0010
0000
1010
0000
0000
0010
0100
0000
0100
,
0001
0000
0001
0100
0000
1000
0100
0000
0001
0100
0000
1000
,
0010
0000
0001
0010
0000
MMMM
0000
0000
1000
0010
0000
0010
,
0001
0000
0001
0100
0000
0101
0000
0000
0010
1000
0000
2010
,
0000
0000
0000
0000
0000
0001
0000
0000
3001
0100
0000
0100
,
1000
0000
1000
0100
0000
0100
0001
0000
0001
0010
0000
0010
,
0001
0000
0001
0100
0000
0100
0001
0100
0001
0100
0010
1000
,
0010
0000
0001
0010
0000
1100
0000
0000
1000
0100
0000
0001
,
0100
0000
0100
0001
0000
0101
0000
0000
0001
0100
0000
0100
,
0020
0000
0000
0130
0000
0100
0001
0010
0100
1000
0000
1000
,
0200
0000
0000
0000
0300
0010
0001
0000
MMMM
0000
0000
1001
,
0000
0000
0001
0100
0000
0100
1000
0000
1000
0100
0000
0100
,
0001
0000
0001
0010
0000
0010
1000
0000
1000
0010
0000
0010
,
0001
0000
0100
0010
0000
1000
0001
0000
0100
0010
0000
1000
,
0001
0000
0001
1000
0000
1000
0001
0000
0001
0100
0010
0100
,
0001
0000
0010
0000
0000
0100
1000
0000
1000
0001
0000
0001
,
0100
0000
0100
0010
0000
0010
1000
0000
1000
0001
0100
0001
,
0100
0000
0000
0010
0000
1000
0100
0000
0001
0100
0000
0000
,
2000
0000
3010
0000
0000
0002
0000
0000
0013
0100
0000
1000
,
0010
0100
0001
0010
0100
1000
0010
0100
0001
0020
0000
0031
,
0100
0000
0100
1000
0000
2000
0000
0000
3001
0100
0000
0001
,
1000
0000
1000
0100
0000
0110
0000
0000
0010
0001
0000
0001
,
1000
0000
0000
0000
0000
1000
0010
0000
0010
0001
0000
0001
,
0100
0010
1000
0010
0100
0001
0010
0000
MMMM
0000
0000
0001
,
0010
0000
0000
0000
0000
0000
0000
0000
0010
0000
0000
0000
0001
0000
0000
0000
0000
0000
0000
0000
0001
0000
0000
0000
0010
0000
0000
0000
0000
0000
0000
0000
0100
0000
0000
0000
1000
0000
0000
0100
0000
0000
1000
0000
0000
0100
0000
0000
,
1000
0000
0010
0100
0000
MMMM
0000
0000
0010
1000
0000
1000
,
0010
0000
0010
0000
0000
0100
0010
0000
1000
0000
0000
0000
,
1001
0000
0000
1000
0000
1000
0001
0000
0001
1000
0000
0000
0010
0000
0100
0001
0000
0010
1000
0000
0100
0001
0000
0001
,
0010
0000
0100
1000
0000
1000
0010
0000
0010
0100
0000
0100
0001
0000
0001
0010
0000
0010
0100
0000
1100
0000
0000
0100
,
1000
0000
1000
0100
0000
0100
0010
0000
0010
0001
0000
0000
0010
0000
0100
1000
0000
0010
0001
0000
0011
0000
0000
0001
,
0010
0000
0100
1000
0000
1000
0010
0000
0100
0000
0000
2002
3000
0000
0100
0100
0000
0010
0010
0000
1000
1000
0003
0001
,
0100
0000
0100
0010
0000
0010
0100
0000
0100
0001
1000
0100
,
0000
0000
0010
0001
0000
0001
0010
0000
0010
0001
1000
0010
,
0100
0000
0010
0000
0000
0010
1000
0000
1001
0000
0000
0110
,
0000
0000
0100
0001
0000
0001
1000
0000
1000
0010
0000
0010
,
1000
0000
0010
0000
0010
1000
0100
0010
0001
0010
0001
0000
,
MMMM
0000
0100
0001
0000
0001
0010
0000
0010
0100
0000
0100
,
1000
0000
0100
0000
0000
1000
0100
0000
0010
0000
0000
0011
,
0000
0000
0101
0000
0000
0001
0100
0010
1000
0100
0010
0001
,
0100
1000
0100
0001
0000
0001
0010
0000
0010
0100
0000
0100
,
1000
0000
1000
0010
0000
MMMM
0000
0000
0000
0000
2002
0000
,
0000
0000
0000
0000
,
0000
0000
0000
0000
,
0000
0000
0000
0000
,
0000
0000
0000
3003
;

//---------------dance-single - ----------------
#NOTES:
     dance-single:
     :
     Medium:
     7:
     0.557,0.713,0.117,0.092,0.947:
0000
0000
0000
0000
,
1000
0000
0100
0010
0000
0000
0001
0000
0100
0010
0000
0000
1001
0000
0000
0000
0000
1001
0000
0000
0000
0000
0000
0000
,
0001
0000
0010
0100
0000
0000
1000
0000
0010
0100
0000
0000
0110
0000
0000
0000
0000
0110
0000
0000
0000
0000
0000
0000
,
0010
0000
1000
0100
0000
0000
0010
0000
0001
0100
0000
0000
0101
0000
0000
0000
0000
1010
0000
0000
0000
0000
0000
0000
,
0100
0000
0010
1000
0000
0000
0100
0000
0010
0001
0000
0000
0011
0000
0000
0000
0000
1100
0000
0000
0000
0000
0000
0000
,
1000
0000
0010
0100
0000
0100
0001
0000
0001
0010
0000
0010
,
0100
0000
0100
1000
0000
1000
0010
0000
0010
0100
0000
0100
,
0001
0000
0001
0010
0000
0010
0100
0000
0100
1000
0000
1000
,
0100
0000
0100
0010
0000
0010
0001
0000
0001
0010
0000
0010
,
0200
0000
0000
1300
0000
1000
0010
0000
0010
0100
0000
0100
,
0001
0000
0001
1000
0000
1000
0010
0000
0010
1000
0000
1000
,
0001
0000
0001
0100
0000
0001
1000
0000
1000
0100
0000
1000
,
0001
0000
0000
0002
0000
0000
0100
0000
0103
0000
0000
0000
,
1000
0000
1000
0010
0000
0010
0100
0000
0100
0001
0000
0001
,
1000
0000
1000
0001
0000
0001
0010
0000
0010
0001
0000
0001
,
0100
0000
0100
0010
0000
0010
0100
0000
0100
0001
0000
0001
,
0010
0000
0010
0100
0000
0100
1000
0000
1000
0010
0000
0010
,
0100
0000
0100
0001
0000
0001
0100
0000
0100
0010
0000
0010
,
1000
0000
1000
0100
0000
0010
0001
0000
1000
0100
0000
0010
,
0001
0000
0001
0100
0000
0100
0010
0000
0010
1000
0000
1000
0100
0000
0000
0010
0000
0000
0001
0000
0001
0100
0000
0001
,
1000
0000
1000
0100
0000
0001
0000
0000
0001
0100
0000
0100
,
1000
0000
1000
0010
0000
0010
0000
0000
0010
0100
0000
0100
,
0000
0000
0001
0010
0000
0010
1000
0000
1000
0010
0000
0010
,
0001
0000
0001
0100
0000
0100
0000
0000
0100
0010
0000
0010
,
1000
0000
1000
0010
0000
0010
0000
0000
0100
0001
0000
0002
,
0000
0000
0000
0000
0000
0013
0000
0000
0100
1000
0000
1000
,
0100
0000
0010
0000
0000
0010
0001
0000
0001
0010
0000
0010
,
0100
0000
0100
1000
0000
1000
0100
0000
0010
0001
0000
0001
,
1000
0000
1000
0100
0000
0100
0000
0000
0100
0010
0000
0010
,
0001
0000
0001
0010
0000
0010
0000
0000
0010
0100
0000
0100
,
2000
0000
0000
3000
0000
1000
0010
0000
0010
0100
0000
0100
,
0002
0000
0000
0003
0000
0100
0010
0000
1000
0000
0000
0100
,
0000
0000
0010
0001
0000
0010
0000
0000
0100
1000
0000
1000
,
0010
0000
0010
0100
0000
0100
0000
0000
0100
0001
0000
0001
,
0010
0000
0010
0001
0000
0001
1000
0000
1000
0010
0000
0010
,
1000
0000
1000
0001
0000
0001
0100
0000
0100
0001
0000
0001
,
1000
0000
1000
0000
0000
1000
0010
0000
0010
1000
0000
1000
,
0001
0000
0001
0000
0000
1000
0000
0000
0100
1000
0000
1000
,
0000
0000
0000
0002
0000
0103
0000
0000
0100
0001
0000
0000
,
2000
0000
3100
0000
0000
1000
0100
0000
0100
0010
0000
0010
,
0100
0000
0100
1000
0000
1000
0010
0000
0010
0100
0000
0100
,
0001
0000
0001
1000
0000
0001
0000
0000
0001
0100
0000
0100
,
0001
0000
0001
1000
0000
1000
0000
0000
1000
0001
0000
0001
,
0010
0000
0000
0000
0000
0010
0100
0000
0100
1000
0000
1000
,
0100
0000
0100
0001
0000
0001
0100
0000
1000
0000
0000
1000
,
0010
0000
0010
0100
0000
0100
0001
0000
0001
0010
0000
0010
,
0100
0000
0100
1000
0000
1000
0000
0000
1000
0010
0000
0010
,
0100
0000
0001
0000
0000
0001
0010
0000
0100
0000
0000
0000
,
1000
0000
0000
0010
0000
0000
0100
0000
0001
0100
0000
0000
0010
0000
1000
0100
0000
0000
0010
0000
0001
0000
0000
0001
,
0100
0000
0100
0010
0000
0010
1000
0000
1000
0100
0000
0100
0010
0000
0010
0001
0000
0002
0000
0000
1000
0003
0000
0000
,
1000
0000
0001
0100
0000
0100
0001
0000
0001
0100
0000
0000
0100
0000
0100
0010
0000
0010
1000
0000
0100
0000
0000
0010
,
0000
0000
0100
0000
0000
1000
0010
0000
0100
0000
0000
0002
0000
0000
0000
0000
0000
0000
0000
0000
0000
0000
0000
0000
,
1003
0000
0000
0100
0000
0000
0010
0000
0000
0001
0100
0001
,
0000
0010
0100
1000
,
0010
0000
0100
0000
0000
0010
0001
0000
0010
0000
0000
1100
,
0000
0000
0000
1000
0000
0010
0100
0000
0000
0001
0000
0100
,
0010
0000
1000
0100
0000
0100
0010
0000
0010
0001
0010
0100
,
0000
0000
0000
1100
0000
1000
0010
0000
0000
0101
0000
0001
,
0010
0000
0100
0000
0000
1000
0100
0000
0010
0000
0000
0001
,
0000
0000
0001
0100
0000
0100
0010
0000
1010
0000
0000
0000
,
1000
0001
1000
0001
0000
1000
0100
0000
0100
0010
0000
0010
,
0001
0000
0001
0100
0000
0110
0000
0000
0000
0000
2002
0000
,
0000
0000
0000
0000
,
0000
0000
0000
0000
,
0000
0000
0000
0000
,
0000
0000
0000
3003
;

//---------------dance-single - ----------------
#NOTES:
     dance-single:
     :
     Easy:
     4:
     0.337,0.604,0.100,0.117,0.121:
0000
0000
0000
0000
,
1000
0000
0000
0100
0000
0000
0001
0000
0000
0100
0000
0000
1000
0000
0000
0000
0000
1000
0000
0000
0000
0000
0000
0000
,
0001
0000
0000
0100
0000
0000
1000
0000
0000
0100
0000
0000
0001
0000
0000
0000
0000
0001
0000
0000
0000
0000
0000
0000
,
1000
0000
0000
0100
0000
0000
0010
0000
0000
0001
0000
0000
1000
0000
0000
0000
0000
1000
0000
0000
0000
0000
0000
0000
,
0001
0000
0000
0010
0000
0000
0100
0000
0000
1000
0000
0000
0001
0000
0000
0000
0000
0001
0000
0000
0000
0000
0000
0000
,
0002
0103
1000
0010
,
0200
0301
0010
0100
,
1000
1000
0010
0010
,
0100
0000
0000
0100
0000
0000
0001
0000
0001
0000
0000
0000
,
0002
0013
0100
1000
,
0020
0130
0001
0010
,
0100
1000
0100
0001
,
0100
0000
0000
1000
0000
0000
0010
0000
0010
0000
0000
0000
,
2000
3100
0010
0001
,
0002
0013
0100
1000
,
0010
0010
0100
0100
,
0001
0000
0000
0100
0000
0000
0010
0000
0010
0000
0000
0000
,
0200
0301
0010
1000
,
0010
0001
0100
0010
,
1000
0100
0010
0001
1000
0100
0010
0010
,
0001
0100
0000
0010
,
1000
0100
0000
0100
,
0010
0001
0100
1000
,
0010
0000
0000
0001
0000
0001
0000
0000
0000
0010
0000
0000
,
1000
0000
0000
0100
0000
0000
0000
0000
0000
0100
0000
0010
,
0000
0000
0000
0000
0000
0010
0000
0000
0000
0010
0000
0000
,
0001
0000
0001
0000
0000
0000
1000
0000
0000
0100
0000
0000
,
1000
0010
0100
0001
,
0010
0100
0000
1000
,
0010
0100
0000
0100
,
0001
0000
0001
0010
,
1000
0000
0000
0010
0000
0000
0001
0000
0001
0000
0000
0100
,
0000
0010
0000
0010
,
1000
0001
0000
0001
,
0100
0010
1000
0010
,
0200
0301
0020
1030
,
1000
0000
1000
0000
0000
0000
0010
0000
0000
0001
0000
0000
,
0100
0000
0001
0000
0000
0001
0000
0000
0000
0010
0000
0000
,
1000
0000
0000
0010
0000
0010
0000
0000
0000
0001
0000
0000
,
0001
0000
0000
0100
0000
0010
0000
0000
0000
1000
0000
0000
,
0010
0100
0001
0010
,
0100
2000
0000
3100
,
0010
0001
0000
0001
,
0100
0000
0100
0001
,
0010
0100
1000
0100
,
0010
0001
0100
0020
,
1030
0000
0000
1000
0000
1000
0000
0000
0000
0100
0000
0000
,
0010
0000
0010
0000
0000
0000
0001
0000
0001
0000
0000
0000
,
1001
0100
0010
0100
1001
0100
0010
0100
,
0101
0100
0010
1000
1100
1000
0100
0010
,
0101
0100
0010
1000
1010
1000
0010
0100
,
0002
0000
0100
0000
0000
0000
0100
0000
0000
0000
0000
0100
0000
0000
0000
0000
0000
0000
0000
0000
0000
0003
0000
0000
,
1000
0100
0001
0100
,
1001
0010
0001
0010
,
1001
1000
0100
0010
,
0011
0100
0010
1000
,
1010
0000
0000
0010
0000
0000
0100
0000
0000
0001
0000
0001
,
0000
0011
0100
1000
,
0100
0000
0000
0010
0000
0000
0001
0000
0100
0000
0000
0000
,
0010
0000
0000
1000
0000
0000
1000
0000
1000
0000
0000
0000
,
0100
0001
0010
0100
,
1000
0000
1000
0100
0000
0100
0000
0000
0000
0000
2002
0000
,
0000
0000
0000
0000
,
0000
0000
0000
0000
,
0000
0000
0000
0000
,
0000
0000
0000
3003
;

//---------------dance-single - ----------------
#NOTES:
     dance-single:
     :
     Beginner:
     2:
     0.157,0.219,0.008,0.042,0.004:
0000
0000
0000
0000
,
1000
1000
1000
0000
,
0001
0001
0001
0000
,
0100
0100
0100
0000
,
0010
0010
0010
0000
,
1000
0000
0000
0000
,
0001
0000
0000
0000
,
0010
0000
0010
0000
,
0100
0000
0100
0000
,
1000
0000
0000
0000
,
0001
0000
0000
0000
,
0100
0000
0010
0000
,
1000
1000
1000
0000
,
0001
0000
0001
0000
,
0100
0000
0100
0000
,
0010
0000
0010
0000
,
1000
0000
1000
0000
,
0010
0000
0000
0000
,
0100
0000
0000
0000
,
0001
0001
0001
0001
,
1000
1000
0000
0000
,
0100
0100
0000
0000
,
0010
0000
0001
0000
,
0100
0100
0000
0000
,
0010
0010
0000
0000
,
0000
0000
1000
0000
,
1000
0000
0100
0000
,
0010
0000
0001
0001
,
0001
0001
0000
0000
,
0010
0010
0000
0000
,
0100
0000
1000
0000
,
0100
0000
0000
0000
0000
0000
0020
0000
0030
0000
0000
0000
,
0001
0001
0000
0000
,
0010
0010
0000
0000
,
0100
0100
0000
0000
,
0010
0010
0000
0000
,
1000
0000
0010
0000
,
0001
0000
0010
0000
,
1000
1000
0000
0100
,
0010
0000
0010
0000
,
0001
0001
0001
0001
,
0001
0001
0000
0000
,
0100
0100
0000
0000
,
0010
0000
0010
0000
,
1000
0000
0000
0000
,
0100
0000
0000
0000
,
0010
0000
0000
0000
,
0001
0000
0001
0000
,
0001
0000
0100
0000
,
0010
0000
0100
0000
,
0001
0000
0010
0000
,
0200
0000
2000
0000
,
3300
0100
0000
0010
,
0000
0001
0000
0100
,
0000
0010
0000
0100
,
0000
0001
0000
0010
,
0000
0100
0000
1000
,
0000
0100
0000
0010
,
0000
0001
0000
0100
,
0000
0010
0000
1000
,
0001
1000
0001
1000
,
0001
0000
0000
1000
0000
0000
0000
0000
0000
0000
2002
0000
,
0000
0000
0000
0000
,
0000
0000
0000
0000
,
0000
0000
0000
0000
,
0000
0000
0000
3003
;

//---------------dance-double - ----------------
#NOTES:
     dance-double:
     :
     Hard:
     9:
     0.749,1.000,0.292,0.042,1.000:
00000000
00000000
00000000
00000000
,
10000000
00000000
10000000
01000000
00000000
01000000
00010000
00000000
00010000
00001000
00000000
00001000
00000100
00000000
00000000
00000000
00000000
00000101
00000000
00000000
00000000
00000000
00000000
00000000
,
00000001
00000000
00000001
00000100
00000000
00000100
00001000
00000000
00001000
00010000
00000000
00010000
01000000
00000000
01000000
00000000
00000000
11000000
00000000
00000000
10000000
00010000
00000000
10000000
,
00100000
00000000
00100000
00010000
00000000
00010000
00001000
00000000
00001000
00000010
00000000
00000010
00000001
00000000
00000000
00000000
00000000
00000011
00000000
00000000
00000000
00000000
00000000
00000001
,
00000010
00000000
00000010
00001000
00000000
00001000
00010000
00000000
00010000
00100000
00000000
00100000
10000000
00000000
10000000
00000000
00000000
10100000
00000000
00000000
00000000
00000000
00000000
00000000
,
10000000
01000000
00100000
00010000
00000000
00010000
00100000
00000000
00100000
00001000
00000000
00001000
,
00010000
00000100
00001000
00000010
00000000
00000010
00000100
00000000
00000100
00000001
00000010
00000100
,
00001000
00000000
00001000
00000100
00000000
00000100
00010000
00000000
00010000
00100000
10000000
00100000
,
10000000
00000000
10000000
01000000
00000000
01000000
00100000
00000000
00110000
00000000
00000000
00100000
,
00001000
00010000
00001000
00000100
00000000
00000100
00000010
00000000
00000010
00001000
00000000
00001000
,
00000001
00000010
00000100
00000010
00000001
00000010
00000100
00000000
00000010
00001000
00010000
00001000
,
00010000
00000000
00010000
00100000
00000000
00100000
00010000
00000000
00010000
00001000
00000000
00001000
,
00000010
00000000
00000010
00001000
00000000
00001000
00010000
00000000
00011000
00000000
00000000
00000000
,
00001000
00000100
00000010
00000001
00000000
00000001
00000010
00000000
00000100
00001000
00000000
00001000
,
00010000
00100000
01000000
00100000
00000000
00100000
10000000
00010000
00100000
01000000
00100000
00010000
,
00100000
00000000
00100000
00001000
00000000
00001000
00000100
00000000
00000100
00000001
00000000
00000001
,
00000100
00000010
00000100
00001000
00000000
00001000
00010000
00000000
00011000
00000000
00000000
00010000
,
00100000
10000000
00100000
00010000
00000000
00010000
00001000
00000000
00001000
00000100
00000000
00000100
,
00000001
00000010
00001000
00000010
00000001
00000100
00001000
00010000
00000000
00011000
00000000
00001000
,
00000100
00000000
00000100
00001000
00000000
00100000
00010000
00000000
00000100
00001000
00000000
00100000
00010000
00000000
00000100
00001000
00000000
00000000
00011000
00000000
00010000
00100000
00000000
00100000
,
10000000
00000000
10000000
01000000
00000000
01000000
00010000
00000000
00010000
00001000
00000000
00001000
,
00000100
00000000
00000100
00000001
00000000
00000001
00000010
00000000
00000010
00001000
00000000
00001000
,
00010000
00000000
00100000
10000000
00000000
00100000
00010000
00000000
00100000
10000000
00000000
10000000
,
01000000
00000000
01000000
00010000
00000000
00011000
00000000
00000000
00001000
00000100
00000000
00000100
,
00000001
00000000
00000001
00000100
00000000
00001001
00000000
00000000
00000001
00000010
00000000
00002002
,
00000000
00000000
00000000
00003003
00000000
00000110
00000000
00000000
00000001
00000100
00000000
00000010
,
00001000
00000000
00010000
00000000
00000000
00010000
00100000
00000000
00100000
00010000
00000000
00010000
,
10000000
00000000
00000000
01000000
00000000
00000000
10000000
00000000
00000000
00100000
00000000
00000000
01000000
00000000
00000000
00000000
00000000
00000000
00000000
00000000
00100000
00000000
00000000
00000000
10000000
00000000
00000000
00000000
01000000
00000000
00000000
00000000
00010000
00000000
00000000
00000000
00001000
00000000
00000000
00000000
00000100
00000000
00000000
00000000
00000001
00000000
00000000
00000000
,
00000100
00000000
00000100
00001000
00000000
00001100
00000000
00000000
00001000
00000100
00000000
00000100
,
00000010
00000000
00000010
00000001
00000000
00000011
00000000
00000000
00000001
00000100
00000000
00000100
,
00000010
00000000
00000010
00001000
00000100
00001000
00010000
00001000
00000100
00000010
00000001
00000010
,
00000100
00000000
00000100
00001000
00000000
00001000
00010000
00000000
00011000
00000000
00000000
00100000
,
01000000
10000000
01000000
00100000
00010000
00100000
00000000
00000000
00010000
00001000
00000100
00000001
,
00000100
00001000
00000100
00000001
00000100
00000010
00000000
00000000
00000010
00000001
00000000
00000001
,
00001000
00000000
00001000
00000010
00000000
00000010
00010000
00000000
00010000
00001000
00000000
00001000
,
00100000
00000000
00000000
00010000
00000000
00000000
10000000
00000000
00000000
00010000
00000000
00000000
00100000
00000000
00000000
00000000
00000000
00000000
01000000
00000000
00000000
10000000
00000000
00000000
00010000
00000000
00000000
10000000
00000000
00000000
01000000
00000000
00000000
00000000
00000000
00000000
00100000
00000000
00000000
00000000
00010000
00000000
00000000
00000000
01000000
00000000
00000000
00000000
,
00100000
00000000
10100000
00000000
00000000
10000000
01000000
00000000
01000000
00010000
00000000
00010000
,
00001000
00000000
00001000
00000100
00000000
00000101
00000000
00000000
00000001
00000100
00000001
00000100
,
00001000
00000000
00000000
00110000
00000000
01010000
00000000
00000000
01000000
00001000
00000000
00000000
,
00001010
00000000
00001100
00000000
00000000
00001001
00000000
00000000
00000001
00000100
00000000
00000100
,
00000010
00001000
00010000
00001000
00100000
00010000
01000000
00100000
10000000
01000000
00100000
00010000
,
00100000
00001000
00000100
00001000
00010000
00001000
00000000
00000000
00000010
00000001
00000000
00000001
,
00001000
00000000
00001000
00000100
00000000
00001100
00000000
00000000
00000100
00010000
00000000
00010000
,
00100000
00000000
00100000
10000000
00000000
10000000
00010000
00000000
00010000
00100000
00001000
00010000
,
00000100
00000010
00000100
00010000
00001000
00100000
00001000
00010000
00000100
00000000
00000000
00000010
,
00000001
00000000
00000000
00000000
00000000
00000000
00000000
00000000
00000010
00000000
00000000
00000000
00001000
00000000
00000000
00000000
00000000
00000000
00000000
00000000
00001000
00000000
00000000
00000000
00000100
00000000
00000000
00000000
00000000
00000000
00000000
00000000
00000001
00000000
00000000
00000000
00000100
00000000
00000000
00000010
00000000
00000000
00001000
00000000
00000000
00000100
00000000
00000000
,
00010000
00000000
00001000
00010000
00000000
10010000
00000000
00000000
10000000
01000000
00000000
01000000
,
00100000
00000000
00100000
00000000
00000000
00100000
00001000
00000000
00011000
00000000
00000000
00000000
,
00001100
00000000
00000000
00000000
00000000
00000000
00000000
00000000
00000000
00000000
00000000
00000000
00000000
00000000
00000000
00000000
00000000
00000000
00000000
00000000
00000000
00000000
00000000
00000000
00001000
00000000
00000000
00000000
00000000
00000000
00000000
00000000
00000000
00000000
00000000
00000000
00000000
00000000
00000000
00000000
00000100
00000000
00000000
00000000
00000000
00000000
00000000
00000000
00000001
00000000
00000000
00000000
00000000
00000000
00000000
00000000
00000000
00000000
00000000
00000000
00000000
00000000
00000000
00000000
00000001
00000000
00000000
00000000
00000000
00000000
00000000
00000000
00000010
00000000
00000000
00000000
00000100
00000000
00000000
00000000
00001000
00000000
00000000
00000000
00000000
00000000
00000000
00000000
00000000
00000000
00000000
00000000
00000000
00000000
00000000
00000000
00011000
00000000
00000000
00000000
00000000
00000000
00000000
00000000
00000000
00000000
00000000
00000000
00000000
00000000
00000000
00000000
00010000
00000000
00000000
00000000
00000000
00000000
00000000
00000000
00100000
00000000
00000000
00000000
00000000
00000000
00000000
00000000
00000000
00000000
00000000
00000000
00000000
00000000
00000000
00000000
00100000
00000000
00000000
00000000
00000000
00000000
00000000
00000000
00010000
00000000
00000000
00000000
00000000
00000000
00000000
00000000
00000000
00000000
00000000
00000000
00000000
00000000
00000000
00000000
00010000
00000000
00000000
00000000
00000000
00000000
00000000
00000000
00100000
00000000
00000000
00000000
01000000
00000000
10000000
00000000
00000000
00000000
00000000
00000000
00000000
00000000
00000000
00000000
00000000
00000000
00000000
00000000
00000000
00000000
00000000
00000000
,
11000000
00000000
00000000
00000000
10000000
00000000
01000000
00000000
00000000
00000000
01000000
00000000
00010000
00000000
00000000
00000000
00010000
00000000
00001000
00000000
00000000
00000000
00001000
00000000
00000100
00000000
00000000
00000000
00000100
00000000
00000001
00000000
00000000
00000000
00000001
00000000
00000010
00000000
00000000
00000000
00000010
00000000
00001000
00010000
00001000
00000000
00010000
00000000
,
00001000
00000000
00000000
00000000
00001000
00000000
00100000
00000000
00000000
00000000
00100000
00000000
00010000
00000000
00000000
00000000
00010000
00000000
01000000
00100000
01000000
00000000
00000000
00000000
01100000
00000000
00000000
00000000
01000000
00000000
00010000
00000000
00000000
00000000
00010000
00000000
00001000
00000000
00000000
00000000
00001000
00000000
00000100
00000010
00000100
00000000
00000000
00000010
,
00000100
00000000
00001000
00000000
00000000
00001000
00000010
00000000
00000100
00000000
00000000
00000001
00000010
00000000
00000010
00000100
00000000
00000100
00001000
00000000
00001100
00000000
00000000
00001000
,
00010000
00000000
00010000
00100000
00000000
00100000
10000000
00000000
10000000
01000000
00100000
00010000
,
00100000
00000000
00100000
00001000
00000000
00001000
00010000
00000000
00010000
00000100
00000000
00000100
,
00001000
00000000
00001000
00000010
00000000
00000010
00000100
00000000
00000100
00000001
00001000
00000001
,
00000010
00000000
00000010
00001000
00000000
00001000
00010000
00000000
00010000
00100000
00000000
00100000
,
00010000
00000000
00000000
00000000
00000000
00000000
00000000
00000000
00001000
00000000
00000000
00000000
00010000
00000000
00000000
00000000
00001000
00000000
00000000
00000000
00000100
00000000
00000000
00000000
00000010
00000000
00000000
00000000
00000100
00000000
00000000
00000000
00001000
00000000
00000000
00000000
00010000
00000000
00000000
00001000
00000000
00000000
00010000
00000000
00000000
00000000
00000000
00000000
,
00011000
00000000
00010000
01000000
00000000
01000000
10000000
00000000
10000000
01000000
00000000
01000000
,
00010000
00000000
00010000
00001000
00000100
00001000
00010000
00000000
00010000
00000000
00000000
00011000
,
00000000
00000000
00010000
00100000
00000000
00010000
10000000
00000000
00010000
01000000
00000000
01000000
,
00010000
00001000
00000010
00001000
00000000
00001000
00010000
00000000
00010000
00001000
00000000
00001000
,
00000100
00000000
00000100
00000001
00000000
00001001
00000000
00000000
00000000
00000000
00000220
00000000
,
00000000
00000000
00000000
00000000
00000000
00000000
00000000
00000000
00000330
00000000
00000000
00000000
00000000
00000000
00000000
00000000
00000000
00000000
00000100
00000000
00000000
00001000
00000000
00000000
00010000
00000000
00000000
00000000
00000000
00000000
00000000
00000000
00000000
00000000
00000000
00000000
00000000
00000000
00000000
00000000
00010000
00000000
00001000
00000000
00010000
00000000
00001000
00000000
,
00010000
00001000
00010000
00001000
00010000
00001000
00010000
00001000
00010000
00001000
00010000
00001000
00010000
00001000
00010000
00001000
00010000
00001000
00020000
00000000
00000000
00000000
00000000
00000000
,
00000000
00000000
00000000
00000000
,
00000000
00000000
00000000
00030000
;

//---------------dance-double - ----------------
#NOTES:
     dance-double:
     :
     Medium:
     8:
     0.590,0.850,0.142,0.042,1.000: // measure 1
00000000
00000000
00000000
00000000
,  // measure 2
10000000
00000000
10000000
01000000
00000000
00000000
00010000
00000000
00010000
01000000
00000000
00000000
10010000
00000000
00000000
00000000
00000000
10010000
00000000
00000000
00000000
00000000
00000000
00000000
,  // measure 3
00001000
00000000
00001000
00000100
00000000
00000000
00000001
00000000
00000001
00000100
00000000
00000000
00001001
00000000
00000000
00000000
00000000
00001001
00000000
00000000
00000000
00000000
00000000
00000000
,  // measure 4
00000001
00000000
00000001
00000010
00000000
00000000
00000100
00000000
00000100
00001000
00000000
00000000
00001100
00000000
00000000
00000000
00000000
00011000
00000000
00000000
00000000
00000000
00000000
00000000
,  // measure 5
10000000
00000000
10000000
00100000
00000000
00000000
01000000
00000000
01000000
00010000
00000000
00000000
01010000
00000000
00000000
00000000
00000000
00011000
00000000
00000000
00000000
00000000
00000000
00000000
,  // measure 6
00010000
00000000
00010000
00001000
00000000
00001000
00010000
00000000
00010000
00000100
00000000
00000100
,  // measure 7
00001000
00000000
00001000
00000010
00000000
00000010
00000100
00000000
00000100
00000001
00000000
00000001
,  // measure 8
00000010
00000000
00000010
00000001
00000000
00000001
00001000
00000000
00001000
00000100
00000000
00000100
,  // measure 9
00001000
00000000
00001000
00000010
00000000
00000010
00010000
00000000
00010000
00001000
00000000
00001000
,  // measure 10
00100000
00000000
00100000
00010000
00000000
00010000
10000000
00000000
10000000
01000000
00000000
00010000
,  // measure 11
01000000
00000000
10000000
01000000
00000000
01000000
00010000
00000000
00010000
00001000
00000000
00001000
,  // measure 12
00010000
00000000
00010000
00000100
00000000
00000100
00001000
00000000
00001000
00000010
00000000
00000010
,  // measure 13
00000200
00000000
00000000
00000001
00000000
00000300
00000100
00000000
00001000
00000000
00000000
00000000
,  // measure 14
00011000
00000000
00001000
00010000
00000000
00010000
00100000
00000000
00100000
00010000
00000000
00010000
,  // measure 15
00001000
00000000
00001000
00000010
00000000
00000010
00001000
00000000
00001000
00010000
00000000
00010000
,  // measure 16
01000000
00000000
01000000
00010000
00000000
00010000
00001000
00000000
00001000
00000100
00000000
00000100
,  // measure 17
00001000
00000000
00001000
00010000
00000000
00010000
00001000
00000000
00011000
00000000
00000000
00010000
,  // measure 18
10000000
00000000
10000000
00100000
00000000
00100000
10000000
00000000
10000000
00010000
00000000
00010000
,  // measure 19
01000000
00000000
01000000
00010000
00000000
00010000
00100000
00000000
00100000
00010000
00000000
00010000
,  // measure 20
10000000
00000000
10000000
01000000
00000000
00100000
00010000
00000000
10000000
01000000
00000000
00100000
00010000
00000000
00000000
10000000
00000000
00000000
00010000
00000000
10000000
00010000
00000000
10000000
,  // measure 21
01000000
00000000
00100000
00010000
00000000
00110000
00000000
00000000
00001000
00000100
00000000
00000010
,  // measure 22
00000001
00000000
00000001
00001000
00000000
00001001
00000000
00000000
00000001
00000100
00000000
00000101
,  // measure 23
00000000
00000000
00000001
00000100
00000000
00000100
00001000
00000000
00001000
00000100
00000000
00000100
,  // measure 24
00000001
00000000
00000001
00000010
00000000
00000011
00000000
00000000
00000001
00000010
00000000
00000010
,  // measure 25
00001000
00000000
00001000
00010000
00000000
00010000
00000000
00000000
00010000
00100000
00000000
00200000
,  // measure 26
00000000
00000000
00000000
00000000
00000000
10300000
00000000
00000000
10000000
01000000
00000000
01000000
,  // measure 27
00100000
00000000
00100000
00000000
00000000
00100000
00001000
00000000
00001000
00010000
00000000
00010000
,  // measure 28
00000100
00000000
00000100
00010000
00000000
00010000
00000010
00000000
00000010
00010000
00000000
00010000
,  // measure 29
00001000
00000000
00001000
00000100
00000000
00000100
00000000
00000000
00000100
00001000
00000000
00001000
,  // measure 30
00010000
00000000
00010000
00100000
00000000
00100000
00000000
00000000
00100000
10000000
00000000
10000000
,  // measure 31
00100000
00000000
00000000
00000000
00000000
00100000
00001000
00000000
00001000
00010000
00000000
00010000
,  // measure 32
00001000
00000000
00000000
00000000
00000000
00001000
00000100
00000000
00001100
00000000
00000000
00000100
,  // measure 33
00000000
00000000
00000010
00000001
00000000
00000100
00000000
00000000
00000100
00000010
00000000
00000010
,  // measure 34
00001000
00000000
00001000
00000100
00000000
00000100
00000000
00000000
00000100
00010000
00000000
00010000
,  // measure 35
00000000
00000000
00010000
00001000
00000000
00001000
00100000
00000000
00100000
00010000
00000000
00010000
,  // measure 36
01000000
00000000
01000000
00100000
00000000
00100000
10000000
00000000
10000000
01000000
00000000
01000000
,  // measure 37
00100000
00000000
00100000
00000000
00000000
00100000
00010000
00000000
00010000
00001000
00000000
00001000
,  // measure 38
00010000
00000000
00010000
00100000
00000000
00100000
10000000
00000000
10000000
00100000
00000000
00100000
,  // measure 39
00010000
00000000
00010000
01000000
00000000
01000000
00001000
00000000
00001000
00010000
00000000
00010000
,  // measure 40
00000100
00000000
00000100
00001000
00000000
00001000
00000010
00000000
00000010
00000100
00000000
00000100
,  // measure 41
00000001
00000000
00000001
00000010
00000000
00000010
00000100
00000000
00000100
00001000
00000000
00001000
,  // measure 42
00010000
00000000
00010000
00001000
00000000
00001000
00000000
00000000
00001000
00100000
00000000
00100000
,  // measure 43
10000000
00000000
10000000
00100000
00000000
00100000
00000000
00000000
00100000
00010000
00000000
00010000
,  // measure 44
10000000
00000000
00000000
00000000
00000000
10000000
01000000
00000000
01000000
00100000
00000000
00100000
,  // measure 45
00010000
00000000
00010000
00001000
00000000
00001000
00000010
00000000
00000010
00000000
00000000
00000010
,  // measure 46
00000001
00000000
00000001
00000100
00000000
00000100
00000010
00000000
00000010
00001000
00000000
00001000
,  // measure 47
00000100
00000000
00000100
00010000
00000000
00010000
00000000
00000000
00010000
00100000
00000000
00100000
,  // measure 48
10000000
00000000
10000000
00000000
00000000
10000000
01000000
00000000
01000000
00000000
00000000
00000000
,  // measure 49
11000000
00000000
00000000
01000000
00000000
00000000
00100000
00000000
00010000
00100000
00000000
00000000
00100000
00000000
00100000
00001000
00000000
00001000
00010000
00000000
00010000
00000100
00000000
00000100
,  // measure 50
00001000
00000000
00001000
00000010
00000000
00000010
00000100
00000000
00000100
00000001
00000000
00000001
00000010
00000000
00000010
00000100
00000000
00000100
00001000
00000000
00001000
00000100
00000000
00000100
,  // measure 51
00010000
00000000
00010000
00001000
00000000
00001000
00010000
00000000
00010000
00001000
00000000
00000000
00010000
00000000
00010000
00100000
00000000
01000000
10000000
00000000
10000000
01000000
00000000
00200000
,  // measure 52
00000000
00000000
00010000
00000000
00000000
00000000
00010000
00000000
00000000
00000000
00000000
00010000
00000000
00000000
00000000
00000000
00000000
00000000
00000000
00000000
00000000
00000000
00000000
00000000
,  // measure 53
00310000
00000000
00010000
01000000
00000000
01000000
00100000
00000000
00100000
10000000
01000000
10000000
,  // measure 54
01000000
00000000
01000000
00010000
00000000
00010000
00001000
00000000
00001000
00000010
00000000
00000010
,  // measure 55
00000001
00000000
00000001
00000100
00000000
00000100
00001000
00000000
00001000
00010000
00000000
00010000
,  // measure 56
00100000
00000000
00100000
10000000
00000000
10000000
01000000
00000000
01000000
00100000
00000000
00100000
,  // measure 57
00010000
00000000
00010000
01000000
00000000
01000000
00100000
00000000
00100000
10000000
01000000
10000000
,  // measure 58
01000000
00000000
01000000
00100000
00000000
00100000
00001000
00000000
00001000
00010000
00000000
00010000
,  // measure 59
00000100
00000000
00000100
00001000
00000000
00001000
00000001
00000000
00000001
00000100
00000000
00000100
,  // measure 60
00000010
00000000
00000010
00000100
00000000
00000100
00000001
00000000
00000001
00000010
00000000
00000010
,  // measure 61
00001000
00010000
00001000
00010000
00000000
00010000
00100000
00000000
00100000
00010000
00000000
00010000
,  // measure 62
00001000
00000000
00001000
00010000
00000000
00001000
00000000
00000000
00000000
00000000
00022000
00000000
,  // measure 63
00000000
00000000
00000000
00000000
,  // measure 64
00000000
00000000
00000000
00000000
,  // measure 65
00000000
00000000
00000000
00000000
,  // measure 66
00000000
00000000
00000000
00033000
;

//---------------dance-double - ----------------
#NOTES:
     dance-double:
     :
     Easy:
     5:
     0.360,0.604,0.225,0.117,0.129:
00000000
00000000
00000000
00000000
,
10000000
00000000
00000000
01000000
00000000
00000000
00010000
00000000
00000000
00001000
00000000
00000000
00010000
00000000
00000000
00000000
00000000
01000000
00000000
00000000
00000000
00000000
00000000
00000000
,
00000001
00000000
00000000
00000100
00000000
00000000
00001000
00000000
00000000
00010000
00000000
00000000
00001000
00000000
00000000
00000000
00000000
00000100
00000000
00000000
00000000
00000000
00000000
00000000
,
00000001
00000000
00000000
00000010
00000000
00000000
00001000
00000000
00000000
00010000
00000000
00000000
00100000
00000000
00000000
00000000
00000000
10000000
00000000
00000000
00000000
00000000
00000000
00000000
,
10000000
00000000
00000000
00100000
00000000
00000000
00010000
00000000
00000000
00001000
00000000
00000000
00000010
00000000
00000000
00000000
00000000
00000001
00000000
00000000
00000000
00000000
00000000
00000000
,
00000200
00000310
00001000
00000100
,
00020000
00031000
00100000
00010000
,
01000000
01000000
00100000
00100000
,
10000000
00000000
00000000
10000000
00000000
00000000
01000000
00000000
00010000
00000000
00000000
00000000
,
00002000
00003100
00000010
00000001
,
00000200
00000320
00000032
00000023
,
00000130
00010000
00001000
00100000
,
00010000
00000000
00000000
01000000
00000000
00000000
00100000
00000000
10000000
00000000
00000000
00000000
,
20000000
31000000
00010000
00002000
,
00003100
00000001
00000010
00001000
,
00001000
00010000
00010000
00001000
,
00000010
00000000
00000000
00000100
00000000
00000000
00001000
00000000
00010000
00000000
00000000
00000000
,
00010000
00100000
10000000
01000000
,
00010000
00001000
00000010
00000001
,
00000100
00001000
00000100
00000001
00000100
00001000
00010000
01000000
,
10000000
00000000
00000000
00100000
00000000
00100000
00000000
00000000
00000000
01000000
00000000
00000000
,
10000000
00000000
00000000
00010000
00000000
00010000
00000000
00000000
00000000
00001000
00000000
00000000
,
00000100
00000010
00000001
00000100
,
00000010
00000000
00000000
00001000
00000000
00001000
00000000
00000000
00000000
00000100
00000000
00000000
,
00010000
00000000
00000000
00100000
00000000
00100000
00000000
00000000
00000000
10000000
00000000
02000000
,
00000000
00000000
00000000
00000000
00000000
03100000
00000000
00000000
00000000
00100000
00000000
00000000
,
00001000
00000000
00010000
00000000
00000000
00000000
00010000
00000000
00000000
00000100
00000000
00000000
,
00001000
00000010
00000100
00000001
,
00000010
00000000
00000000
00000100
00000000
00000100
00000000
00000000
00000000
00000100
00000000
00000000
,
00001000
00000000
00000000
00010000
00000000
00010000
00000000
00000000
00000000
00100000
00000000
00000000
,
00010000
00000000
00001000
00000100
,
00000001
00000000
00000000
00000100
00000000
00000000
00001000
00000000
00001000
00000000
00000000
00000000
,
00001000
00010000
00100000
00010000
,
00001000
00000010
00001000
00010000
,
01000000
00010000
00001000
00000100
,
00000001
00000100
00001000
00010000
,
01000000
00000000
01000000
00000000
00000000
00000000
10000000
00000000
00000000
00100000
00000000
00000000
,
01000000
00000000
00010000
00000000
00000000
00100000
00000000
00000000
00000000
00100000
00000000
00000000
,
00011000
00000000
00000000
00000100
00000000
00000100
00000000
00000000
00000000
00000010
00000000
00000000
,
00000001
00000000
00000001
00000000
00000000
00000100
00000000
00000000
00000000
00000101
00000000
00000000
,
00000010
00001000
00010000
00100000
,
10000000
10010000
00000000
10000000
,
01000000
11000000
00000000
00100000
,
00101000
00000000
00010100
00000100
,
00000010
00000000
00000000
00000100
00000000
00000000
00001000
00000000
00000100
00000000
00000000
00000000
,
00000010
00000001
00000100
00000010
,
00001010
00000000
00000000
00000010
00000000
00001000
00000000
00000000
00000000
00001000
00000000
00000000
,
00001000
00000000
00010000
00000000
00000000
00000000
00010000
00000000
00100000
00000000
00000000
00000000
,
10010000
01000000
00100000
00010000
00011000
00010000
00000100
00000010
,
00000101
00000100
00000010
00001000
00001100
00000100
00010000
00001000
,
00101000
00000000
00000000
00010000
00000000
00000000
01000000
00000000
00000000
00100000
00000000
00000000
10100000
00000000
00000000
10000000
00000000
00000000
01000000
00000000
00000000
00100000
00000000
20020000
,
00000000
00000000
00000000
00000000
00000000
00000000
00000000
00000000
00000000
00000000
30030000
00000000
,
10010000
01000000
00001000
00010000
,
00011000
00010000
00000100
00000010
,
00000011
00000001
00000100
00000010
,
00001010
00010000
00001000
00100000
,
00110000
01000000
00100000
10000000
,
11000000
00100000
00001000
00010000
,
00001100
00000010
00000001
00000100
,
00001010
00010000
00110000
00010000
,
00011000
01000000
00011000
00000100
,
00011000
00000000
00001000
00010000
00000000
00010000
00000000
00000000
00000000
00000000
00022000
00000000
,
00000000
00000000
00000000
00000000
,
00000000
00000000
00000000
00000000
,
00000000
00000000
00000000
00000000
,
00000000
00000000
00000000
00033000
;

//---------------dance-double - Copied from----------------
#NOTES:
     dance-double:
     Copied from:
     Challenge:
     9:
     0.659,0.905,0.250,0.033,1.000:
00000000
00000000
00000000
00000000
,
10000000
00000000
10000000
01000000
00000000
01000000
00010000
00000000
00010000
00001000
00000000
00001000
00000100
00000000
00000000
00000000
00000000
00000101
00000000
00000000
00000000
00000000
00000000
00000000
,
00000001
00000000
00000001
00000100
00000000
00000100
00001000
00000000
00001000
00010000
00000000
00010000
01000000
00000000
01000000
00000000
00000000
11000000
00000000
00000000
00000000
00000000
00000000
00000000
,
00100000
00000000
00100000
00010000
00000000
00010000
00001000
00000000
00001000
00000010
00000000
00000010
00000001
00000000
00000000
00000000
00000000
00000011
00000000
00000000
00000000
00000000
00000000
00000000
,
00000010
00000000
00000010
00001000
00000000
00001000
00010000
00000000
00010000
00100000
00000000
00100000
10000000
00000000
10000000
00000000
00000000
10100000
00000000
00000000
00000000
00000000
00000000
00000000
,
10000000
01000000
00100000
00010000
00000000
00010000
00100000
00000000
00100000
00001000
00000000
00001000
,
00010000
00000100
00001000
00000010
00000000
00000010
00000100
00000000
00000100
00000001
00000010
00000100
,
00001000
00000000
00001000
00000100
00000000
00000100
00010000
00000000
00010000
00100000
10000000
00100000
,
10000000
00000000
10000000
01000000
00000000
01000000
00100000
00000000
00110000
00000000
00000000
00100000
,
00001000
00010000
00001000
00000100
00000000
00000100
00000010
00000000
00000010
00001000
00000000
00001000
,
00000001
00000010
00000100
00000010
00000001
00000010
00000100
00000000
00000010
00001000
00010000
00001000
,
00010000
00000000
00010000
00100000
00000000
00100000
00010000
00000000
00010000
00001000
00000000
00001000
,
00000010
00000000
00000010
00001000
00000000
00001000
00010000
00000000
MMMMMMMM
00000000
00000000
00000000
,
00001000
00000100
00000010
00000001
00000000
00000001
00000010
00000000
00000100
00001000
00000000
00001000
,
00010000
00100000
01000000
00100000
00000000
00100000
10000000
00000000
00100000
01000000
00100000
00010000
,
00100000
00000000
00100000
00001000
00000000
00001000
00000100
00000000
00000100
00000001
00000000
00000001
,
00000100
00000000
00000100
00001000
00000000
00001000
00010000
00000000
MMMMMMMM
00000000
00000000
00010000
,
00100000
10000000
00100000
00010000
00000000
00010000
00001000
00000000
00001000
00000100
00000000
00000100
,
00000001
00000010
00001000
00000010
00000001
00000100
00001000
00010000
00000000
00011000
00000000
00001000
,
00000100
00000000
00000100
00001000
00000000
00100000
00010000
00000000
00000100
00001000
00000000
00100000
00010000
00000000
00000100
00001000
00000000
00000000
00011000
00000000
00010000
00100000
00000000
00100000
,
10000000
00000000
10000000
01000000
00000000
01000000
00010000
00000000
00010000
00001000
00000000
00001000
,
00000100
00000000
00000100
00000001
00000000
00000001
00000010
00000000
00000010
00001000
00000000
00001000
,
00010000
00000000
00100000
10000000
00000000
00100000
00010000
00000000
00100000
10000000
00000000
10000000
,
01000000
00000000
01000000
00100000
00000000
MMMMMMMM
00000000
00000000
00001000
00000100
00000000
00000100
,
00000001
00000000
00000001
00000100
00000000
00001001
00000000
00000000
00000001
00000010
00000000
00002002
,
00000000
00000000
00000000
00003003
00000000
MMMMMMMM
00000000
00000000
00000001
00000100
00000000
00000010
,
00001000
00000000
00010000
00000000
00000000
00010000
00100000
00000000
00100000
00010000
00000000
00010000
,
10000000
00000000
10000000
00100000
00000000
00100000
10000000
01000000
00010000
00001000
00000100
00000001
,
00000100
00000000
00000100
00001000
00000000
00001100
00000000
00000000
00001000
00000100
00000000
00000100
,
00000010
00000000
00000010
00000001
00000000
00000011
00000000
00000000
00000001
00000100
00000000
00000100
,
00000010
00000000
00000000
00000000
00000000
00001000
00010000
00001000
00000100
00000010
00000001
00000010
,
00000100
00000000
00000100
00001000
00000000
00001000
00010000
00000000
00011000
00000000
00000000
00100000
,
01000000
00000000
01000000
10000000
00000000
10000000
00010000
00000000
00010000
00001000
00000000
00000100
,
00000001
00000000
00000001
00000100
00000000
00000100
00000010
00000000
00000010
00000001
00000000
00000001
,
00001000
00000000
00001000
00000010
00000000
00000010
00010000
00000000
00010000
00001000
00000000
00001000
,
00100000
00010000
01000000
00100000
00000000
10000000
00010000
10000000
01000000
00100000
00010000
01000000
,
00100000
00000000
MMMMMMMM
00000000
00000000
10000000
01000000
00000000
01000000
00010000
00000000
00010000
,
00001000
00000000
MMMMMMMM
00000000
00000000
00000101
00000000
00000000
00000001
00000100
00000001
00000100
,
00001000
00000000
00000000
00110000
00000000
01010000
00000000
00000000
01000000
00001000
00000000
00000000
,
00001010
00000000
00001100
00000000
00000000
00001001
00000000
00000000
00000001
00000100
00000000
00000100
,
00000010
00001000
00010000
00001000
00100000
00010000
01000000
00100000
10000000
01000000
00000000
00010000
,
00100000
00000000
00000100
00001000
00000000
MMMMMMMM
00000000
00000000
00000010
00000001
00000000
00000001
,
00001000
00000000
00001000
00000100
00000000
MMMMMMMM
00000000
00000000
00000100
00010000
00000000
00010000
,
00100000
00000000
00100000
10000000
00000000
10000000
00010000
00000000
00010000
00001000
00000000
00001000
,
00000100
00000010
00000100
00010000
00001000
00100000
00001000
00000000
MMMMMMMM
00000000
00000000
00000010
,
00000001
00000000
00000000
00000000
00000000
00000000
00000000
00000000
00000010
00000000
00000000
00000000
00001000
00000000
00000000
00000000
00000000
00000000
00000000
00000000
00001000
00000000
00000000
00000000
00000100
00000000
00000000
00000000
00000000
00000000
00000000
00000000
00000001
00000000
00000000
00000000
00000100
00000000
00000000
00000010
00000000
00000000
00001000
00000000
00000000
00000100
00000000
00000000
,
00010000
00000000
00001000
00010000
00000000
10010000
00000000
00000000
10000000
01000000
00000000
01000000
,
00100000
00000000
01100000
00000000
00000000
00100000
00001000
00000000
00011000
00000000
00000000
00000000
,
00001100
00000000
00000000
00001000
00000000
00000100
00000001
00000000
00000001
00000010
00000000
00000000
00011000
00000000
00010000
00100000
00000000
00100000
00010000
00000000
00010000
00100000
00000000
00000000
,
11000000
00000000
10000000
01000000
00000000
01000000
00010000
00000000
00010000
00001000
00000000
00001000
00000100
00000000
00000100
00000001
00000000
00000001
00000010
00000000
00000010
00001000
00000000
00010000
,
00001000
00000000
00001000
00100000
00000000
00100000
00010000
00000000
00010000
01000000
00000000
00000000
01100000
00000000
01000000
00010000
00000000
00010000
00001000
00000000
00001000
00000100
00000000
00000010
,
00000100
00000000
00001000
00000000
00000000
00001000
00000010
00000000
00000100
00000000
00000000
00000001
00000010
00000000
00000010
00000100
00000000
00000100
00001000
00000000
00001100
00000000
00000000
00001000
,
00010000
00000000
00010000
00100000
00000000
00100000
10000000
00000000
10000000
01000000
00100000
00010000
,
00100000
00000000
00100000
00001000
00000000
00001000
00010000
00000000
00010000
00001000
00010000
00000100
,
00001000
00000000
00001000
00000010
00000000
00000010
00000100
00000000
00000100
00000001
00001000
00000001
,
00000010
00000000
00000010
00001000
00000000
00001000
00010000
00000000
00010000
00100000
00000000
00100000
,
00010000
00000000
00001000
00010000
00000000
00000100
00000010
00000100
00001000
00010000
00001000
00000000
,
00011000
00000000
00010000
01000000
00000000
01000000
10000000
00000000
10000000
01000000
00000000
01000000
,
00010000
00000000
00010000
00001000
00000000
00001000
00010000
00000000
00010000
00000000
00000000
00011000
,
00000000
00000000
00010000
00100000
00000000
00010000
10000000
00000000
00010000
01000000
00000000
01000000
,
00010000
00001000
00000010
00001000
00000000
00001000
00010000
00000000
00010000
00001000
00000000
00001000
,
00000100
00000000
00000100
00000001
00000000
00001001
00000000
00000000
00000000
00000000
00022000
00000000
,
00000000
00000000
00000000
00000000
,
00000000
00000000
00000000
00000000
,
00000000
00000000
00000000
00000000
,
00000000
00000000
00000000
00033000
;
