#TITLE:오빠차;
#SUBTITLE:;
#ARTIST:인크레더블, 타블로, 지누션;
#TITLETRANSLIT:Oppa's Car;
#SUBTITLETRANSLIT:;
#ARTISTTRANSLIT:Incredivle, Tablo, Jinusean;
#GENRE:K-POP;
#CREDIT:Telperion+;
#BANNER:[ROUND E] - Oppa's Car.png;
#JACKET:[ROUND E] - Oppa's Car-jacket.png;
#BACKGROUND:[ROUND E] - Oppa's Car-bg.png;
#LYRICSPATH:;
#CDTITLE:cdtitle.png;
#MUSIC:[ROUND E] - Oppa's Car.ogg;
#OFFSET:-0.258000;
#SAMPLESTART:8.542000;
#SAMPLELENGTH:16.665001;
#SELECTABLE:YES;
#BPMS:0.000000=116.000000
;
#STOPS:
;
#BGCHANGES:;
#KEYSOUNDS:;
#ATTACKS:;

//---------------dance-single - Telperion----------------
#NOTES:
     dance-single:
     Telperion:
     Challenge:
     9:
     0.579790,0.710930,0.376807,0.149153,0.451384,517.000000,469.000000,48.000000,19.000000,7.000000,0.000000,0.579790,0.710930,0.376807,0.149153,0.451384,517.000000,469.000000,48.000000,19.000000,7.000000,0.000000:
0000
0000
0000
0000
,
0000
0000
0000
0000
,
0000
0000
0000
0000
0001
0000
0001
0000
0000
0000
1000
0001
0000
1000
0000
0001
,
1000
0000
1010
0000
0110
0000
0101
0001
,
1000
0001
0000
0000
0011
0000
0010
0000
0100
0000
1000
0000
0000
0000
0001
0000
,
0101
0000
1010
0010
0100
0001
0000
0001
,
1000
0001
0010
0100
1000
0000
0000
0000
1000
0000
0201
0000
0000
0000
0301
0000
,
0010
0000
0001
0000
1000
0000
0000
0000
1000
0000
0002
0010
0003
0000
0010
0000
,
0100
0000
1010
0010
0100
0001
0000
1000
,
1100
0000
0011
0010
0100
1000
0000
1000
,
0001
1000
0010
0100
0001
0000
0000
0000
0001
0000
1200
0000
0000
0000
1300
0000
,
0010
0000
1000
0000
0001
0000
0001
0000
0010
0000
0010
0000
0100
0000
1000
0100
,
1000
0001
0100
0000
0010
0000
1000
0010
0100
0001
0100
0001
1000
0100
1000
0001
,
0010
0100
1000
0010
0000
0010
0000
0100
0001
0000
1000
0010
1000
0001
0010
0100
,
2000
0000
3000
0000
0001
0000
0011
0000
1000
0001
0000
1000
0010
0000
0010
0000
,
0100
0001
0100
0010
1000
0001
0010
0100
0010
0000
0110
0000
0001
1000
0010
0100
,
0020
0000
0000
0000
0M3M
0000
1000
0000
0010
0000
0010
0000
0100
0000
0100
0001
,
0000
0000
1000
0100
0010
0100
1000
0001
0100
0000
0100
0001
1000
0000
0100
1000
,
0000
0000
1000
0000
0010
0000
0100
0001
0010
0001
1000
0000
1010
0000
0000
0000
,
0001
0000
0100
0010
0000
1000
0001
0000
0011
0000
1000
0000
0100
1000
0010
1000
,
0001
0020
0030
0001
0010
1000
0010
0001
,
0010
0000
0100
0000
1000
0000
0010
0000
0100
0000
0010
1000
0000
0000
0000
0000
,
0001
0100
0001
1000
0010
0001
0010
1000
,
0010
0000
0100
0000
0001
0000
0010
0000
0100
0000
1000
0001
0000
0001
0000
0000
,
M0MM
0M00
0000
0000
0000
0000
0010
0000
0100
0001
0000
0000
1000
0100
1000
0000
,
0001
0020
0000
0000
0030
0000
0100
0000
1000
0000
0001
0100
0001
0000
0001
0000
,
1000
0020
0000
0000
0030
0000
0110
0000
0101
0000
0000
0000
1000
0000
0100
0000
,
1000
0001
0000
0000
0101
0000
0100
0000
0110
0000
0010
0000
10M0
0000
0000
0000
,
0000
0000
0000
0000
1010
0000
0000
0010
0000
0000
0100
0000
0000
0001
0000
0000
,
1001
0000
0000
0000
0011
0000
0000
0010
0000
0000
0100
0000
0000
0000
1000
0000
,
0001
1000
0010
0100
0001
0000
0000
0000
0001
0000
1200
0000
0000
0000
1300
0000
,
0010
0000
1000
0000
0001
0000
0000
0000
0001
0000
2000
0010
3000
0000
0010
0000
,
0100
0000
0000
0000
0011
0000
0000
0010
0000
0000
0100
0000
0000
1000
0000
0000
,
1001
0000
0000
0000
1010
0000
0000
0010
0000
0000
0100
0000
0000
0000
0001
0000
,
1000
0001
0010
0100
1000
0000
0000
0000
1000
0000
0201
0000
0000
0000
0301
0000
,
0010
0000
0001
0000
1000
0000
1000
0000
0010
0000
0010
0000
0100
0000
0001
0100
,
0010
1000
0001
0000
0011
0000
1000
0000
0010
2000
0000
0000
3000
0000
0001
0010
,
0100
0010
0001
0000
0101
0000
1000
0010
1000
0001
0000
0001
0010
0001
1000
0000
,
1100
0000
0000
0000
0001
0000
0001
0000
0100
0010
0000
0000
1000
0000
1000
0001
,
1000
0000
1000
0000
0001
0000
0010
0000
0010
0000
0100
1000
0001
0000
1001
0000
,
0000
0000
1000
0100
1000
0001
0100
0001
0010
0001
1000
0010
1000
0100
1000
0010
,
0100
0001
0010
0001
1000
0200
0000
1300
0001
0010
0001
1000
0010
1000
0001
0100
,
0001
0000
0000
0000
0001
1000
0100
0000
1000
0010
1000
0001
0010
0001
0100
0000
,
0110
0000
0010
0000
0000
0000
1000
0001
1000
0000
0001
0100
0001
1000
0100
0000
,
0110
0000
1001
1000
0010
1000
0000
0001
,
0011
0000
1100
0100
0010
0001
0000
0001
,
1000
0000
1000
0000
0001
0000
0010
0001
0000
0001
0010
0000
0100
0000
1000
0010
,
0000
0010
1000
0000
0001
0100
0001
0000
0010
0000
0100
0000
2000
0000
0000
0000
,
3000
0000
1100
0100
0010
0001
0000
1000
,
1010
0000
0101
0100
0010
1000
0000
1000
,
0001
0000
0001
0000
1000
0000
0010
1000
0000
1000
0010
0000
0100
0000
0001
0010
,
0000
0010
0001
0000
1001
0000
1000
0000
0010
0000
0010
0100
0002
0000
0003
0000
,
0000
0000
1001
0001
0010
0001
0000
1000
,
1010
0000
0101
0100
0010
1000
0000
1000
,
0001
1000
0100
0010
0001
0000
0000
0000
0001
0000
1020
0000
0000
0000
1030
0000
,
0100
0000
1000
0000
0001
0000
0000
0000
0001
0000
2000
0100
3000
0000
0100
0000
,
0010
0000
0101
0100
0010
1000
0000
0001
,
0011
0000
1100
0100
0010
0001
0000
0001
,
1000
0001
0100
0010
1000
0000
0000
0000
1000
0000
0021
0000
0000
0000
0031
0000
,
0100
0000
0001
0000
1000
0000
1000
0000
0100
0000
0100
0000
0010
0000
0001
0010
,
0001
1000
0010
0000
0200
0000
0300
0000
0000
0000
0000
0000
0000
0000
0000
0000
;

//---------------dance-single - Telperion----------------
#NOTES:
     dance-single:
     Telperion:
     Hard:
     7:
     0.472131,0.472972,0.486710,0.133453,0.113827,421.000000,359.000000,62.000000,17.000000,0.000000,0.000000,0.472131,0.472972,0.486710,0.133453,0.113827,421.000000,359.000000,62.000000,17.000000,0.000000,0.000000:
0000
0000
0000
0000
,
0000
0000
0000
0000
,
0000
0000
0000
0000
,
0000
1001
0110
1001
,
0001
1000
1010
0000
0010
0100
0001
0000
,
1000
0000
1100
1000
0100
0010
0000
0001
,
0010
0001
1000
0000
0000
0102
0000
1003
,
0100
0010
0001
0000
0000
2200
3300
0000
,
0001
0010
0011
0000
0010
0100
1000
0000
,
0001
0100
0010
0100
0001
0001
0000
1000
,
0010
1000
0001
0000
0000
2100
0000
3001
,
0100
0010
1010
0000
0110
0000
0101
0000
,
1001
1000
0100
0010
0001
0001
0100
0010
,
1000
0000
1000
0001
0000
0001
0000
0000
0010
0000
0001
0000
1000
0000
1000
0000
,
0010
0000
0000
0000
0100
0000
0010
0000
0010
1000
0000
0000
0100
0000
0010
0000
,
0010
0001
0000
0000
1000
0000
0010
0000
1000
0000
0000
0000
0001
0000
0010
0000
,
0001
0000
0000
0000
1001
0000
1000
0000
0100
0000
0010
0000
0010
0000
0001
1000
,
0000
0000
0010
0000
0100
0000
0001
0000
0100
0000
0010
0000
0010
0000
1000
0001
,
0000
0100
0101
0000
0100
0010
1010
0000
,
1000
0001
0011
0000
0110
0000
1100
0000
,
1001
0000
0000
0001
0100
0010
0001
0010
,
1000
0000
0010
0000
0100
0000
0001
0000
0010
0000
0001
1000
0000
0000
0000
0000
,
1000
1000
0100
0010
1000
0010
0001
0010
,
0100
0000
1000
0000
0010
0000
0100
0000
0010
0000
1000
0001
0000
0001
0000
0000
,
0011
0000
0000
0000
0000
0000
1000
0000
0010
1000
0000
0000
0001
1000
0001
0000
,
0020
0000
0000
0000
0030
0000
0000
0000
0000
0000
0000
0000
0000
0000
0000
0000
0000
0000
0010
0000
0000
0000
0000
0000
0001
0000
0000
0000
0000
0000
1000
0000
0000
0001
0000
0000
1000
0000
0000
0000
0000
0000
0010
0000
0000
0000
0000
0000
,
0200
0000
0300
0000
0000
0000
0000
0000
0000
0001
0000
0000
0101
0000
0000
0000
0000
0000
1000
0000
0000
0100
0000
0000
,
1000
0001
0000
0000
0011
0000
0000
0000
1010
0000
0000
0000
1001
0000
0000
0000
,
1000
0001
0011
0000
0010
0100
1000
0000
,
0001
0000
0101
0001
0100
0010
0000
1000
,
0010
1000
0001
0000
0000
1200
0000
0301
,
0100
1000
0010
0000
0000
0202
0303
0000
,
1000
0010
1010
0000
0010
0100
0001
0000
,
1000
0100
0010
0100
1000
1000
0000
0001
,
0010
0001
1000
0000
0000
0201
0000
1300
,
0100
0001
0011
0000
0110
0000
1100
0000
,
1001
0000
0000
0000
0101
0000
0100
0000
0020
0000
0030
0000
0000
0000
1000
0010
,
1000
0000
0001
0000
0011
0000
0010
0000
0001
1000
0000
1000
0010
0000
0100
0000
,
0110
0000
0000
0000
1000
0000
0100
0000
1000
0001
0000
0000
0100
0000
0001
0100
,
0001
0000
0001
0000
1000
0000
1000
0000
0010
0000
1000
0100
1000
0000
0001
0000
,
0000
0010
0011
0001
0010
0100
1000
0100
,
0010
0000
0001
0000
1000
0010
0000
0010
0100
0000
0100
0001
0000
0001
1000
0000
,
1001
0000
1000
0010
0100
0001
0100
0010
,
1010
0000
0000
0001
0002
1000
2003
0100
,
3001
0000
0000
0000
0011
0000
0010
0000
0100
0000
1000
0000
0000
0001
0000
0000
,
0101
0000
1010
0010
0100
0001
0000
1000
,
1100
0000
1000
0000
0001
0000
0010
0001
0000
0000
1000
0000
1000
0000
0010
1000
,
0000
0001
0001
0010
0010
0100
1000
0000
,
0000
0000
0000
0000
1010
0000
0010
0000
0100
0000
0001
0000
0000
0010
0000
0000
,
0011
0000
1100
0100
0010
0001
0000
0100
,
0101
0000
0001
0000
1000
0000
0010
1000
0000
0000
0001
0000
0001
0000
0010
0001
,
0000
1000
1010
0000
0110
0000
0101
0000
,
0001
1000
1100
0000
0001
0100
0010
0000
,
1000
0000
1100
0001
0010
0100
0000
1000
,
0010
1000
0001
0000
0000
1002
0000
0103
,
0010
1000
0001
0000
0000
2200
3300
0000
,
1000
0001
0101
0000
1000
0100
0010
0000
,
0010
0001
0100
0010
1000
1000
0000
0001
,
0010
0001
1000
0000
0000
2001
0000
3100
,
0010
0001
1001
0000
0110
0000
1001
0000
,
0110
0001
0000
0000
;

//---------------dance-single - Telperion----------------
#NOTES:
     dance-single:
     Telperion:
     Medium:
     6:
     0.361107,0.378378,0.243355,0.070651,0.125602,322.000000,291.000000,31.000000,9.000000,0.000000,0.000000,0.361107,0.378378,0.243355,0.070651,0.125602,322.000000,291.000000,31.000000,9.000000,0.000000,0.000000:
0000
0000
0000
0000
,
0000
0000
0000
0000
,
0000
0000
0000
0000
,
0000
1001
1001
1001
,
0001
1000
0010
0000
0100
0001
0010
0000
,
0100
0000
0100
1000
0100
0010
0001
0000
,
1000
0001
0200
0000
0000
0001
0300
0100
,
0010
1000
0002
0000
0000
0010
0003
0000
,
0001
0001
1000
0000
0100
1000
0010
0000
,
0100
0001
0100
0010
1000
0001
0010
0000
,
0001
1000
0200
0000
0000
0010
0300
0100
,
1000
0001
1001
0000
1001
0000
1001
0000
,
1001
0000
0001
1000
0001
0100
0000
0000
,
0110
0000
0000
0000
1000
0000
0000
0100
0000
0000
0010
0000
0000
0000
0000
0000
,
0011
0010
0100
0000
0100
1000
0000
1000
,
0001
0000
0100
0000
0010
0000
0000
0010
0000
0000
0010
0000
0000
0000
0000
0000
,
0100
0010
1000
0001
1000
0100
0000
0000
,
0110
0000
0000
0000
0001
0000
0000
0100
0000
0000
0010
0000
0000
0000
1000
0000
,
0010
0100
0001
0000
0100
0001
0000
0001
,
1000
0100
0110
0000
0110
0000
0110
0000
,
0110
0000
0000
0000
0001
0000
0000
1000
0000
0000
0001
0000
0000
0001
0000
0000
,
0000
0000
0000
0000
1000
0000
0000
0010
0000
0000
1000
0000
0000
0000
0000
0000
,
1000
0000
0010
0000
0100
0000
0000
0001
0000
0000
0100
0000
0000
0100
0000
0000
,
0001
0000
0000
0000
1000
0000
0000
0100
0000
0000
1000
0000
0000
0001
0000
0000
,
0100
0000
0010
0000
1000
0000
0000
0001
0000
0000
1000
0000
0000
1000
0000
0000
,
0000
0000
0000
0000
0001
0000
0000
0010
0000
0000
0001
0000
0000
0000
0000
0000
,
0001
0000
0010
0000
0100
0000
0000
1000
0000
0000
0100
0000
0000
0100
0000
0000
,
1000
0110
0110
0110
,
1000
0001
0010
0000
0100
1000
0010
0000
,
0100
0000
0100
0001
0100
0010
1000
0000
,
0001
1000
0200
0000
0000
1000
0300
0100
,
0010
0001
2000
0000
0000
0010
3000
0000
,
1000
1000
0001
0000
0100
0001
0010
0000
,
0100
1000
0100
0010
0001
1000
0010
0000
,
1000
0001
0200
0000
0000
0010
0300
0100
,
0001
1000
1001
0000
1001
0000
1001
0000
,
1001
0000
0000
0000
0001
0000
0000
0010
0000
0000
0100
0000
0000
0000
0000
0000
,
0110
0000
0000
0000
1000
0000
0000
0010
0000
0000
0100
0000
0000
0000
0000
0000
,
0101
0100
0010
0000
0010
1000
0000
1000
,
0001
0000
0010
0000
0100
0000
0000
0100
0000
0000
0100
0000
0000
0000
0000
0000
,
0010
0000
0100
0000
1000
0000
0000
0010
0000
0000
0100
0000
0000
0000
0000
0000
,
0110
0000
0000
0000
0001
0000
0000
0010
0000
0000
0100
0000
0000
0000
1000
0000
,
0100
0010
0001
0000
0010
0001
0000
0001
,
1000
0010
0000
0000
0000
0000
0000
0000
,
0000
0000
0000
0000
1000
0000
0000
0001
0000
0000
1000
0000
0000
1000
0000
0000
,
0000
0000
0000
0000
0001
0000
0000
0010
0000
0000
0001
0000
0000
0000
0000
0000
,
0001
0000
0010
0000
0100
0000
0000
1000
0000
0000
0100
0000
0000
0100
0000
0000
,
1000
0000
0000
0000
0001
0000
0000
0100
0000
0000
0001
0000
0000
1000
0000
0000
,
0100
0000
0010
0000
0001
0000
0000
1000
0000
0000
0001
0000
0000
0001
0000
0000
,
0000
0000
0000
0000
1000
0000
0000
0010
0000
0000
1000
0000
0000
0000
0000
0000
,
1000
0000
0010
0000
0100
0000
0000
0001
0000
0000
0100
0000
0000
0100
0000
0000
,
0001
0110
0110
0110
,
0001
0100
1000
0000
0100
0001
0010
0000
,
0100
0000
0100
1000
0100
0010
0001
0000
,
1000
0001
0200
0000
0000
1000
0300
0100
,
0010
1000
0200
0000
0000
0001
0300
0000
,
0100
0100
1000
0000
0100
1000
0010
0000
,
0100
0001
0100
0010
1000
0001
0010
0000
,
0001
1000
0200
0000
0000
0001
0300
0100
,
1000
0001
1001
0000
1001
0000
1001
0000
,
1001
0010
0000
0000
;

//---------------dance-single - Telperion----------------
#NOTES:
     dance-single:
     Telperion:
     Easy:
     3:
     0.171582,0.189189,0.000000,0.070651,0.000000,153.000000,153.000000,0.000000,9.000000,0.000000,0.000000,0.171582,0.189189,0.000000,0.070651,0.000000,153.000000,153.000000,0.000000,9.000000,0.000000,0.000000:
0000
0000
0000
0000
,
0000
0000
0000
0000
,
0000
0000
0000
0000
,
0000
0000
0000
0000
,
0000
0001
0001
1000
,
1000
0010
0100
0001
,
0000
0000
1000
0000
0000
0020
0000
0000
,
0030
0000
0001
0000
0000
0200
0300
0000
,
0000
1000
1000
0001
,
0001
0010
0100
1000
,
0000
0000
0001
0000
0000
0020
0000
0000
,
0030
1000
0100
0010
,
0001
1000
0000
1000
,
0000
0001
0000
0001
,
0000
1000
0010
0001
,
0000
0001
0100
1000
,
0000
0001
0000
0001
,
0000
1000
0000
1000
,
0000
0001
0010
1000
,
0000
0001
0010
0100
,
1000
0001
0000
0001
,
0000
1000
0000
1000
,
0000
0001
0010
1000
,
0000
1000
0100
0001
,
0000
1000
0000
1000
,
0000
0001
0000
0001
,
0000
1000
0010
0001
,
0000
1000
0010
0100
,
0000
0001
0001
1000
,
1000
0100
0010
0001
,
0000
0000
1000
0000
0000
0200
0000
0000
,
0300
0000
0001
0000
0000
0020
0030
0000
,
0000
1000
1000
0001
,
0001
0100
0010
1000
,
0000
0000
0001
0000
0000
0200
0000
0000
,
0300
1000
0010
0100
,
0001
1000
0000
1000
,
0000
0001
0000
0001
,
0000
1000
0100
0001
,
0000
0001
0010
1000
,
0000
0001
0000
0001
,
0000
1000
0000
1000
,
0000
0001
0100
1000
,
0010
0001
0000
0000
,
0000
1000
0000
0001
,
0000
0001
0000
1000
,
0000
0001
0100
1000
,
0000
1000
0010
0001
,
0000
1000
0000
0001
,
0000
0001
0000
1000
,
0000
0001
0100
1000
,
0000
0001
0010
0100
,
0000
1000
1000
0001
,
0001
0010
0100
1000
,
0000
0000
0001
0000
0000
0020
0000
0000
,
0030
0000
1000
0000
0000
0200
0300
0000
,
0000
0001
0001
1000
,
1000
0010
0100
0001
,
0000
0000
1000
0000
0000
0020
0000
0000
,
0030
0001
0100
0010
,
1000
0100
0000
0000
;

//---------------dance-single - Telperion----------------
#NOTES:
     dance-single:
     Telperion:
     Beginner:
     1:
     0.081866,0.141892,0.000000,0.007850,0.000000,73.000000,73.000000,0.000000,1.000000,0.000000,0.000000,0.081866,0.141892,0.000000,0.007850,0.000000,73.000000,73.000000,0.000000,1.000000,0.000000,0.000000:
// measure 0
0000
0000
0000
0000
,  // measure 1
0000
0000
0000
0000
,  // measure 2
0000
0000
0000
0000
,  // measure 3
0000
0000
0000
0000
,  // measure 4
0000
0001
0000
0000
,  // measure 5
0000
0001
0000
0000
,  // measure 6
0000
1000
0000
0000
,  // measure 7
0000
1000
0000
0000
,  // measure 8
0000
0001
0000
0000
,  // measure 9
0000
0001
0000
0000
,  // measure 10
0000
1000
0000
0000
,  // measure 11
0000
1000
0010
0001
,  // measure 12
0100
1000
0000
0000
,  // measure 13
0000
1000
0000
0000
,  // measure 14
0000
0001
0000
0000
,  // measure 15
0000
0001
0000
0000
,  // measure 16
0000
1000
0000
0000
,  // measure 17
0000
1000
0000
0000
,  // measure 18
0000
0001
0000
0000
,  // measure 19
0000
0001
0010
1000
,  // measure 20
0100
0001
0000
0000
,  // measure 21
0000
0001
0000
0000
,  // measure 22
0000
1000
0000
0000
,  // measure 23
0000
1000
0000
0000
,  // measure 24
0000
0001
0000
0000
,  // measure 25
0000
0001
0000
0000
,  // measure 26
0000
1000
0000
0000
,  // measure 27
0000
1000
0010
0001
,  // measure 28
0000
1000
0000
0000
,  // measure 29
0000
1000
0000
0000
,  // measure 30
0000
0001
0000
0000
,  // measure 31
0000
0001
0000
0000
,  // measure 32
0000
1000
0000
0000
,  // measure 33
0000
1000
0000
0000
,  // measure 34
0000
0001
0000
0000
,  // measure 35
0000
0001
0010
1000
,  // measure 36
0100
0001
0000
0000
,  // measure 37
0000
0001
0000
0000
,  // measure 38
0000
1000
0000
0000
,  // measure 39
0000
1000
0000
0000
,  // measure 40
0000
0001
0000
0000
,  // measure 41
0000
0001
0000
0000
,  // measure 42
0000
2000
0000
0000
,  // measure 43
0000
3000
0000
0000
,  // measure 44
0000
0001
0000
0000
,  // measure 45
0000
0001
0000
0000
,  // measure 46
0000
1000
0000
0000
,  // measure 47
0000
1000
0000
1000
,  // measure 48
0000
0001
0000
0000
,  // measure 49
0000
1000
0000
0000
,  // measure 50
0000
0001
0000
0000
,  // measure 51
0000
0001
0010
1000
,  // measure 52
0000
0001
0000
0000
,  // measure 53
0000
0001
0000
0000
,  // measure 54
0000
1000
0000
0000
,  // measure 55
0000
1000
0000
0000
,  // measure 56
0000
0001
0000
0000
,  // measure 57
0000
0001
0000
0000
,  // measure 58
0000
1000
0000
0000
,  // measure 59
0000
0010
0100
0001
,  // measure 60
1000
0100
0000
0000
;
