#TITLE:New Horizons;
#SUBTITLE:;
#ARTIST:DJXYZ;
#TITLETRANSLIT:;
#SUBTITLETRANSLIT:;
#ARTISTTRANSLIT:;
#GENRE:;
#CREDIT:;
#BANNER:[ROUND E] - New Horizons-bn.png;
#BACKGROUND:[ROUND E] - New Horizons-bg.png;
#LYRICSPATH:;
#CDTITLE:;
#MUSIC:[ROUND E] - New Horizons.ogg;
#OFFSET:-0.080000;
#SAMPLESTART:26.530001;
#SAMPLELENGTH:12.000000;
#LASTBEATHINT:295.856476;
#SELECTABLE:YES;
#BPMS:0.000000=145.003998
;
#STOPS:
;
#BGCHANGES:;
#KEYSOUNDS:;
#ATTACKS:;

//---------------dance-single - ----------------
#NOTES:
     dance-single:
     :
     Easy:
     3:
     0.272155,0.298683,0.113495,0.202669,0.004053,235.000000,221.000000,14.000000,25.000000,0.000000,0.000000,0.272155,0.298683,0.113495,0.202669,0.004053,235.000000,221.000000,14.000000,25.000000,0.000000,0.000000:
0000
0000
0000
0000
,
0000
0000
0000
0000
,
0000
0000
0000
0000
,
0000
0000
0000
0000
,
0000
1000
0010
1000
,
0000
0001
0010
0001
,
0000
1000
0100
1000
,
0000
0001
0100
0001
,
1000
1000
1000
1000
,
0010
0010
0100
0100
,
0001
0001
0001
0001
,
0100
0100
0010
0010
,
1000
0100
0010
0010
,
0001
0100
0010
0010
,
1000
0010
0100
0100
,
0001
1000
0001
1001
,
0200
0000
0310
1000
,
0020
0000
0130
0100
,
0002
0000
1003
0001
,
2000
0000
3010
0010
,
0100
0001
1000
0010
,
0020
0000
1030
1000
,
0200
0000
0310
0001
,
1000
0001
0020
0000
,
0230
0000
1000
1000
,
2300
0000
3001
0001
,
0002
0000
0010
0010
,
0023
0000
0130
0100
,
0000
1000
0100
0000
,
0010
0001
0010
0100
,
1000
0001
0100
0000
,
0010
1000
0010
0100
,
0000
0001
0010
0100
,
1000
0100
0010
0001
,
1000
0010
0200
0000
,
0302
0000
2003
0000
,
3010
0000
0110
0000
,
1000
1000
1000
1000
,
0100
0000
0110
0000
,
0001
0001
0001
0001
,
1000
0000
0110
0000
,
0001
0000
0110
0000
,
1001
0000
0110
0000
,
1000
0010
0100
0001
,
0020
0000
0130
1000
,
0200
0000
1300
1000
,
0002
0000
1003
0001
,
2000
0000
3010
0010
,
0100
0001
1000
0010
,
0001
0010
1000
0001
,
0100
0001
2000
0000
,
3200
0000
0320
0000
,
0032
0000
0100
0000
,
0100
0000
0100
0000
,
2003
0000
0100
0000
,
0100
0000
3100
0000
,
0100
0010
0001
0010
,
0100
0010
1000
0010
,
0100
1000
0010
1000
,
0001
1000
0100
1000
,
0001
0100
0010
0010
,
1000
0010
0100
0100
,
0010
1000
0001
0001
,
0010
0100
1000
1001
,
0000
0100
0010
0010
,
0000
1000
0001
0001
,
0000
0001
1000
1000
,
0000
0010
0100
0100
,
0000
0101
0100
0010
,
0000
1010
1000
0001
,
0000
0011
0010
0100
,
0000
1100
1000
0001
,
2002
0000
3003
0000
0010
0000
0000
0100
,
0000
0000
0000
0000
0000
0000
0000
0000
0000
0000
0000
0110
0000
0000
0000
0000
;

//---------------dance-single - ----------------
#NOTES:
     dance-single:
     :
     Hard:
     9:
     0.586002,0.627234,0.202669,0.486405,0.482352,506.000000,481.000000,25.000000,60.000000,0.000000,0.000000,0.586002,0.627234,0.202669,0.486405,0.482352,506.000000,481.000000,25.000000,60.000000,0.000000,0.000000:
0000
0000
0000
0000
,
0000
0000
0000
0000
,
0000
0000
0000
0000
,
0000
0000
0000
0000
,
0000
0000
1000
0000
0010
0000
0000
0000
0002
0000
0000
0013
0000
0000
0010
0000
,
0000
0000
1000
0000
0100
0000
0000
0000
0010
0000
0010
0001
0000
0001
1000
0000
,
0000
0000
0001
0000
0010
0000
0000
0000
2000
0000
0000
3010
0000
0000
0010
0000
,
0000
0000
0001
0000
0100
0000
0000
0000
0010
0000
0010
1000
0000
1000
0001
0000
,
1000
0000
0100
0000
0010
0000
0100
0000
1000
0000
0000
0010
0000
0000
0100
0000
,
0001
0000
0100
0000
0010
0000
0100
0000
0001
0000
0001
1000
0000
0100
0010
0000
,
0001
0000
0010
0000
0100
0000
0010
0000
0002
0000
0000
0103
0000
0000
0010
0000
,
1000
0000
0010
0000
0100
0000
0010
0000
1000
0000
1000
0001
0000
0010
0100
0000
,
1000
0000
0001
0000
0010
0000
0100
0000
2000
0000
0000
3001
0000
0000
0010
0000
,
0001
0000
0100
0000
0010
0000
1000
0000
0001
0000
0100
0010
0000
1000
0010
0000
,
0100
0000
0001
0000
0010
0000
0100
0000
2000
0000
0000
3010
0000
0000
0100
0000
,
0110
0000
0010
0000
1010
0000
1000
0000
1001
0000
0001
0000
0010
0100
0010
0100
,
2000
0000
0000
0000
3010
0000
0100
0000
0001
0000
0000
0001
1000
0000
0200
0000
,
0000
0000
1300
0000
0010
0000
0100
0000
0001
0000
0000
0000
1001
0000
0000
0100
,
0002
0000
0000
0000
0103
0000
0010
0000
1000
0000
0000
1000
0010
0000
0200
0000
,
0000
0000
0301
0000
0010
0000
0100
0000
1000
0000
0000
0000
0010
0100
0010
0100
,
0001
0100
0001
0100
0010
1000
0010
1000
0002
0000
0000
0013
0000
0000
0200
0000
,
0000
0000
1300
0000
0001
0000
1000
0000
0010
0000
0000
0100
0000
0000
0010
1000
,
0200
0000
0000
0000
0310
0000
0001
0000
1000
0000
0000
1000
0000
0000
0020
0000
,
0000
0000
0130
0000
0010
0000
1000
0000
0001
0000
0010
0000
0100
0010
0001
1000
,
0200
0010
1000
0001
,
2300
0100
0010
0001
,
3020
1000
0100
1030
,
0001
0000
0000
0000
0010
0000
0100
0000
1000
0000
0001
0000
0010
0100
0010
0100
,
1000
0000
0010
0000
0100
0000
0010
0000
1000
0000
0000
1000
0000
0000
1000
0000
,
0000
0000
0001
0000
0010
0000
0100
0000
0020
0000
0000
0032
0000
0000
0000
0000
,
0003
0000
0100
0000
0010
0000
0100
0000
0001
0000
0000
0001
0000
0000
0001
0000
,
0000
0000
1000
0000
0001
0000
0100
0000
0020
0000
0000
2030
0000
0000
0000
0000
,
3000
0000
0020
0000
0230
0000
0302
0000
2003
0000
0000
3001
0000
0000
0100
0000
,
0000
0000
0002
0000
0023
0000
0230
0000
2300
0000
0000
3001
0000
0000
0010
0100
,
1000
0000
0000
0001
0000
0000
0200
0000
0000
0000
0000
0000
0000
0000
0300
0000
,
0010
0000
1000
0000
0010
0000
0100
0000
0001
0000
0010
0000
0100
0010
0100
0010
,
0001
0100
0000
0100
0000
0100
0000
0100
0010
0000
1001
0000
0000
0000
0000
0000
,
1000
0010
0001
0010
1000
0100
0001
0100
,
1000
0010
0000
0010
0000
0010
0000
0010
0100
0000
1001
0000
0000
0000
0000
0000
,
0001
0100
1000
0100
0001
0010
1000
0010
,
0001
0100
0000
0100
0000
0100
0000
0100
0010
0000
1001
0000
0002
0000
0000
0000
,
1003
0100
0000
0100
0000
0100
0000
0100
0010
0000
1001
0000
2000
0000
0000
0000
,
3010
0100
0000
0100
0000
0100
0000
0100
0001
1000
0000
1000
0000
1000
0000
1000
,
0100
0000
0010
0001
2000
0000
3100
0000
0002
0000
0103
0000
0020
0000
0031
0000
,
2000
0000
0000
0000
3100
0000
0010
0000
0001
0000
0000
0001
1000
0000
0020
0000
,
0000
0000
1030
0000
0100
0000
0010
0000
0001
0000
0000
0000
1001
0000
0000
0010
,
0002
0000
0000
0000
0013
0000
0100
0000
1000
0000
0000
1000
0100
0000
0020
0000
,
0000
0000
0031
0000
0100
0000
0010
0000
1000
0000
0000
0000
0001
0100
0001
0100
,
0001
1000
0001
1000
0100
0010
0100
0010
0002
0000
0000
0013
0000
0000
0200
0000
,
0000
0000
0310
0000
0001
0000
1000
0000
0002
0000
0000
0103
0000
0000
0010
1000
,
0002
0000
0000
0013
0000
0000
0200
0000
0000
0000
0000
0000
1300
0000
0000
0000
,
0001
0000
0010
0000
0100
0000
1000
0000
0010
0000
0100
0000
0001
1000
0001
1000
,
0002
0000
0000
0000
0000
0000
0000
0000
0010
0000
0000
0010
0000
0000
0023
0000
,
0000
0000
0100
0230
,
2300
0000
0000
0000
0000
0000
0000
0000
0010
0000
0000
0010
0000
0000
3020
0000
,
0000
0000
0000
0000
0000
0000
0130
0010
1000
0010
0000
0100
0001
0000
1001
0000
,
0000
0000
0001
0000
0010
0000
0000
0000
0200
0000
0000
0310
0000
0000
0001
0000
,
0000
0000
1000
0000
0010
0000
0000
0000
0100
0000
0100
0001
0000
1000
0010
0000
,
0000
0000
2000
0000
3010
0000
0000
0000
0200
0000
0000
0310
0000
0000
1000
0000
,
0000
0000
0001
0000
0100
0000
0000
0000
0001
0000
0001
1000
0000
0100
0010
0000
,
0000
0000
0002
0000
0013
0000
0000
0000
2000
0000
0000
3010
0000
0000
0001
0000
,
0000
0000
2000
0000
3010
0000
0000
0000
0100
0000
0100
0010
0000
1000
0010
0000
,
0000
0000
2000
0000
3010
0000
0000
0000
0002
0000
0000
0013
0000
0000
1000
0000
,
0000
0000
0200
0000
0310
0000
0000
0000
0001
0000
1000
0000
0010
0100
0010
0100
,
0001
0000
1000
0000
0010
0000
0100
0000
0001
0000
0000
0001
0010
0000
0200
0000
,
0000
0000
0310
0000
0001
0000
1000
0000
0100
0000
0100
0010
0001
0000
0001
0100
,
0010
0000
1000
0000
0010
0000
0100
0000
0001
0000
0000
0001
1000
0000
0020
0000
,
0000
0000
0130
0000
0010
0000
1000
0000
0001
0000
0001
0010
0100
0000
0100
1000
,
0010
0000
1010
0000
0110
0000
0000
0000
0100
0000
0000
0001
0000
0000
0011
0000
,
0000
0000
0101
0000
1001
0000
0000
0000
1100
0000
0100
0010
0000
0100
0010
0000
,
0000
0000
0011
0000
1001
0000
0000
0000
0100
0000
0000
1000
0000
0000
1010
0000
,
0000
0000
1100
0000
0110
0000
0000
0000
0100
0000
0010
0001
0000
1000
0010
0000
,
0200
0000
0000
0000
0000
0000
0310
0000
1010
0000
0000
0011
0000
0000
1001
0000
,
0000
1000
0010
0000
1000
0001
0000
0100
0000
0000
0000
0110
0000
0000
0000
0000
;

//---------------dance-single - ----------------
#NOTES:
     dance-single:
     :
     Medium:
     6:
     0.383333,0.477893,0.210775,0.381017,0.008107,331.000000,305.000000,26.000000,47.000000,0.000000,0.000000,0.383333,0.477893,0.210775,0.381017,0.008107,331.000000,305.000000,26.000000,47.000000,0.000000,0.000000:
0000
0000
0000
0000
,
0000
0000
0000
0000
,
0000
0000
0000
0000
,
0000
0000
0000
0000
,
0000
1000
0000
0000
1000
0000
0000
1000
,
0000
0001
0000
0000
0001
0000
0001
0000
,
0000
0010
0000
0000
0010
0000
0000
0010
,
0000
0100
0000
0000
0100
0000
0100
0000
,
0000
0010
0000
0000
0001
0000
0000
0010
,
0000
0100
0000
0000
1000
0000
1000
0000
,
0000
0010
0000
0000
1000
0000
0000
0010
,
0000
0100
0000
0000
0001
0000
0001
0000
,
0000
1000
0000
0000
0010
0000
0000
0010
,
0000
0100
0000
0000
0001
0000
0100
0000
,
0000
0001
0000
0000
0010
0000
0000
0010
,
0100
1000
0001
1001
,
2000
0000
0000
3100
0010
0000
0110
0000
,
0010
0001
0100
0001
0010
0000
1001
0000
,
0002
0000
0000
0103
0010
0000
0110
0000
,
0100
0010
1000
0010
0100
0000
1001
0000
,
1000
0100
0010
0100
1000
0000
0010
0000
,
0100
0001
1000
0010
0100
0000
0110
0000
,
0002
0023
0230
2300
,
3002
0000
0203
0000
0310
0100
0010
0100
,
0020
0000
1000
1000
,
2030
0000
0001
0001
,
3002
0000
0100
0100
,
0203
0000
0000
0000
0301
0010
0100
1000
,
0000
0001
0100
0000
0001
0000
0000
0001
,
0000
1000
0100
0000
0010
0000
0010
0000
,
0000
0100
1000
0000
0001
0000
0000
0001
,
0000
0100
0001
0100
0010
0000
1000
0000
,
0000
0010
1000
0001
0100
0000
0000
0010
,
0000
1000
0100
0010
0001
0000
0200
0000
,
0320
2030
3002
0203
,
0302
0023
0230
2300
,
3020
0000
0000
0030
0110
0110
0000
0000
,
0010
0100
1000
0100
0001
0100
0010
0100
,
0002
0000
0000
0003
1001
1001
0000
0000
,
0001
1000
0010
1000
0100
1000
0001
1000
,
0200
0000
0000
0300
0110
0110
0000
0000
,
2000
0000
0000
3000
1001
1001
0000
0000
,
0202
0000
0000
0303
2020
0000
0000
3030
,
1000
0010
0100
0001
1000
0001
0010
0100
,
2000
0000
0000
0001
3001
0000
0010
0000
,
0100
0010
0001
1000
0010
0000
0110
0000
,
0002
0000
0000
1000
1003
0000
0100
0000
,
0010
0100
1000
0001
0100
0000
1001
0000
,
0100
1000
0010
0100
0001
0000
0010
0000
,
0001
0010
0100
1000
0010
0000
0200
0000
,
0302
0023
0230
2300
,
3002
0203
2300
3002
,
0023
0000
1000
0000
,
0100
0000
1000
0000
,
0230
0000
0001
0000
,
0010
0000
0310
0000
0100
0010
0100
0010
,
0000
0000
1000
0000
1000
0000
0000
0000
0200
0000
0000
0300
0000
0000
0100
0000
,
0000
0001
0001
0000
0100
0000
0110
0000
,
0000
0000
0010
0000
0010
0000
0000
0000
0002
0000
0000
0003
0000
0000
0001
0000
,
0000
0100
0100
0000
0001
0000
1001
0000
,
0000
0000
1000
0000
0010
0000
0000
0000
0200
0000
0000
0300
0000
0000
0010
0000
,
0000
1000
0001
0000
0010
0000
0011
0000
,
0000
0000
0001
0000
0100
0000
0000
0000
0020
0000
0000
0030
0000
0000
0100
0000
,
0000
0001
1000
0000
0100
0000
1100
0000
,
1000
0010
0100
0010
1000
0000
1000
0000
,
0001
0100
0010
0100
0001
0000
0001
0000
,
0010
0100
1000
0100
0010
0000
0001
0000
,
0100
0010
0001
0010
0100
0000
1000
0000
,
0100
0010
1000
0001
0010
0000
0010
0000
,
0001
0100
0010
1000
0100
0000
0100
0000
,
1000
0001
0100
0001
0010
0000
0110
0000
,
0001
1000
0100
1000
0010
0100
0001
1000
,
0020
0000
0000
0000
0000
0000
0030
0000
0110
0000
0000
0110
0000
0000
1001
0000
,
0000
0000
0000
0000
0000
0000
0000
0000
0000
0000
0000
0100
0000
0000
0000
0000
;

//---------------dance-single - ----------------
#NOTES:
     dance-single:
     :
     Beginner:
     1:
     0.157503,0.208546,0.064854,0.081068,0.000000,136.000000,128.000000,8.000000,10.000000,0.000000,0.000000,0.157503,0.208546,0.064854,0.081068,0.000000,136.000000,128.000000,8.000000,10.000000,0.000000,0.000000:
// measure 0
0000
0000
0000
0000
,  // measure 1
0000
0000
0000
0000
,  // measure 2
0000
0000
0000
0000
,  // measure 3
0000
0000
0000
0000
,  // measure 4
1000
0000
1000
0000
,  // measure 5
0001
0000
0001
0000
,  // measure 6
1000
0000
1000
0000
,  // measure 7
0001
0000
0001
0000
,  // measure 8
0200
0000
0000
0000
,  // measure 9
0310
0000
1000
0000
,  // measure 10
0020
0000
0000
0000
,  // measure 11
0130
0000
0001
0000
,  // measure 12
2000
0000
0000
0000
,  // measure 13
3100
0000
0010
0000
,  // measure 14
0002
0000
0000
0000
,  // measure 15
0013
0000
0100
0000
,  // measure 16
0010
0000
0001
0000
,  // measure 17
0100
0000
0010
0000
,  // measure 18
0010
0000
1000
0000
,  // measure 19
0100
0000
0010
0000
,  // measure 20
0001
0000
0010
0000
,  // measure 21
0100
0000
1000
0000
,  // measure 22
0010
0000
0100
0000
,  // measure 23
0001
0000
1000
0000
,  // measure 24
0200
0000
1000
0000
,  // measure 25
1000
0000
0310
0000
,  // measure 26
0020
0000
0001
0000
,  // measure 27
0001
0000
0130
0000
,  // measure 28
1000
0000
1000
0000
,  // measure 29
0100
0000
0110
0000
,  // measure 30
0001
0000
0001
0000
,  // measure 31
0010
0000
0110
0000
,  // measure 32
1000
0000
0010
0000
,  // measure 33
0100
0000
0001
0000
,  // measure 34
1000
0000
0100
0000
,  // measure 35
0010
0000
0001
0000
,  // measure 36
1000
0000
0110
0000
,  // measure 37
0000
0000
0000
0000
,  // measure 38
0001
0000
0110
0000
,  // measure 39
0000
0000
0000
0000
,  // measure 40
0010
0000
1001
0000
,  // measure 41
0100
0000
1001
0000
,  // measure 42
2000
0000
3002
0000
,  // measure 43
0103
0100
0100
0100
,  // measure 44
0100
0000
0010
0000
,  // measure 45
1000
0000
0100
0000
,  // measure 46
0100
0000
0010
0000
,  // measure 47
0001
0000
0100
0000
,  // measure 48
0001
0000
0010
0000
,  // measure 49
0100
0000
1000
0000
,  // measure 50
0010
0000
0100
0000
,  // measure 51
0001
0000
1000
0000
,  // measure 52
0200
0000
0000
0000
,  // measure 53
0300
0000
0000
0000
,  // measure 54
0020
0000
0000
0000
,  // measure 55
0030
0000
0000
0000
,  // measure 56
0001
0000
0001
0000
,  // measure 57
1000
0000
1000
0000
,  // measure 58
0001
0000
0001
0000
,  // measure 59
1000
0000
1000
0000
,  // measure 60
0010
0000
0010
0000
,  // measure 61
0100
0000
0100
0000
,  // measure 62
0010
0000
0010
0000
,  // measure 63
0100
0000
0100
0000
,  // measure 64
0001
0000
0010
0000
,  // measure 65
0100
0000
1000
0000
,  // measure 66
1000
0000
0100
0000
,  // measure 67
0010
0000
0001
0000
,  // measure 68
1000
0000
0010
0000
,  // measure 69
0100
0000
0001
0000
,  // measure 70
0001
0000
0100
0000
,  // measure 71
0010
0000
1000
0000
,  // measure 72
1001
0000
0110
0000
,  // measure 73
0000
0010
0010
0000
;
