#TITLE:Hopelessly Devoted to You;
#SUBTITLE:;
#ARTIST:Olivia Newton-John;
#TITLETRANSLIT:;
#SUBTITLETRANSLIT:;
#ARTISTTRANSLIT:;
#GENRE:;
#CREDIT:;
#BANNER:Hopelessly Devoted to You-bn.png;
#BACKGROUND:Hopelessly Devoted to You-bg.png;
#LYRICSPATH:;
#CDTITLE:loodeecdtitle.png;
#MUSIC:Hopelessly Devoted to You.ogg;
#OFFSET:-0.254;
#SAMPLESTART:71.400;
#SAMPLELENGTH:12.000;
#SELECTABLE:YES;
#BPMS:0.000=74.000,16.000=74.150,18.000=74.300,20.000=73.500,22.000=73.650,24.000=73.700,26.000=74.200,28.000=73.600,30.000=74.100,32.000=73.750,34.000=74.100,36.000=73.450,38.000=74.250,40.000=73.800,42.000=74.250,44.000=74.400,46.000=72.030,48.000=74.400,50.000=74.100,52.000=73.850,54.000=73.400,56.000=74.050,58.000=74.500,60.000=73.425,62.000=74.250,64.000=73.700,66.000=73.750,68.000=73.725,70.000=73.900,72.000=74.050,74.000=74.150,76.000=74.450,78.000=72.625,80.000=74.000,82.000=74.100,84.000=73.825,88.000=73.775,91.000=74.250,93.000=74.350,95.000=72.400,97.000=73.700,99.000=74.600,101.000=73.525,105.000=74.275,107.000=73.750,109.000=74.200,111.000=73.500,113.000=73.350,115.000=75.000,117.000=73.650,119.000=73.500,121.000=73.850,123.000=73.350,125.000=73.900,127.000=74.700;
#STOPS:;
#BGCHANGES:;
#KEYSOUNDS:;

//---------------dance-single - Loodee----------------
#NOTES:
     dance-single:
     Loodee:
     Hard:
     7:
     0.494,0.534,0.280,0.200,0.740:
0000
0000
0000
0000
,
0000
0000
0000
0000
,
0000
0000
0000
0000
,
0000
0000
0000
0000
,
1100
0000
0000
1000
0100
1000
0001
0000
0000
0100
0001
1000
,
0001
0000
0000
0010
0001
0010
0100
0000
0000
0001
0100
1000
,
0001
0000
0000
0100
0010
1000
0010
0000
0000
0100
0001
0100
,
0010
0000
0000
0001
0010
1000
0001
0010
0100
0010
0001
1000
,
0010
0000
0000
0100
0010
1000
0001
0000
0000
0010
0100
1000
,
0100
0000
0000
0001
0100
1000
0010
0000
0000
0100
0001
1000
,
0001
0000
0000
1000
0100
0010
0001
0000
0000
1000
0010
0100
,
0002
0000
0000
0000
0003
0000
0000
0000
0002
0000
0000
0000
0000
0000
0000
0000
0000
0003
0000
0000
0100
0000
0000
0000
2000
0000
0000
0000
0000
0000
0000
0000
0000
0000
0000
0000
3002
0000
0000
0000
0000
0000
0000
0000
0000
0000
0000
0000
,
0013
0000
0000
1000
0001
1000
0100
0000
0000
0010
0001
0010
,
0100
0000
0000
0010
0100
1000
0010
0000
0000
0001
0010
0100
,
1000
0000
0000
0100
0010
1000
0001
0000
0000
0010
0100
1000
,
0100
0000
0000
0010
0001
0100
0010
0000
0000
1000
0100
1000
,
0001
0000
0000
0100
0010
1000
0001
0000
0000
1000
0100
0010
,
0100
0000
0000
0001
0100
0010
0001
0000
0000
0100
0010
1000
,
0001
0000
0000
0010
0001
0100
0010
0000
0000
1000
0100
1000
,
0010
0000
0000
0100
0010
0100
2000
0000
0000
3002
0000
0000
,
0013
0000
1000
0100
0000
0001
0100
0000
0000
1001
0000
0000
,
0202
0000
0303
0110
0000
0000
0000
0000
0000
0010
0010
1000
,
1002
0000
0000
0013
0100
1000
0100
0000
0000
1000
0100
0010
,
0110
0000
0000
0000
0100
0000
1000
0000
0001
0000
0100
0000
0101
0000
0000
0000
0001
0000
0011
0000
0010
0100
1000
0000
,
1001
0000
0000
0101
0100
0010
1000
0000
0000
1100
0100
0010
,
0001
0000
0100
0010
1000
0010
1010
0000
0010
0001
0010
0100
,
1001
0000
0000
0001
1000
0100
0010
0000
0000
0011
0001
1000
,
0001
0000
0100
0001
1000
0010
1010
0000
1000
0101
0000
0001
,
2000
0000
0000
3100
0010
0001
0100
0000
0000
0010
1000
0001
,
1000
0000
0000
0100
0010
0100
0010
0000
0000
0001
1000
0001
,
0200
0000
0310
0200
0000
1300
0200
0000
0301
1000
0000
0100
,
0110
0000
0010
0011
0000
0001
0101
0000
0100
1010
0000
0010
,
2002
0000
0000
0000
,
0000
0000
0000
3003
0000
0000
0000
0000
;

//---------------dance-single - Loodee----------------
#NOTES:
     dance-single:
     Loodee:
     Medium:
     5:
     0.349,0.402,0.213,0.053,0.347:
0000
0000
0000
0000
,
0000
0000
0000
0000
,
0000
0000
0000
0000
,
0000
0000
0000
0000
,
1000
0000
0000
0100
0000
1000
0001
0000
0000
0100
0000
0000
,
0010
0000
0000
1000
0000
0001
0010
0000
0000
0100
1000
0100
,
1000
0000
0000
0001
0000
0100
0001
0000
0000
1000
0000
0000
,
0100
0000
0000
0010
0001
0010
0100
0000
0000
0001
0000
0000
,
0100
0000
0000
1000
0000
0001
0100
0000
0000
0010
0000
0000
,
1000
0000
0000
0001
0010
0100
1000
0000
0000
0010
0000
0000
,
0100
0000
0000
0010
0000
0100
0010
0000
0000
1000
0000
0000
,
0001
0001
0110
1100
,
1001
0000
0000
0001
0000
0100
0001
0000
0000
1000
0000
0000
,
0100
0000
0000
0010
0100
1000
0100
0000
0000
0001
0000
0000
,
0100
0000
0000
1000
0000
0010
0100
0000
0000
0001
0000
0000
,
1000
0000
0000
0100
1000
0001
1000
0000
0000
0010
0000
0000
,
0100
0000
0000
0001
0000
0010
0100
0000
0000
0010
0000
0000
,
0001
0000
0000
1000
0010
1000
0001
0000
0000
0010
0000
0000
,
0100
0000
0000
1000
0100
0010
0001
0000
0000
0100
0000
0000
,
0010
0000
0000
0000
0000
1000
0001
0000
0000
0010
0000
0000
,
0110
0110
1001
0101
,
0200
0000
0300
1001
0000
0000
0000
0000
0000
0001
0010
0100
,
1000
0000
0000
0100
1000
0001
1000
0000
0000
0010
0000
0000
,
0110
0000
0000
0100
0001
1000
0001
0000
0000
0010
0000
0000
,
1100
0000
0000
0100
1000
0100
1000
0000
0000
0001
0100
0010
,
0200
0000
0000
0301
0000
0000
1001
0000
1000
0100
1000
0100
,
0010
0000
0000
0001
1000
0001
1000
0000
0000
0010
0100
0001
,
0100
0000
0000
0100
0000
0010
0100
0000
0001
1000
0000
0100
,
0010
0000
0000
0001
0010
0001
1000
0000
0000
0010
0000
0000
,
0100
0000
0000
0001
1000
0001
1000
0000
0100
1000
0000
0001
,
1000
0000
0010
0100
0000
0001
0100
0000
0010
1000
0000
0000
,
1100
0011
0110
0110
,
2002
0000
0000
0000
,
0000
0000
3003
0000
;

//---------------dance-single - Loodee----------------
#NOTES:
     dance-single:
     Loodee:
     Easy:
     3:
     0.208,0.213,0.040,0.093,0.000:
0000
0000
0000
0000
,
0000
0000
0000
0000
,
0000
0000
0000
0000
,
0000
0000
0000
0000
,
0001
0001
1000
1000
,
0010
0000
0010
1000
,
0001
0001
0010
0010
,
0100
0000
0100
1000
,
0001
0001
1000
1000
,
0010
0000
0100
0001
,
0010
0000
0100
1000
,
0001
0001
2000
0010
,
3010
0010
0100
0100
,
0001
0000
0001
0000
,
1000
1000
0100
0100
,
1000
0000
1000
0000
,
0010
0010
0100
0100
,
0001
1000
0001
0000
,
0001
0010
0100
1000
,
0010
0010
0100
0010
,
2000
3002
2003
3100
,
0010
1001
0000
0000
,
1001
0001
1000
0001
,
1000
0100
1000
0000
,
0001
0100
0001
0100
,
0001
1000
0001
0001
,
0001
0010
0001
0010
,
0100
1000
0100
1000
,
0010
0010
0100
0100
,
0001
0001
1000
0000
,
0100
0100
0100
1000
,
0002
0203
0302
0003
,
1001
0000
0000
0000
;
