#VERSION:0.83;
#TITLE:Go Beyond!!;
#SUBTITLE:;
#ARTIST:Ryu* vs. Sota;
#TITLETRANSLIT:;
#SUBTITLETRANSLIT:;
#ARTISTTRANSLIT:;
#GENRE:TRANCE CORE;
#ORIGIN:;
#CREDIT:usaminseijin;
#BANNER:[ROUND E] - Go Beyond!!.png;
#BACKGROUND:[ROUND E] - Go Beyond!!-bg.png;
#PREVIEWVID:;
#JACKET:[ROUND E] - Go Beyond!!-jacket.png;
#CDIMAGE:;
#DISCIMAGE:;
#LYRICSPATH:;
#CDTITLE:cdtitle.png;
#MUSIC:[ROUND E] - Go Beyond!!.mp3;
#OFFSET:-0.420000;
#SAMPLESTART:1.620000;
#SAMPLELENGTH:9.559999;
#SELECTABLE:YES;
#BPMS:0.000=200.000;
#STOPS:;
#DELAYS:;
#WARPS:;
#TIMESIGNATURES:0.000=4=4;
#TICKCOUNTS:0.000=4;
#COMBOS:0.000=1;
#SPEEDS:0.000=1.000=0.000=0;
#SCROLLS:0.000=1.000;
#FAKES:;
#LABELS:0.000=Song Start;
#BGCHANGES:-1.000=[ROUND E] - Go Beyond!!.avi=1.000=1=0=0=StretchNoLoop==CrossFade==,
99999=-nosongbg-=1.000=0=0=0 // don't automatically add -songbackground-
;
#KEYSOUNDS:;
#ATTACKS:
;

//---------------dance-single - ----------------
#NOTEDATA:;
#CHARTNAME:;
#STEPSTYPE:dance-single;
#DESCRIPTION:;
#CHARTSTYLE:;
#DIFFICULTY:Hard;
#METER:9;
#RADARVALUES:0.491425,0.740527,0.432115,0.516844,0.059310,406.000000,355.000000,51.000000,61.000000,0.000000,0.000000,0.000000,0.000000,0.000000,0.491425,0.740527,0.432115,0.516844,0.059310,406.000000,355.000000,51.000000,61.000000,0.000000,0.000000,0.000000,0.000000,0.000000;
#CREDIT:usaminseijin;
#OFFSET:-0.420000;
#BPMS:0.000000=200.000000
,64.000000=400.000000
,68.000000=200.000000
,84.000000=400.000000
,91.000000=200.000000
,92.000000=400.000000
,93.000000=200.000000
,94.000000=400.000000
,95.000000=200.000000
,100.000000=100.000000
,152.000000=200.000000
,153.000000=400.000000
,156.000000=200.000000
,184.000000=400.000000
,188.000000=200.000000
,216.000000=400.000000
,220.000000=200.000000
,248.000000=400.000000
,252.000000=200.000000
,280.000000=400.000000
,284.000000=100.000000
,304.000000=200.000000
;
#STOPS:64.000000=0.150000
,65.000000=0.150000
,66.000000=0.150000
,67.000000=0.150000
,84.000000=0.150000
,85.000000=0.150000
,86.000000=0.075000
,86.500000=0.150000
,87.500000=0.075000
,88.000000=0.075000
,88.500000=0.150000
,89.500000=0.150000
,90.500000=0.075000
,92.000000=0.075000
,92.500000=0.075000
,94.000000=0.075000
,94.500000=0.075000
,152.000000=1.200000
,153.000000=0.150000
,154.000000=0.150000
,155.000000=0.150000
,184.000000=0.150000
,185.000000=0.150000
,186.000000=0.150000
,187.000000=0.150000
,216.000000=0.150000
,217.000000=0.150000
,218.000000=0.150000
,219.000000=0.150000
,248.000000=0.150000
,249.000000=0.150000
,250.000000=0.150000
,251.000000=0.150000
,280.000000=0.150000
,281.000000=0.150000
,282.000000=0.150000
,283.000000=0.150000
;
#DELAYS:;
#WARPS:;
#TIMESIGNATURES:0.000000=4=4
;
#TICKCOUNTS:0.000000=4
;
#COMBOS:0.000000=1
;
#SPEEDS:0.000000=1.000000=0.000000=0
;
#SCROLLS:0.000000=1.000000
;
#FAKES:;
#LABELS:0.000000=Song Start
;
#NOTES:
// measure 0
0000
0000
0000
0000
,  // measure 1
0000
0000
0000
0000
,  // measure 2
0000
0000
0000
0000
,  // measure 3
0000
0000
0000
0000
,  // measure 4
0000
0000
0000
0000
,  // measure 5
1000
0001
1000
0001
0100
0010
0100
0010
,  // measure 6
1001
0000
0000
0100
0000
0000
0001
0000
0110
0000
0000
0000
0000
0000
0000
0000
,  // measure 7
1001
0000
0100
0000
1000
0001
1000
0000
,  // measure 8
0010
0000
0000
0100
0000
0000
0010
0000
1000
0000
0001
0000
1000
0001
1000
0001
,  // measure 9
0010
0000
0011
0000
1000
0001
0000
0110
,  // measure 10
0000
1001
0000
0101
0000
1000
0001
0000
,  // measure 11
0110
0000
1001
0000
0100
0001
1000
0010
,  // measure 12
1000
0001
0000
0110
0000
1001
0000
0100
,  // measure 13
1000
0000
1001
0000
0100
0001
0000
0110
,  // measure 14
0000
1001
0000
0110
0000
1000
0001
0000
,  // measure 15
1010
0000
0110
0000
1000
0001
0100
0001
,  // measure 16
2000
3002
0203
0320
,  // measure 17
1030
0000
0101
0000
1000
0100
0000
0011
,  // measure 18
0000
1001
0000
0110
0000
1000
0001
0000
,  // measure 19
1010
0000
0110
0000
0001
0100
0001
0010
,  // measure 20
0000
1010
0000
0101
0000
1000
0001
0000
,  // measure 21
1001
0000
1001
0000
0100
0010
0000
1000
,  // measure 22
0001
0000
1000
0000
0000
0000
1001
0000
0000
0000
0110
0000
1000
0001
1000
0001
,  // measure 23
1000
0000
0001
0000
0100
0010
0100
0010
1000
0000
0001
0000
0100
0010
0100
0010
,  // measure 24
2000
0000
0000
0000
,  // measure 25
3200
0320
0032
2003
,  // measure 26
3200
0000
0000
0320
,  // measure 27
0230
2300
3002
0203
,  // measure 28
0320
0000
0000
2030
,  // measure 29
3002
0203
0320
2030
,  // measure 30
3002
0000
0000
0023
,  // measure 31
0230
2300
3020
0230
,  // measure 32
0302
0000
0000
0023
,  // measure 33
0230
0000
0000
2300
,  // measure 34
3002
0000
0000
0023
,  // measure 35
0230
2300
3020
0230
,  // measure 36
0302
0000
0000
0000
,  // measure 37
0000
0000
2000
0000
,  // measure 38
3003
0001
0001
0001
,  // measure 39
1000
0010
1000
0010
0100
0001
0100
0001
,  // measure 40
1000
0010
0100
0001
0100
0010
1000
0001
,  // measure 41
1000
0010
0100
0001
1000
0001
0100
0010
,  // measure 42
1000
0010
0100
0001
1000
0010
0100
0001
,  // measure 43
1000
0001
0100
0010
1000
0001
0100
0010
,  // measure 44
1000
0010
0100
0001
1000
0010
0100
0001
,  // measure 45
1000
0010
0100
0010
0100
0001
1000
0010
,  // measure 46
2000
3002
0203
0320
,  // measure 47
1030
0001
0100
0001
1000
0010
0100
0010
,  // measure 48
1000
0001
1000
0010
0100
0001
0100
0010
,  // measure 49
1000
0001
0100
0010
1000
0001
0100
0010
,  // measure 50
1000
0010
0100
0001
1000
0010
0100
0001
,  // measure 51
1000
0001
0100
0010
0100
0010
1000
0001
,  // measure 52
0100
0010
1000
0001
0100
0010
0100
0001
,  // measure 53
1000
0100
0010
0001
1000
0010
0100
0001
,  // measure 54
2000
0001
0001
3001
,  // measure 55
1000
1010
0010
0110
,  // measure 56
1000
0000
1001
0000
0001
0000
0100
0001
,  // measure 57
1000
1001
0010
0110
,  // measure 58
0100
0000
0101
0000
0010
0000
0100
0010
,  // measure 59
1000
0101
0010
1010
,  // measure 60
0100
0000
0110
0000
0001
0000
1000
0001
,  // measure 61
1000
0110
0001
0011
,  // measure 62
2000
3002
0203
0320
,  // measure 63
1030
0110
0001
1001
,  // measure 64
1000
0000
1010
0000
0010
0000
0100
0010
,  // measure 65
0100
0101
0001
0011
,  // measure 66
0010
0000
1001
0000
0010
0000
1000
0010
,  // measure 67
1001
0000
0101
0000
0100
0010
0000
1000
,  // measure 68
0001
1000
0000
0110
0000
1001
0000
0110
,  // measure 69
1000
0000
0001
0000
0100
0010
0100
0010
1000
0000
0001
0000
0100
0010
0100
0010
,  // measure 70
2000
3002
0203
0320
,  // measure 71
0230
0000
0000
0302
,  // measure 72
0023
0000
0000
0032
,  // measure 73
2003
3020
0230
0320
,  // measure 74
2030
0000
0000
0000
,  // measure 75
0000
0000
0000
0000
,  // measure 76
3000
0000
0000
0000
;

//---------------dance-single - ----------------
#NOTEDATA:;
#CHARTNAME:;
#STEPSTYPE:dance-single;
#DESCRIPTION:;
#CHARTSTYLE:;
#DIFFICULTY:Medium;
#METER:8;
#RADARVALUES:0.393382,0.547346,0.110147,0.398224,0.008473,325.000000,312.000000,13.000000,47.000000,0.000000,0.000000,0.000000,0.000000,0.000000,0.393382,0.547346,0.110147,0.398224,0.008473,325.000000,312.000000,13.000000,47.000000,0.000000,0.000000,0.000000,0.000000,0.000000;
#CREDIT:usaminseijin;
#OFFSET:-0.420000;
#BPMS:0.000000=200.000000
,100.000000=100.000000
,152.000000=200.000000
,284.000000=100.000000
,304.000000=200.000000
;
#STOPS:152.000000=1.200001
;
#DELAYS:;
#WARPS:;
#TIMESIGNATURES:0.000000=4=4
;
#TICKCOUNTS:0.000000=4
;
#COMBOS:0.000000=1
;
#SPEEDS:0.000000=1.000000=0.000000=0
;
#SCROLLS:0.000000=1.000000
;
#FAKES:;
#LABELS:0.000000=Song Start
;
#NOTES:
0000
0000
0000
0000
,
0000
0000
0000
0000
,
0000
0000
0000
0000
,
0000
0000
0000
0000
,
0000
0000
0000
0000
,
1000
0001
1000
0001
0100
0010
0100
0010
,
1000
0000
0000
0100
0000
0000
1000
0000
0001
0000
0000
0000
0000
0000
0000
0000
,
1000
0000
0001
0000
0100
0010
0100
0000
,
0001
0000
0000
1000
0000
0000
0001
0000
0100
0000
0010
0000
1000
0000
0001
0000
,
0010
0000
0001
0000
1000
0001
0000
0010
,
0000
1001
0000
0100
0000
1000
0001
0000
,
0010
0000
0001
0000
0100
0001
1000
0010
,
1000
0001
0000
0100
0000
0001
0000
1000
,
0001
0000
0001
0000
0100
0001
0000
0010
,
0000
0001
0000
0100
0000
0001
1000
0000
,
1000
0000
0010
0000
1000
0001
0100
0001
,
1000
0001
0100
0010
,
1000
0000
0001
0000
1000
0100
0000
0010
,
0000
0001
0000
1000
0000
0010
1000
0000
,
0001
0000
0001
0000
1000
0100
1000
0010
,
0000
1000
0000
0001
0000
0100
0001
0000
,
0100
0000
0010
0000
1000
0001
0000
0100
,
0010
0100
0000
0001
0000
0010
0100
0010
,
0001
1000
0010
0100
0001
1000
0010
0100
,
0002
0000
0000
0000
,
0203
0320
2030
3002
,
0203
0000
0000
0320
,
0230
0302
2003
3200
,
0320
0000
0000
0032
,
2003
3200
0320
0032
,
2003
0000
0000
3020
,
0230
0302
0023
0230
,
2300
0000
0000
3020
,
0230
0000
0000
0302
,
2003
0000
0000
3020
,
0230
0302
0023
0230
,
2300
0000
0000
0000
,
0000
0000
0002
0000
,
3003
0001
0001
0001
,
1000
1001
0010
0110
,
1000
0000
0110
0000
0010
0000
1000
0001
,
1000
0110
0010
0101
,
1000
0110
0002
0000
,
1003
0110
0010
0110
,
1000
0101
0010
1010
,
1000
1001
0010
0110
,
1000
0001
0100
0010
,
1000
0001
1000
0001
0100
0010
0100
0010
,
1000
0010
1000
0010
0100
0001
0100
0001
,
1000
0001
1000
0001
0100
0010
0100
0010
,
1000
0100
1000
0100
0020
0000
0000
0030
,
1000
0001
1000
0001
0100
0010
0100
0010
,
1000
0010
1000
0010
0100
0010
0100
0010
,
0100
0001
0100
0001
1000
0001
1000
0001
,
2000
0001
0001
3001
,
1000
1000
0010
0010
,
1000
0000
1000
0000
0001
0000
0100
0001
,
1000
1000
0010
0010
,
0100
0000
0100
0000
0010
0000
0100
0010
,
1000
1000
0010
0010
,
0100
0000
0100
0000
0001
0000
1000
0001
,
1000
1000
0001
0001
,
1000
0001
0100
0010
,
1000
1000
0001
0001
,
1000
0000
1000
0000
0100
0000
1000
0001
,
0010
0010
0001
0001
,
1000
0000
1000
0000
0001
0000
1000
0010
,
1000
0000
0001
0000
0100
0010
0000
1000
,
0001
1000
0000
0100
0000
0010
0000
1000
,
0001
1000
0010
0100
0001
1000
0010
0100
,
0001
1000
0010
0100
,
0020
0000
0000
0230
,
0302
0000
0000
2003
,
3020
0230
0302
2003
,
3020
0000
0000
0000
,
0000
0000
0000
0000
,
0030
0000
0000
0000
;

//---------------dance-single - ----------------
#NOTEDATA:;
#CHARTNAME:;
#STEPSTYPE:dance-single;
#DESCRIPTION:;
#CHARTSTYLE:;
#DIFFICULTY:Easy;
#METER:5;
#RADARVALUES:0.294129,0.418559,0.000000,0.271131,0.000000,243.000000,243.000000,0.000000,32.000000,0.000000,0.000000,0.000000,0.000000,0.000000,0.294129,0.418559,0.000000,0.271131,0.000000,243.000000,243.000000,0.000000,32.000000,0.000000,0.000000,0.000000,0.000000,0.000000;
#CREDIT:usaminseijin;
#OFFSET:-0.420000;
#BPMS:0.000000=200.000000
,100.000000=100.000000
,152.000000=200.000000
,284.000000=100.000000
,304.000000=200.000000
;
#STOPS:152.000000=1.200001
;
#DELAYS:;
#WARPS:;
#TIMESIGNATURES:0.000000=4=4
;
#TICKCOUNTS:0.000000=4
;
#COMBOS:0.000000=1
;
#SPEEDS:0.000000=1.000000=0.000000=0
;
#SCROLLS:0.000000=1.000000
;
#FAKES:;
#LABELS:0.000000=Song Start
;
#NOTES:
0000
0000
0000
0000
,
0000
0000
0000
0000
,
0000
0000
0000
0000
,
0000
0000
0000
0000
,
0000
0000
0000
0000
,
1000
0001
0100
0010
,
1000
0000
0000
1000
0001
0000
0000
0000
,
2000
0000
3001
0001
,
1000
0001
0100
0010
,
1000
0000
0001
0000
0100
0001
0000
0010
,
0000
0001
0000
0100
0000
0001
1000
0000
,
0010
0000
1000
0000
0001
0000
1000
0010
,
1000
0001
0000
0100
0000
0001
0000
1000
,
0001
0000
0001
0000
0100
0001
0000
0010
,
0000
0001
0000
0100
0000
0001
1000
0000
,
1000
0000
0010
0000
1000
0001
0000
0010
,
0001
1000
0010
1000
,
0001
0000
1000
0000
0001
0100
0000
0010
,
0000
1000
0000
0001
0000
0100
0001
0000
,
1000
0000
0010
0000
1000
0000
0010
0001
,
0000
1000
0000
0001
0000
0010
0001
0000
,
0100
0000
0010
0000
1000
0001
0000
0100
,
0000
0100
0000
0001
0000
0010
0000
0010
,
0001
1000
0010
0100
,
0002
0000
0000
0000
,
0103
0010
1000
0001
,
0200
0000
0000
0310
,
0100
0001
1000
0100
,
0020
0000
0000
0031
,
1000
0100
0010
0001
,
2000
0000
0000
3010
,
0100
0001
0010
0100
,
2000
0000
0000
3010
,
0200
0000
0000
0301
,
2000
0000
0000
3010
,
0100
0001
0010
0100
,
2000
0000
0000
0000
,
0000
0000
0002
0000
,
3003
0001
0001
0001
,
1000
0001
0010
0100
,
1000
0000
0010
0000
0010
0000
1000
0001
,
1000
0100
0010
0001
,
1000
0010
0002
0000
,
1003
0100
0010
0100
,
1000
0001
0010
1000
,
0010
0001
0010
0100
,
1000
0001
0100
0010
,
1000
0001
1000
0000
0010
0100
0010
0000
,
1000
0010
1000
0000
0001
0100
0001
0000
,
1000
0001
1000
0000
0010
0100
0010
0000
,
1000
0100
1000
0000
0020
0000
0030
0000
,
1000
0001
1000
0000
0010
0100
0010
0000
,
1000
0010
1000
0000
0010
0100
0010
0000
,
0100
0001
0100
0000
0001
1000
0001
0000
,
1000
0001
0001
0001
,
2000
3000
0020
0030
,
2000
3000
0002
0003
,
2000
0000
0000
0000
,
3000
0000
0002
0003
,
0200
0300
0020
0030
,
0200
0300
0002
0003
,
2000
0000
0000
3000
,
0001
1000
0010
0100
,
0002
0003
2000
3000
,
0020
0030
0200
0300
,
0002
0000
0000
0000
,
0003
0000
2000
3000
,
0001
0000
1000
0000
0010
0100
0000
0001
,
1000
0000
0000
0010
0000
0100
0000
0001
,
1000
0010
0100
0001
,
1000
0010
0100
0001
,
0020
0000
0000
0130
,
2000
0000
0000
3001
,
0010
0100
1000
0001
,
0020
0000
0000
0000
,
0000
0000
0000
0000
,
0030
0000
0000
0000
;

//---------------dance-single - ----------------
#NOTEDATA:;
#CHARTNAME:;
#STEPSTYPE:dance-single;
#DESCRIPTION:;
#CHARTSTYLE:;
#DIFFICULTY:Beginner;
#METER:2;
#RADARVALUES:0.232398,0.346963,0.000000,0.152511,0.000000,192.000000,192.000000,0.000000,18.000000,0.000000,0.000000,0.000000,0.000000,0.000000,0.232398,0.346963,0.000000,0.152511,0.000000,192.000000,192.000000,0.000000,18.000000,0.000000,0.000000,0.000000,0.000000,0.000000;
#CREDIT:usaminseijin;
#NOTES:
0000
0000
0000
0000
,
0000
0000
0000
0000
,
0000
0000
0000
0000
,
0000
0000
0000
0000
,
0000
0000
0000
0000
,
1000
1000
1000
0000
,
1000
0000
0001
0000
,
1000
0000
0001
0001
,
1000
0001
0100
0010
,
1000
1000
1000
0000
,
0010
0010
0010
0000
,
0001
0001
0001
0000
,
0100
0100
0100
0000
,
1000
1000
1000
0000
,
0100
0100
0100
0000
,
0010
0010
0010
0000
,
0001
1000
0001
1000
,
0001
0001
0001
0000
,
0010
0010
0010
0000
,
1000
1000
1000
0000
,
0100
0100
0100
0000
,
0010
0010
1000
0000
,
0100
0100
0001
0000
,
1000
0001
0100
0010
,
1000
0000
0000
0000
,
0001
0000
0010
0000
,
0100
0000
1000
0000
,
0200
0000
0000
0300
,
0000
0000
0010
0000
,
0100
0000
1000
0000
,
0001
0000
0100
0000
,
0020
0000
0000
0030
,
0000
0000
1000
0000
,
0001
0000
0100
0000
,
0010
0000
1000
0000
,
0002
0000
0000
0003
,
0000
0000
0010
0000
,
0100
0000
1000
0000
,
0010
0000
0100
0000
,
0002
0000
0000
0003
,
0000
0000
0010
0000
,
0200
0000
0000
0300
,
0000
0000
1000
0000
,
0002
0000
0000
0003
,
0000
0000
0010
0000
,
0100
0000
1000
0000
,
0010
0000
0100
0000
,
0002
0000
0000
0003
,
0000
0000
0000
0000
,
0000
0000
0000
0000
,
2000
0000
0000
3000
,
0000
0000
0000
0000
,
0000
0001
0001
0001
,
1000
1000
0010
0010
,
1000
1000
0001
0001
,
0100
0100
0010
0010
,
1000
1000
0002
0000
,
1003
1000
0010
0010
,
0100
0100
0001
0001
,
1000
1000
0010
0010
,
2000
3000
0002
0003
,
1000
1000
0010
0010
,
0100
0100
0001
0001
,
1000
1000
0010
0010
,
0100
0100
0002
0003
,
1000
1000
0010
0010
,
0100
0100
0001
0001
,
0100
0100
0001
0001
,
1000
0001
0001
0001
,
1000
0000
0010
0000
,
1000
0000
0001
0000
,
2000
0000
0000
3000
,
0000
0000
0010
0000
,
1000
0000
0010
0000
,
0100
0000
0001
0000
,
2000
0000
0000
3000
,
0001
1000
0010
0100
,
0001
0000
1000
0000
,
0010
0000
1000
0000
,
0020
0000
0000
0030
,
0000
0000
1000
0000
,
1000
0000
0001
0000
,
1000
0000
0010
0000
,
0200
0000
0000
0300
,
0000
0000
0000
0000
,
0020
0000
0000
0030
,
0000
0000
0100
0000
,
0002
0000
0000
0003
,
0000
0000
1000
0000
,
0010
0000
0100
0000
,
0001
0000
1000
0000
,
0010
0000
0000
0000
;

//---------------dance-single - ----------------
#NOTEDATA:;
#CHARTNAME:;
#STEPSTYPE:dance-single;
#DESCRIPTION:;
#CHARTSTYLE:;
#DIFFICULTY:Challenge;
#METER:10;
#RADARVALUES:0.750453,1.941342,0.321968,0.601573,0.940487,620.000000,582.000000,38.000000,71.000000,0.000000,0.000000,0.000000,0.000000,0.000000,0.750453,1.941342,0.321968,0.601573,0.940487,620.000000,582.000000,38.000000,71.000000,0.000000,0.000000,0.000000,0.000000,0.000000;
#CREDIT:usaminseijin;
#OFFSET:-0.420000;
#BPMS:0.000000=200.000000
,77.500000=400.000000
,84.500000=200.000000
,85.000000=400.000000
,86.000000=200.000000
,86.500000=400.000000
,87.500000=200.000000
,92.000000=100.000000
,108.000000=50.000000
,126.000000=200.000000
,127.000000=400.000000
,130.000000=200.000000
,158.000000=400.000000
,166.000000=200.000000
,194.000000=400.000000
,198.000000=200.000000
,226.000000=400.000000
,230.000000=200.000000
,246.000000=400.000000
,254.000000=200.000000
,255.000000=400.000000
,256.000000=200.000000
,257.000000=400.000000
,262.000000=100.000000
,282.000000=200.000000
;
#STOPS:18.000000=0.300000
,25.000000=0.300000
,32.000000=0.150000
,32.500000=0.150001
,45.500000=0.150000
,46.000000=0.150001
,46.500000=0.150001
,59.500000=0.150000
,60.000000=0.150000
,60.500000=0.150000
,61.000000=0.150000
,77.500000=0.150000
,78.500000=0.150000
,79.500000=0.075001
,80.000000=0.150000
,81.000000=0.075001
,81.500000=0.074999
,82.000000=0.150000
,83.000000=0.150000
,84.000000=0.075001
,84.500000=0.150002
,85.000000=0.075001
,85.500000=0.074999
,86.000000=0.150000
,86.500000=0.075001
,87.000000=0.074999
,87.500000=0.150000
,126.000000=1.200001
,127.000000=0.150002
,128.000000=0.149998
,129.000000=0.149998
,194.000000=0.150002
,195.000000=0.150002
,196.000000=0.150002
,197.000000=0.150002
,226.000000=0.150002
,227.000000=0.150002
,228.000000=0.150002
,229.000000=0.150002
,246.000000=0.150002
,247.000000=0.150002
,248.000000=0.074997
,248.500000=0.150002
,249.500000=0.075005
,250.000000=0.075005
,250.500000=0.150002
,251.500000=0.150002
,252.500000=0.150002
,253.500000=0.074997
,255.000000=0.150002
,257.000000=0.150002
,258.000000=0.150002
,259.000000=0.150002
,260.000000=0.150002
,261.000000=0.150002
;
#DELAYS:;
#WARPS:;
#TIMESIGNATURES:0.000000=4=4
;
#TICKCOUNTS:0.000000=4
;
#COMBOS:0.000000=1
;
#SPEEDS:0.000000=1.000000=0.000000=0
;
#SCROLLS:0.000000=1.000000
;
#FAKES:;
#LABELS:0.000000=Song Start
;
#NOTES:
0000
0000
0000
0000
,
0000
0000
0000
0000
,
0000
0000
0000
0000
,
0000
0000
0000
0000
,
0000
0000
0000
0000
0000
0000
1000
0001
,
1000
0000
0001
0000
0100
0000
0010
0000
0100
0000
0010
0000
1001
0000
0000
0100
,
0000
0000
0001
0000
0220
0330
0000
0000
1001
0000
0000
0000
0100
0000
0000
0000
,
1000
0000
0001
0000
1000
0000
0000
0000
0010
0000
0000
0100
0000
0000
0010
0000
,
2000
3002
0013
0000
0011
0000
1000
0001
,
0000
0110
0000
1001
0000
0101
0000
1000
,
0001
0000
0110
0000
1001
0000
0100
0001
,
1000
0010
1000
0001
0110
1001
0100
1000
,
0000
1001
0000
0100
0001
0000
0110
0000
,
1001
0000
0110
0000
1000
0001
0000
1010
,
0000
0110
0000
1000
0001
0100
0001
2000
,
3002
0203
0320
1030
0000
0101
0000
1000
,
0100
0011
1001
0110
,
1000
0001
0000
1010
0000
0110
0000
0001
,
0100
0001
0010
0000
1010
0000
0101
0000
,
1000
0001
0000
1001
0000
0110
0000
1000
,
0001
0000
0100
0010
0100
0000
1001
0000
,
0110
0000
2002
3003
1000
0000
0001
0000
0220
0330
1000
0000
0001
0000
0220
0330
,
2000
0000
0000
0000
,
3200
0320
0032
2003
,
3200
0000
0000
0320
,
0230
2300
3002
0203
,
0320
0000
0000
2030
,
3001
0100
0010
0100
0001
0100
0001
1000
0010
1000
0010
0100
0010
1000
0001
1000
0001
0100
0010
0100
0001
1000
0010
1000
0001
0100
0010
0100
0001
1000
0010
1000
,
0001
0100
0010
0100
0010
1000
0010
0100
0001
0100
0010
0100
0001
1000
0010
1000
0001
1000
0010
1000
0001
0100
0010
0100
0010
1000
0001
0100
0010
1000
0100
1000
,
0001
0100
0010
1000
0100
1000
0010
0100
0001
0100
0010
1000
0001
1000
0010
1000
0001
0100
0010
0100
0001
1000
0010
1000
0010
0100
0010
1000
0001
0100
0010
0100
,
0010
1000
0001
1000
0010
0100
0001
1000
0001
0100
0010
0100
0001
1000
0010
1000
0001
0010
0100
1000
0001
0010
0100
1000
0001
0010
0100
1000
0001
0010
0100
1000
,
0001
0100
0010
1000
0001
0100
0010
1000
0001
0100
0010
1000
0001
0100
0010
1000
0000
0000
0000
0000
0000
0000
0000
0000
0001
0000
0000
0000
0000
0000
0000
0000
,
0001
0000
0000
0000
0001
0000
0000
0000
1000
0010
1000
0010
0100
0001
0100
0001
,
1000
0010
1000
0010
0100
0001
0100
0001
1000
0010
1000
0010
0100
0001
0100
0001
,
0100
0010
0100
0010
1000
0001
1000
0001
1000
0010
1000
0010
0100
0001
0100
0001
,
1000
0001
1000
0001
0100
0010
0100
0010
1000
0010
1000
0010
0100
0001
0100
0001
,
1000
0010
1000
0010
0100
0001
0100
0001
1000
0001
1000
0001
0100
0010
0100
0010
,
1000
0001
1000
0001
0100
0010
0100
0010
1000
0010
1000
0010
0100
0001
0100
0001
,
1000
0010
1000
0010
0100
0001
0100
0001
1000
0010
1000
0010
0100
0010
0100
0010
,
0100
0001
0100
0001
1000
0010
1000
0010
1000
0000
0100
0000
0010
0000
0001
0000
,
1000
0100
0010
0001
1000
0100
0010
0001
,
1000
0000
0100
0000
0010
0000
0001
0000
1000
0001
0100
0001
1000
0010
0100
0001
,
1000
0010
0100
0010
1000
0001
0010
0001
1000
0001
0100
0001
1000
0010
0100
0001
,
1000
0010
1000
0001
0100
0010
0100
0001
1000
0001
0100
0010
1000
0010
0100
0001
,
1000
0010
0100
0001
0100
0010
1000
0001
1000
0010
0100
0001
1000
0100
0010
0001
,
1000
0010
0100
0001
1000
0001
0100
0001
1000
0001
0100
0010
1000
0010
0100
0001
,
0100
0010
1000
0001
0100
0010
1000
0001
0100
0001
1000
0010
0100
0001
0100
0010
,
1000
0001
0100
0010
1000
0001
0100
0001
1000
0100
0010
0001
1000
0100
0010
0001
,
1000
0010
0100
0001
1000
0010
0100
0001
2000
0000
0000
0000
0001
0000
0000
0000
,
0001
3001
2000
0001
,
3002
0100
0203
0010
,
0320
0000
1000
1000
2030
0000
0010
0000
,
3020
0100
0230
0001
,
0302
0000
1000
1000
2003
0000
0001
0000
,
3020
0100
0230
0010
,
0320
0000
1000
1000
2030
0000
0100
0000
,
3200
0010
0302
2003
,
3020
0230
2300
0001
,
3020
0100
2030
0001
,
3020
0000
0100
0100
2030
0000
0010
0000
,
3002
0100
0023
0001
,
0230
0000
1000
1000
1300
0000
0101
0000
,
0100
0010
0000
1000
0001
1000
0000
0110
,
0000
0000
1001
0000
0000
0000
0110
0000
1000
0000
0001
0000
0220
0330
0000
0000
,
1000
0000
0001
0000
0220
0330
0000
0000
2000
0000
0000
0000
3002
0000
0000
0000
,
0203
0320
0230
0000
,
0000
0302
0023
0000
,
0000
0032
2003
3020
,
0230
0320
2030
0000
,
0000
0000
0000
0000
,
0000
0000
3000
0000
;
