#TITLE:Gatorix;
#SUBTITLE:;
#ARTIST:NeLiME vs Presti;
#TITLETRANSLIT:;
#SUBTITLETRANSLIT:;
#ARTISTTRANSLIT:;
#GENRE:;
#CREDIT:;
#BANNER:[ROUND E] - Gatorix-bn.png;
#BACKGROUND:[ROUND E] - Gatorix-bg.png;
#LYRICSPATH:;
#CDTITLE:;
#MUSIC:[ROUND E] - Gatorix.ogg;
#OFFSET:-0.300000;
#SAMPLESTART:25.792852;
#SAMPLELENGTH:11.999998;
#SELECTABLE:YES;
#BPMS:0.000000=160.000000
;
#STOPS:
;
#BGCHANGES:;
#KEYSOUNDS:;
#ATTACKS:;

//---------------dance-single - ----------------
#NOTES:
     dance-single:
     :
     Hard:
     8:
     0.555353,0.546414,0.174974,0.053253,0.190189,481.000000,23.000000,7.000000,0.000000,0.000000,0.000000,0.555353,0.546414,0.174974,0.053253,0.190189,481.000000,23.000000,7.000000,0.000000,0.000000,0.000000:
// measure 0
0000
0000
0000
0000
,  // measure 1
0000
0000
0000
0000
,  // measure 2
0000
0000
0000
0000
,  // measure 3
0000
0000
0000
0000
,  // measure 4
0000
0000
0000
0000
,  // measure 5
0110
0001
1000
0100
,  // measure 6
0010
0001
0100
0010
,  // measure 7
0001
0010
0100
0001
,  // measure 8
1000
0100
0010
0100
,  // measure 9
1001
0100
0010
1000
,  // measure 10
0100
0000
0010
0000
0001
0000
0100
0001
,  // measure 11
0100
0010
1000
0100
,  // measure 12
0010
0000
0100
0000
1000
0001
1000
0001
,  // measure 13
0100
0010
1000
0100
,  // measure 14
0010
0000
1000
0000
0010
0001
0010
0001
,  // measure 15
1000
0010
1000
0010
0100
0001
0100
0001
,  // measure 16
1000
0100
0010
0001
0100
0000
0110
0000
,  // measure 17
1000
0100
0000
0100
0010
0001
1000
0010
,  // measure 18
0100
0000
0001
0000
0000
0001
0000
0010
0001
0000
0010
0000
0100
0000
1000
0000
,  // measure 19
0001
0100
0000
0100
0010
0100
1000
0100
,  // measure 20
0001
0000
1000
0000
0000
0100
0000
0100
0010
0000
0001
0000
0010
0001
0010
0000
,  // measure 21
0100
1000
0000
1000
0001
1000
0010
0100
,  // measure 22
0001
0000
0010
0000
0000
0010
0000
0100
0010
0000
0001
0000
1000
0000
0100
0000
,  // measure 23
0010
0001
0000
0001
0100
1000
0100
0010
,  // measure 24
0100
0000
0001
0000
0000
0001
0000
1000
0001
0100
0001
0000
0100
0010
0100
0000
,  // measure 25
0010
0000
0110
0000
1000
0001
0100
0000
,  // measure 26
0010
0000
0110
0000
0001
0010
1000
0010
,  // measure 27
0001
0000
1001
0000
0001
0010
0100
0000
,  // measure 28
1000
0000
1001
0000
1000
0010
0001
0010
,  // measure 29
0100
0000
0101
0000
0010
1000
0001
0000
,  // measure 30
0010
0000
0011
0000
0001
1000
0100
0010
,  // measure 31
0001
0000
0101
0000
0100
0010
1000
0000
,  // measure 32
0100
1000
0100
1000
0001
0001
0100
0100
,  // measure 33
0010
1000
0100
1000
0001
0010
0100
1000
,  // measure 34
0010
0100
0001
1000
0001
0010
0100
1000
,  // measure 35
0010
0100
1000
0100
0001
0010
0100
0010
,  // measure 36
1000
0010
0001
0100
0010
0001
0010
1000
,  // measure 37
0001
0100
1000
0100
0010
1000
0100
0001
,  // measure 38
0100
0010
0001
1000
0010
0100
1000
0100
,  // measure 39
0001
0010
0100
1000
0010
0001
0010
0100
,  // measure 40
0001
0000
0010
0000
1000
0000
0001
0000
0100
0000
1000
0000
0010
0100
0010
0000
,  // measure 41
0110
1000
0000
1000
0000
1000
0000
1000
,  // measure 42
0000
0001
0000
0001
0000
0001
0000
0001
,  // measure 43
0110
1000
0000
1000
0000
1000
0000
1000
,  // measure 44
0110
0001
1000
0001
1000
0100
0010
0001
,  // measure 45
0100
0010
0000
0010
0000
1000
0000
1000
,  // measure 46
0000
0001
0000
0001
0000
0010
0000
0010
,  // measure 47
0000
0001
0000
0001
0000
1000
0000
1000
,  // measure 48
0100
1000
0100
1000
0001
0100
0010
1000
,  // measure 49
0200
0000
0000
0000
,  // measure 50
0300
0000
0000
0000
,  // measure 51
0001
0000
0000
0001
0000
0000
0010
0000
0100
0000
0000
0100
0000
0000
1000
0000
,  // measure 52
0001
0000
0000
0001
0000
0000
0100
0000
0010
0000
0100
0000
0001
0010
0100
0000
,  // measure 53
1000
0000
0000
1000
0000
0000
0010
0000
0001
0000
0000
0001
0000
0000
0010
0000
,  // measure 54
0100
0000
0000
0100
0000
0000
0001
0000
1000
0000
1000
0000
0001
0000
0001
0000
,  // measure 55
0100
0000
0000
0100
0000
0000
0010
0000
1000
0000
0000
1000
0000
0000
0100
0000
,  // measure 56
0001
0000
0000
0001
0000
0000
0100
0000
1000
0000
0001
0000
0100
0010
0100
0000
,  // measure 57
0010
0000
0000
0010
0000
0000
0010
0000
1000
0000
0000
1000
0000
0000
1000
0000
,  // measure 58
0100
0000
0000
0100
0000
0000
0100
0000
0010
0000
0001
0000
0100
0000
0010
0000
,  // measure 59
2001
0100
0000
0100
,  // measure 60
0000
0100
0000
3100
,  // measure 61
1002
0100
0000
0100
,  // measure 62
0000
0000
0100
0000
0000
0000
0103
0010
,  // measure 63
0010
1100
0010
0101
,  // measure 64
0001
1100
1000
0101
,  // measure 65
0100
1010
0100
0011
,  // measure 66
2200
0000
3000
1300
,  // measure 67
0001
0000
1000
0100
0000
0000
0100
0000
0010
0000
0010
0000
0001
0000
0001
0000
,  // measure 68
1000
0000
0001
0000
0000
0100
0000
0100
0010
0000
1000
0000
0100
0000
0010
0000
,  // measure 69
0001
0000
1000
0100
0000
0000
0010
0000
0100
0000
0100
0000
1000
0000
1000
0000
,  // measure 70
0001
0000
0100
0000
0000
0010
0000
0010
1000
0000
0001
0000
1000
0100
1000
0000
,  // measure 71
0100
0000
0010
0001
0000
0000
0001
0000
0100
0000
0100
0000
0010
0000
0010
0000
,  // measure 72
1000
0000
0001
0000
0000
1000
0000
1000
0100
0000
0010
0000
0001
0000
1000
0000
,  // measure 73
0100
0000
0010
0001
0000
0000
1000
0000
0010
0000
0010
0000
0100
0000
0100
0000
,  // measure 74
0010
0000
1000
0000
0000
0001
0000
0001
0010
0000
0100
0000
1000
0001
1000
0000
,  // measure 75
0010
0000
0000
0100
0000
0000
0001
0000
1000
0000
0000
0100
0000
0000
0100
0000
,  // measure 76
0010
0000
0000
0001
0000
0000
1000
0000
0010
0000
0000
0001
0000
0000
0001
0000
,  // measure 77
0010
0000
0000
1000
0000
0000
0001
0000
0010
0000
0000
0100
0000
0000
0100
0000
,  // measure 78
1000
0000
0000
0010
0000
0000
0001
0000
0010
0000
0000
1000
0000
0000
1000
0000
,  // measure 79
0001
0010
0100
1000
0010
1000
0010
1000
,  // measure 80
0100
0010
0001
1000
0001
0100
0001
0100
,  // measure 81
1000
0100
0001
0010
0100
1000
0100
1000
,  // measure 82
0010
0000
0010
0000
1000
0000
1000
0000
0001
1000
0001
1000
0001
0000
0010
0000
,  // measure 83
2002
0000
0000
0000
,  // measure 84
0000
0000
3003
0000
;

//---------------dance-single - ----------------
#NOTES:
     dance-single:
     :
     Challenge:
     10:
     0.821618,0.835692,0.114114,0.152151,0.734131,721.000000,15.000000,20.000000,0.000000,0.000000,0.000000,0.821618,0.835692,0.114114,0.152151,0.734131,721.000000,15.000000,20.000000,0.000000,0.000000,0.000000:
// measure 0
0000
0000
0000
0000
,  // measure 1
0000
0000
0000
0000
,  // measure 2
0000
0000
0000
0000
,  // measure 3
0000
0000
0000
0000
,  // measure 4
0000
0000
0000
0000
,  // measure 5
0110
1000
0001
1000
0100
1000
0001
1000
,  // measure 6
0010
0100
0001
0100
1000
0100
0010
0100
,  // measure 7
0001
0010
0100
0010
0001
0010
1000
0010
,  // measure 8
0001
1000
0001
0100
0001
0010
0001
0100
,  // measure 9
0110
0010
1000
1000
0001
0001
0010
0010
,  // measure 10
0100
0100
0010
0010
0001
0001
1000
0002
,  // measure 11
0103
0100
0010
0010
1000
1000
0100
0100
,  // measure 12
0010
0000
0010
0000
0001
0000
0001
0000
1000
0000
1000
0000
0010
0000
0100
0001
,  // measure 13
0100
0000
0100
0000
0010
0000
0010
0000
1000
0000
1000
0000
0001
0000
0001
0010
,  // measure 14
0100
0100
0010
0010
0001
0001
1000
0020
,  // measure 15
0130
0100
0010
0010
1000
1000
0001
0001
,  // measure 16
0010
0100
0010
0100
1000
0010
0100
0001
1000
0000
0001
0000
1001
0000
0001
0000
,  // measure 17
1000
0000
0001
0100
0000
0000
0110
0000
1000
0000
1000
0000
0001
0000
1000
0000
,  // measure 18
0100
0000
0020
0000
0031
0010
0000
0001
0010
0000
0100
0000
1000
0000
0010
0000
,  // measure 19
0100
0000
0001
1000
0000
0000
1100
0000
0010
0000
0001
0000
1000
0000
0010
0000
,  // measure 20
0100
0000
0002
0000
1003
0100
0000
1000
0100
0000
0010
0000
0001
0010
0100
1000
,  // measure 21
0001
0000
0100
0010
0000
0000
0110
0000
1000
0000
0001
0000
1000
0000
0100
0000
,  // measure 22
0010
0000
0002
0000
0103
0010
0000
0100
0010
0000
1000
0000
0001
0000
1000
0000
,  // measure 23
0100
0000
0010
0001
0000
0000
0011
0000
1000
0000
1000
0000
0001
0000
0100
0000
,  // measure 24
0010
0000
2000
0000
3001
1000
0000
0001
1000
0100
1000
0100
0010
0001
0100
0010
,  // measure 25
1000
0000
0001
0100
0000
0001
0100
0000
0010
0000
1000
0000
0001
0000
1000
0000
,  // measure 26
0100
0000
0020
0000
0031
0010
0000
0001
0010
0000
0010
0000
0100
0010
0100
0010
,  // measure 27
0001
0000
1000
0001
0000
1000
0001
0000
0100
0000
0010
0000
1000
0000
0001
0000
,  // measure 28
1000
0000
0200
0000
0310
0100
0000
0010
0100
0000
1000
0000
0020
0000
0130
0010
,  // measure 29
0100
0000
0100
0001
0000
0001
1000
0000
0001
0000
0010
0000
0100
0000
1000
0000
,  // measure 30
0001
0000
0200
0000
0310
0100
0000
0100
0010
0000
0010
0000
1000
0010
0100
0010
,  // measure 31
1000
0000
0001
0010
0000
0010
0001
0000
0010
0000
0100
0000
1000
0000
0001
0000
,  // measure 32
0100
0000
0020
0000
0130
0010
0000
0010
1000
0100
1000
0100
0010
0001
0100
0010
,  // measure 33
1000
0010
1000
0000
0100
0000
0010
0000
0001
0010
0001
0000
0100
0000
0010
0000
,  // measure 34
1000
0001
1000
0000
0100
0000
0010
0000
0001
0100
0001
0000
0100
0000
0010
0000
,  // measure 35
1000
0100
0010
0000
0001
0000
1000
0000
0001
0100
0010
0000
0100
0000
0001
0000
,  // measure 36
0010
0100
0010
0000
0100
0000
1000
0000
0010
0100
0010
0000
0100
0000
0001
0000
,  // measure 37
1000
0100
0010
0000
0100
0010
0001
0000
0010
0001
1000
0000
0001
1000
0010
0000
,  // measure 38
1000
0010
0100
0000
0010
0100
0001
0000
0100
0001
1000
0000
0001
1000
0100
0000
,  // measure 39
1000
0100
0010
0000
0001
0100
0010
0000
0100
0001
1000
0000
0100
1000
0001
0000
,  // measure 40
0100
0010
0100
0010
1000
0100
0010
0001
1000
0000
1001
0000
0001
1000
0001
1000
,  // measure 41
0200
0001
0000
1000
0000
0001
0000
1000
,  // measure 42
0000
0001
0000
1000
0000
0001
0000
1300
,  // measure 43
0210
0001
0000
1000
0000
0001
0000
1300
,  // measure 44
0110
0000
1000
0000
0001
0000
1000
0000
0001
0000
0010
0000
0100
0000
1000
0001
,  // measure 45
1000
1000
0100
0100
0010
0010
0001
0001
,  // measure 46
1000
1000
0010
0010
0001
0001
0010
0100
,  // measure 47
0001
0001
0010
0010
1000
1000
0010
0010
,  // measure 48
0001
0000
0001
0000
0010
0000
0010
0000
0100
0000
0100
0000
1000
0000
0010
1000
,  // measure 49
0200
0000
0000
0000
,  // measure 50
0300
0000
0000
0000
,  // measure 51
1000
0000
0000
1000
0000
0000
1000
0100
0010
0000
0000
0010
0000
0000
0010
0001
,  // measure 52
1000
0000
0000
1000
0000
0000
1000
0010
0100
0000
0100
0000
0001
0100
0010
1000
,  // measure 53
0001
0000
0000
0001
0000
0000
0001
0010
1000
0000
0000
1000
0000
0000
1000
0010
,  // measure 54
0100
0000
0000
0100
0000
0000
0100
1000
0001
0000
0100
0010
1000
0000
1000
0000
,  // measure 55
0001
0000
0000
0001
0000
0000
0001
0100
1000
0000
0000
1000
0000
0000
1000
0100
,  // measure 56
0010
0000
0000
0010
0000
0000
0010
1000
0001
0000
0001
0000
0010
0001
0010
0100
,  // measure 57
1000
0000
0000
1000
0000
0000
1000
0010
0001
0000
0000
0001
0000
0000
0001
0010
,  // measure 58
0100
0000
0000
0100
0000
0000
0100
0010
1000
0000
0100
0010
0001
0000
0001
0000
,  // measure 59
1000
0000
0000
1000
0001
0000
1000
0100
0010
0000
0000
0010
0001
0000
1000
0010
,  // measure 60
0100
0000
0000
0100
0001
0000
0010
0100
1000
0000
0010
0000
0100
0001
0100
0010
,  // measure 61
1000
0000
0000
0001
1000
0000
0100
0010
0001
0000
0000
1000
0001
0000
0100
0010
,  // measure 62
1000
0000
0000
0001
1000
0000
0100
0010
0001
0000
1000
0001
0100
0000
0010
0000
,  // measure 63
1000
0000
0000
1000
0001
0000
0001
0010
0100
0000
0000
0100
1000
0000
1000
0100
,  // measure 64
0010
0000
0000
0010
0001
0000
0001
0100
0010
0000
0010
0000
1000
0001
0100
0001
,  // measure 65
1000
0000
0000
1000
0100
0000
0100
0010
0001
0000
0000
0001
1000
0000
0010
0100
,  // measure 66
0002
0000
0000
1000
0000
0000
1003
0010
0100
0000
0100
0001
1000
0000
0100
0000
,  // measure 67
1100
0000
0010
0001
0000
0000
0011
0000
0100
0000
0100
0000
1000
0000
0010
0000
,  // measure 68
1000
0000
0002
0000
0103
0010
0000
1000
0100
0000
0100
0000
0010
0000
0001
0000
,  // measure 69
0010
0000
0100
1000
0000
0000
1100
0000
0010
0000
0010
0000
0001
0000
0001
0000
,  // measure 70
0100
0000
0020
0000
1030
0100
0000
0010
0100
0000
0010
0000
0001
0010
0100
1000
,  // measure 71
0001
0000
0100
0010
0000
0000
0110
0000
1000
0000
0001
0000
1000
0000
0100
0000
,  // measure 72
0010
0000
0002
0000
1003
0001
0000
0100
0010
0000
1000
0000
0100
0000
0010
0000
,  // measure 73
0001
0000
0010
1000
0000
0000
1010
0000
0100
0000
0010
0000
0001
0000
1000
0000
,  // measure 74
0010
0000
0002
0000
0013
0100
0000
0001
1000
0000
0100
0000
0010
0001
0100
0010
,  // measure 75
1000
0000
0100
0010
0000
0010
0001
0000
1000
0000
0010
0100
0000
0100
0001
0000
,  // measure 76
1000
0000
0100
0010
0000
0010
0001
0000
0100
0000
0010
1000
0000
1000
0001
0000
,  // measure 77
1000
0000
0100
0010
0000
0001
1000
0000
0001
0000
0100
0010
0000
1000
0001
0000
,  // measure 78
0010
0000
0100
1000
0000
0010
0100
0000
0001
0000
0010
0100
0000
1000
0001
0000
,  // measure 79
1000
0000
0100
0001
0000
0100
1000
0000
0100
1000
0010
1000
0001
0010
0100
1000
,  // measure 80
0001
0000
0100
1000
0000
0100
0001
0000
0100
0001
1000
0001
0010
0100
1000
0001
,  // measure 81
0100
0000
0010
0001
0000
0010
1000
0000
0100
1000
0001
1000
0010
0100
0001
0010
,  // measure 82
0100
0000
1000
0000
0001
1000
0001
1000
0010
0100
0001
0010
0100
1000
0010
0100
,  // measure 83
0002
0000
0000
0000
,  // measure 84
0000
0000
0003
0000
;

//---------------dance-single - ----------------
#NOTES:
     dance-single:
     :
     Medium:
     7:
     0.445586,0.514272,0.190189,0.205404,0.000000,358.000000,25.000000,27.000000,0.000000,0.000000,0.000000,0.445586,0.514272,0.190189,0.205404,0.000000,358.000000,25.000000,27.000000,0.000000,0.000000,0.000000:
// measure 0
0000
0000
0000
0000
,  // measure 1
0000
0000
0000
0000
,  // measure 2
0000
0000
0000
0000
,  // measure 3
0000
0000
0000
0000
,  // measure 4
0000
0000
0000
0000
,  // measure 5
1001
1000
0001
0001
,  // measure 6
1000
1000
0100
0010
,  // measure 7
0001
0001
1000
1000
,  // measure 8
0001
0001
0100
0010
,  // measure 9
1001
0100
1000
0010
,  // measure 10
0100
0001
0010
0001
,  // measure 11
1000
0010
0100
0001
,  // measure 12
0010
0100
1000
0001
,  // measure 13
0100
0010
1000
0100
,  // measure 14
0010
0001
1000
0001
,  // measure 15
0100
0010
1000
0100
,  // measure 16
0010
0001
0010
0001
1000
0000
0110
0000
,  // measure 17
0001
0100
0000
0010
1000
0000
1000
0000
,  // measure 18
0001
1000
0000
0100
1000
0100
0010
0000
,  // measure 19
0001
0100
0000
0010
1000
0000
0001
0000
,  // measure 20
1000
0100
0000
0010
0001
0100
0010
0000
,  // measure 21
1000
0100
0000
0010
0001
0000
1000
0000
,  // measure 22
0001
0100
0000
0010
1000
0001
1000
0000
,  // measure 23
0100
0010
0000
0001
1000
0000
0001
0000
,  // measure 24
0100
0010
0000
1000
0100
0010
0001
0000
,  // measure 25
1000
0000
1001
0000
0001
1000
0100
0000
,  // measure 26
0010
0000
0110
0000
0010
0001
0010
0001
,  // measure 27
1000
0000
1010
0000
0010
0100
0001
0000
,  // measure 28
1000
0000
1001
0000
1000
0100
0010
0100
,  // measure 29
1000
0000
1010
0000
0010
0100
0001
0000
,  // measure 30
0010
0000
0011
0000
0001
0010
0100
1000
,  // measure 31
0100
0000
0110
0000
1000
0001
0100
0000
,  // measure 32
0010
0000
0110
0000
1000
0100
0010
0001
,  // measure 33
2000
3020
0230
0302
,  // measure 34
0023
0230
2300
3020
,  // measure 35
0230
2300
3200
0302
,  // measure 36
0023
0230
0320
0032
,  // measure 37
1003
0010
1000
0000
0001
0100
0001
0000
,  // measure 38
1000
0100
1000
0000
0001
0010
0001
0000
,  // measure 39
0010
0100
1000
0000
0100
1000
0001
0000
,  // measure 40
0100
0010
1000
0001
0100
0000
0110
0000
,  // measure 41
2002
0000
0000
0000
,  // measure 42
3003
0000
0000
0000
,  // measure 43
0120
0000
0000
0000
0000
0000
0000
0030
,  // measure 44
2001
0000
0000
0000
0000
0000
0000
3000
,  // measure 45
0110
1000
0001
1000
,  // measure 46
0100
0010
0001
1000
,  // measure 47
0001
0100
0010
1000
,  // measure 48
0001
0010
0100
0000
1000
0001
0100
0000
,  // measure 49
0020
0000
0000
0000
,  // measure 50
0030
0000
0000
0000
,  // measure 51
1000
0001
0000
0001
0000
1000
0000
1000
,  // measure 52
0000
0010
0000
0010
0000
0100
0000
0100
,  // measure 53
0001
1000
0000
1000
0000
0100
0000
0100
,  // measure 54
0000
1000
0000
1000
0000
0001
0000
0001
,  // measure 55
1000
0010
0000
0100
0000
0001
0000
1000
,  // measure 56
0000
0001
0000
0010
0000
0100
0000
1000
,  // measure 57
0001
1000
0000
0010
0000
0100
0000
0001
,  // measure 58
0010
0100
0000
0010
0000
0001
0000
1000
,  // measure 59
0020
0100
0000
0100
,  // measure 60
0000
0100
0000
0130
,  // measure 61
2000
0001
0000
0001
,  // measure 62
0000
0000
0001
0000
0000
0000
3001
0100
,  // measure 63
0010
1010
1000
1100
,  // measure 64
0100
0110
0010
0011
,  // measure 65
1000
1100
0001
0011
,  // measure 66
2002
0000
3000
1003
,  // measure 67
0001
0100
0000
0010
1000
0000
0001
0000
,  // measure 68
1000
0100
0000
0010
0001
1000
0010
0000
,  // measure 69
0100
0001
0000
1000
0001
0000
0100
0000
,  // measure 70
0010
1000
0000
0001
1000
0100
0010
0000
,  // measure 71
0001
1000
0000
0010
0100
0000
0010
0000
,  // measure 72
1000
0100
0000
0010
0001
1000
0010
0000
,  // measure 73
0100
0001
0000
1000
0001
0000
0010
0000
,  // measure 74
0100
1000
0000
0010
1000
0100
0010
0000
,  // measure 75
0001
0000
1000
0001
0100
0000
0001
0100
,  // measure 76
0010
0000
1000
0010
1000
0000
0001
1000
,  // measure 77
0100
0000
0010
0001
1000
0000
0010
1000
,  // measure 78
0100
0000
0010
0001
0100
0000
0010
1000
,  // measure 79
0001
0010
0001
0010
0100
0010
0001
0000
,  // measure 80
1000
0010
1000
0010
0100
0010
1000
0000
,  // measure 81
0001
0010
0100
0000
1000
0010
0100
0000
,  // measure 82
0001
0100
0010
1000
0100
0010
1001
0000
,  // measure 83
0220
0000
0000
0000
,  // measure 84
0000
0000
0330
0000
;

//---------------dance-single - ----------------
#NOTES:
     dance-single:
     :
     Easy:
     4:
     0.293435,0.514272,0.091291,0.289088,0.000000,220.000000,12.000000,38.000000,0.000000,0.000000,0.000000,0.293435,0.514272,0.091291,0.289088,0.000000,220.000000,12.000000,38.000000,0.000000,0.000000,0.000000:
// measure 0
0000
0000
0000
0000
,  // measure 1
0000
0000
0000
0000
,  // measure 2
0000
0000
0000
0000
,  // measure 3
0000
0000
0000
0000
,  // measure 4
0000
0000
0000
0000
,  // measure 5
1000
0001
1000
0000
,  // measure 6
0001
1000
0001
0000
,  // measure 7
0010
0100
0010
0000
,  // measure 8
0100
0010
0100
0000
,  // measure 9
1000
0100
0010
0000
,  // measure 10
0001
1000
0100
0000
,  // measure 11
1000
0001
0100
0000
,  // measure 12
0010
1000
0001
0000
,  // measure 13
1000
0100
0001
0000
,  // measure 14
0001
0100
1000
0000
,  // measure 15
0001
0100
0010
1000
,  // measure 16
0100
0010
0001
1001
,  // measure 17
1000
0000
0001
0100
,  // measure 18
0010
0000
1000
0001
,  // measure 19
1000
0000
0100
0010
,  // measure 20
0001
0000
1000
0001
,  // measure 21
0100
0000
0010
1000
,  // measure 22
0100
0000
0010
0100
,  // measure 23
0010
0000
0001
1000
,  // measure 24
0010
0000
0100
0001
,  // measure 25
1000
0100
0000
0100
,  // measure 26
0010
0001
0000
0001
,  // measure 27
1000
0010
0000
0010
,  // measure 28
0100
0001
0000
1001
,  // measure 29
0001
0100
0000
0100
,  // measure 30
0010
1000
0000
1000
,  // measure 31
0001
0010
0000
0010
,  // measure 32
0100
0100
1000
1000
,  // measure 33
0002
0000
2003
0000
,  // measure 34
3020
0000
0230
0000
,  // measure 35
0302
0000
0023
0000
,  // measure 36
0230
0000
2300
0000
,  // measure 37
3020
2030
3020
2030
,  // measure 38
3002
0203
0302
0203
,  // measure 39
0320
2030
3002
2003
,  // measure 40
3200
0320
0031
1000
,  // measure 41
1001
0000
0000
0000
,  // measure 42
0000
0000
0000
0000
,  // measure 43
0110
0000
0000
0000
,  // measure 44
1001
0000
0000
0000
,  // measure 45
0001
0010
0100
0000
,  // measure 46
1000
0001
0100
0000
,  // measure 47
0010
1000
0100
0000
,  // measure 48
0010
0001
1000
0000
,  // measure 49
2002
0000
0000
0000
,  // measure 50
3003
0000
0000
0000
,  // measure 51
0010
0000
0001
0000
,  // measure 52
1000
0000
0010
0100
,  // measure 53
0001
0000
1000
0000
,  // measure 54
0001
0000
0010
0110
,  // measure 55
1000
0000
0001
0000
,  // measure 56
0100
0000
0010
1000
,  // measure 57
0100
0000
0010
0000
,  // measure 58
0001
0000
1000
1001
,  // measure 59
0200
0010
0000
0010
,  // measure 60
0000
0310
0000
0110
,  // measure 61
0002
1000
0000
1000
,  // measure 62
0000
1003
0000
1001
,  // measure 63
1000
1000
0001
0001
,  // measure 64
0010
0010
0100
0100
,  // measure 65
1000
1000
0001
0001
,  // measure 66
0202
0000
0003
0301
,  // measure 67
1000
0000
0001
1000
,  // measure 68
0100
0000
0010
0010
,  // measure 69
0001
0000
1000
0001
,  // measure 70
0100
0000
0010
0010
,  // measure 71
1000
0000
0100
0010
,  // measure 72
0001
0000
1000
1000
,  // measure 73
0010
0000
0100
0001
,  // measure 74
1000
0000
0100
0100
,  // measure 75
0020
0000
0032
0000
,  // measure 76
2003
0000
3020
0000
,  // measure 77
0230
0000
0302
0000
,  // measure 78
0023
0000
0230
0000
,  // measure 79
1300
0100
0010
0001
,  // measure 80
0001
0010
0100
1000
,  // measure 81
1000
0010
0100
0001
,  // measure 82
0001
0100
0010
1000
,  // measure 83
2002
0000
0000
0000
,  // measure 84
0000
0000
3003
0000
;

//---------------dance-single - ----------------
#NOTES:
     dance-single:
     :
     Beginner:
     1:
     0.105419,0.126286,0.038038,0.030430,0.000000,88.000000,5.000000,4.000000,0.000000,0.000000,0.000000,0.105419,0.126286,0.038038,0.030430,0.000000,88.000000,5.000000,4.000000,0.000000,0.000000,0.000000:
// measure 0
0000
0000
0000
0000
,  // measure 1
0000
0000
0000
0000
,  // measure 2
0000
0000
0000
0000
,  // measure 3
0000
0000
0000
0000
,  // measure 4
0000
0000
0000
0000
,  // measure 5
1000
0000
0000
0000
,  // measure 6
1000
0000
0000
0000
,  // measure 7
0001
0000
0000
0000
,  // measure 8
0001
0000
0000
0000
,  // measure 9
0100
0000
0000
0000
,  // measure 10
0100
0000
0000
0000
,  // measure 11
0001
0000
0000
0000
,  // measure 12
0001
0000
0000
0000
,  // measure 13
0010
0000
0000
0000
,  // measure 14
0010
0000
0000
0000
,  // measure 15
0100
0000
0000
0000
,  // measure 16
0100
0000
0000
0000
,  // measure 17
1000
0000
0000
0000
,  // measure 18
0001
0000
0000
0000
,  // measure 19
0100
0000
0000
0000
,  // measure 20
0010
0000
0000
0000
,  // measure 21
1000
0000
0000
0000
,  // measure 22
0001
0000
0000
0000
,  // measure 23
1000
0000
0000
0000
,  // measure 24
0100
0000
0000
0000
,  // measure 25
0010
0000
0000
0000
,  // measure 26
0001
0000
0000
0000
,  // measure 27
1000
0000
0000
0000
,  // measure 28
0001
0000
0000
0000
,  // measure 29
0100
0000
0000
0000
,  // measure 30
0010
0000
0000
0000
,  // measure 31
1000
0000
0000
0000
,  // measure 32
0001
0000
0000
0000
,  // measure 33
0020
0000
0030
0000
,  // measure 34
0200
0000
0300
0000
,  // measure 35
2000
0000
3000
0000
,  // measure 36
0002
0000
0003
0000
,  // measure 37
0100
0000
0100
0000
,  // measure 38
0100
0000
0000
0000
,  // measure 39
0010
0000
0010
0000
,  // measure 40
0010
0000
0000
0000
,  // measure 41
1001
0000
0000
0000
,  // measure 42
0000
0000
0000
0000
,  // measure 43
1000
0000
0000
0000
,  // measure 44
0001
0000
0000
0000
,  // measure 45
1001
0000
0001
0000
,  // measure 46
0001
0000
0000
0000
,  // measure 47
0100
0000
0100
0000
,  // measure 48
0100
0000
0000
0000
,  // measure 49
1001
0000
0000
0000
,  // measure 50
0000
0000
0000
0000
,  // measure 51
1000
0000
0000
0000
,  // measure 52
0100
0000
0000
0000
,  // measure 53
0010
0000
0000
0000
,  // measure 54
0001
0000
0000
0000
,  // measure 55
0001
0000
0000
0000
,  // measure 56
0100
0000
0000
0000
,  // measure 57
0010
0000
0000
0000
,  // measure 58
1000
0000
0000
0000
,  // measure 59
0001
0000
0000
0000
,  // measure 60
0000
0000
0000
0000
,  // measure 61
1000
0000
0000
0000
,  // measure 62
0000
0000
0000
0000
,  // measure 63
1000
0000
1000
0000
,  // measure 64
0001
0000
0001
0000
,  // measure 65
1000
0000
0001
0000
,  // measure 66
1001
0000
0000
0000
,  // measure 67
0001
0000
0000
0000
,  // measure 68
0100
0000
0100
0000
,  // measure 69
0100
0000
0000
0000
,  // measure 70
0001
0000
0001
0000
,  // measure 71
0001
0000
0000
0000
,  // measure 72
1000
0000
1000
0000
,  // measure 73
1000
0000
0000
0000
,  // measure 74
0100
0000
0100
0000
,  // measure 75
0100
0000
0000
0000
,  // measure 76
0010
0000
0000
0000
,  // measure 77
0001
0000
0000
0000
,  // measure 78
1000
0000
0000
0000
,  // measure 79
0010
0000
0010
0000
,  // measure 80
0010
0000
0000
0000
,  // measure 81
1000
0000
0001
0000
,  // measure 82
1000
0000
0000
0000
,  // measure 83
1001
0000
0000
0000
;
