#TITLE:Dead Wrong;
#SUBTITLE:;
#ARTIST:FAR EAST MENTION MANNEQUINS;
#TITLETRANSLIT:;
#SUBTITLETRANSLIT:;
#ARTISTTRANSLIT:;
#CREDIT:Lisek;
#BANNER:[ROUND E] - Dead Wrong.png;
#BACKGROUND:[ROUND E] - Dead Wrong-bg.png;
#LYRICSPATH:;
#CDTITLE:cdtitle.png;
#MUSIC:[ROUND E] - Dead Wrong.ogg;
#OFFSET:-0.227;
#SAMPLESTART:27.653;
#SAMPLELENGTH:18.246;
#SELECTABLE:YES;
#DISPLAYBPM:105.000;
#BPMS:0.000=105.000;
#STOPS:;
#BGCHANGES:0.000=[ROUND E] - Dead Wrong.avi=1.000=1=1=0,
230.000=[ROUND E] - Dead Wrong-bg.png=1.000=1=0=1,
99999=-nosongbg-=1.000=0=0=0 // don't automatically add -songbackground-
;

//---------------dance-single - Lisek----------------
#NOTES:
     dance-single:
     Lisek:
     Hard:
     8:
     0.406,0.455,0.135,0.037,0.131: // measure 1
0000
0000
0000
0000
,  // measure 2
0000
0000
0000
0000
,  // measure 3
0000
0000
0000
0000
,  // measure 4
0000
0000
0001
0000
0000
0001
0000
0000
0001
0000
0000
0001
0000
0000
0001
1000
,  // measure 5
0010
1000
0100
0010
0001
0100
0010
0000
,  // measure 6
1000
0001
0010
0100
1000
0010
0100
0000
,  // measure 7
0001
0100
0010
1000
0100
0010
0000
0010
,  // measure 8
0001
0000
0000
0100
1000
0000
0100
0000
0001
0000
0000
0000
1000
0000
0001
0000
,  // measure 9
1000
0000
0001
0001
0100
0000
0100
0100
,  // measure 10
1000
0000
1000
1000
0100
0001
1000
0001
,  // measure 11
1000
0000
1000
1000
0100
0000
0100
0100
,  // measure 12
0001
0000
0000
0001
0100
0000
1000
0000
0001
0000
0000
0000
1001
0000
0000
0000
,  // measure 13
0001
0010
0200
0010
0310
0000
0010
0001
,  // measure 14
1000
0100
0001
0000
1001
0000
1000
0010
,  // measure 15
0100
0010
1000
0001
0010
0000
0001
0010
,  // measure 16
1000
0010
0001
0000
0110
0000
1001
0000
,  // measure 17
1000
0100
0100
0010
0001
0100
0100
0010
,  // measure 18
1000
0000
0100
0000
0010
0000
0000
0000
0011
0000
0000
0000
0000
0001
1000
0000
,  // measure 19
0010
0000
0000
0010
0000
0000
0100
0000
0001
0000
0000
1000
0000
0000
0010
0000
,  // measure 20
1000
0000
0100
0000
0010
0000
0000
0000
1001
0000
0000
0000
1000
0001
1000
0001
,  // measure 21
0200
0000
0000
0000
0000
0000
0000
0000
0310
0000
0010
0100
0010
0000
0100
0000
,  // measure 22
0001
0000
0010
0000
0100
0000
1000
0000
0100
0000
0000
0001
0000
0000
0100
0000
,  // measure 23
2000
0000
0000
0000
0000
0000
0000
0000
3001
0000
0001
1000
0001
0000
1000
0000
,  // measure 24
0010
0000
0100
0000
0001
0000
1000
0000
0010
0000
0000
0001
0000
0000
0010
0000
,  // measure 25
1000
0001
0100
0000
0001
0000
1000
0000
0010
0000
0100
0000
0001
0000
0000
0000
,  // measure 26
1000
0000
0010
1000
0010
0000
0100
0000
0001
0010
0001
0000
0100
0000
0000
0000
,  // measure 27
0001
1000
0100
1000
0001
0100
0000
0100
,  // measure 28
0001
0000
0000
0100
1000
0000
0100
0000
0001
0000
0000
0000
1000
0000
0001
0000
,  // measure 29
1000
0000
0001
0001
0010
0000
0010
0010
,  // measure 30
1000
0000
1000
1000
0010
0001
1000
0001
,  // measure 31
1000
0000
1000
1000
0010
0000
0010
0010
,  // measure 32
0001
0000
0000
0001
0010
0000
1000
0000
0001
0000
0000
0000
1001
0000
0000
0000
,  // measure 33
0001
1000
0200
0010
0310
0000
0100
1000
,  // measure 34
0001
0100
1000
0000
1001
0000
0001
0100
,  // measure 35
0010
1000
0001
0010
0100
0000
1000
0100
,  // measure 36
0001
0100
1000
0000
0110
0000
1001
0000
,  // measure 37
0001
1000
1000
0100
0010
0001
0001
0100
,  // measure 38
0010
0000
1000
0000
0100
0000
0000
0000
1100
0000
0000
0000
0000
0100
0010
0000
,  // measure 39
0001
0000
0000
0100
0000
0000
0010
0000
0100
0000
0000
0001
0000
0000
1000
0000
,  // measure 40
0100
0010
0001
0000
1001
0000
0000
0000
,  // measure 41
1000
0000
0000
1000
0000
0000
1000
0000
0000
0000
0010
0000
0100
0000
0000
0000
,  // measure 42
0001
0000
0000
0001
0000
0000
0001
0000
0000
0000
0010
0000
0100
0000
0000
0000
,  // measure 43
0010
0000
0000
0010
0000
0000
0010
0000
0000
0000
0001
0000
0001
0000
0000
0000
,  // measure 44
0100
0000
0000
0100
0000
0000
0100
0000
0000
0000
0001
0000
0001
0000
0000
0000
,  // measure 45
1000
0010
0100
0001
0010
0000
0001
0100
,  // measure 46
1000
0000
0001
0100
1000
0000
0000
0000
,  // measure 47
0001
0100
0010
1000
0001
0000
1000
0100
,  // measure 48
0001
0000
1000
0100
0001
0000
1001
0000
,  // measure 49
1000
0010
0200
0001
0301
0000
1000
0100
,  // measure 50
1000
0010
0001
0000
1001
0000
1000
0010
,  // measure 51
1000
0001
0010
0100
1000
0000
0001
0010
,  // measure 52
1000
0010
0001
0000
0110
0000
1001
0000
,  // measure 53
0001
0100
0010
0010
1000
0100
0010
0010
,  // measure 54
0001
0000
1000
0000
0010
0000
0000
0000
1010
0000
0000
0000
0000
0010
0100
0000
,  // measure 55
0001
0000
0000
0010
0000
0000
0001
0000
1000
0000
0000
0010
0000
0000
1000
0000
,  // measure 56
0001
0010
0100
0000
1001
0000
0000
0000
,  // measure 57
1000
0000
0001
1000
0001
1000
0001
0000
1000
0000
0010
0100
0010
0000
0100
0000
,  // measure 58
0001
0000
1000
0001
1000
0001
1000
0000
0100
0000
0010
0100
0010
0000
0000
0000
;

//---------------dance-single - Lisek----------------
#NOTES:
     dance-single:
     Lisek:
     Beginner:
     1:
     0.064,0.108,0.007,0.060,0.000:
0000
0000
0000
0000
,
0000
0000
0000
0000
,
0000
0000
0000
0000
,
0000
0000
0000
0000
,
1000
0000
0000
0000
,
0001
0000
0000
0000
,
0100
0000
0000
0000
,
0010
0000
0000
0000
,
1000
0000
0000
0000
,
0001
0000
0000
0000
,
1000
0000
0000
0000
,
0001
0000
0000
0000
,
1000
0000
0000
0000
,
0010
0000
0000
0000
,
0100
0000
0000
0000
,
0001
0000
0000
0000
,
0100
0000
0000
0000
,
0010
0000
0000
0000
,
0100
0000
0000
0000
,
0010
0000
0000
0000
,
0200
0000
0000
0000
,
0000
0000
0000
0300
,
0020
0000
0000
0000
,
0000
0000
0000
0030
,
1000
0000
0000
0000
,
0100
0000
0000
0000
,
0010
0000
0000
0000
,
0001
0000
0000
0000
,
1000
0000
0000
0000
,
0010
0000
0000
0000
,
1000
0000
0000
0000
,
0010
0000
0000
0000
,
1000
0000
0000
0000
,
0100
0000
0000
0000
,
0010
0000
0000
0000
,
0001
0000
0000
0000
,
1000
0000
0000
0000
,
0001
0000
0000
0000
,
0100
0000
0000
0000
,
0010
0000
0000
0000
,
2000
0000
0000
3000
0000
0000
0000
0000
,
0002
0000
0000
0003
0000
0000
0000
0000
,
2000
0000
0000
3000
0000
0000
0000
0000
,
0002
0000
0000
0003
0000
0000
0000
0000
,
1000
0000
0000
0000
,
0010
0000
0000
0000
,
0100
0000
0000
0000
,
0001
0000
0000
0000
,
1000
0000
0000
0000
,
0100
0000
0000
0000
,
0010
0000
0000
0000
,
0001
0000
0000
0000
,
1000
0000
0000
0000
,
0001
0000
0000
0000
,
1000
0000
0000
0000
,
0001
0000
0000
0000
,
2002
0000
0000
0000
,
0000
0000
0000
3003
;

//---------------dance-single - Lisek----------------
#NOTES:
     dance-single:
     Lisek:
     Medium:
     5:
     0.297,0.303,0.135,0.045,0.045:
0000
0000
0000
0000
,
0000
0000
0000
0000
,
0000
0000
0000
0000
,
0000
0000
0000
0000
,
1000
0000
0001
0000
1000
0100
0010
0000
,
0001
0000
0100
0000
0001
0010
0100
0000
,
1000
0000
0010
0000
1000
0001
0000
0000
,
0200
0000
0010
0010
0310
0000
0100
0010
,
1000
0000
1000
0100
0010
0000
0100
0010
,
0001
0000
1000
0100
0010
0001
0010
0100
,
1000
0000
0001
0010
0100
0000
0010
0100
,
2000
0000
0001
0001
3001
0000
1001
0000
,
1000
0000
0001
0100
0010
0000
0100
0000
,
0010
0100
0001
0000
1001
0000
1000
0000
,
0001
0100
0010
1000
0100
0000
1000
0000
,
0010
1000
0001
0000
0110
0000
1001
0000
,
1000
0100
0010
0000
0001
0010
0100
0000
,
1000
0010
0100
0000
0110
0000
0000
0000
,
0100
0000
0000
0100
0000
0000
0000
0000
0010
0000
0000
0010
0000
0000
0000
0000
,
1000
0001
1000
0000
1001
0000
0000
0000
,
0002
0000
0000
0000
,
1003
0000
0000
0000
0010
0000
0000
0000
0100
0000
0000
0100
0000
0000
0100
0000
,
0020
0000
0000
0000
,
1030
0000
0000
0000
0001
0000
0000
0000
0100
0000
0000
0100
0000
0000
0100
0000
,
0001
0000
1000
0000
0100
0010
0001
0000
,
1000
0000
0010
0000
0100
0001
1000
0000
,
0001
0000
0010
0000
0100
1000
0000
0000
,
0002
0000
0100
0100
0103
0000
0001
1000
,
0001
0000
1000
0100
0010
0000
0100
0010
,
0001
0000
1000
0100
0010
0001
1000
0010
,
0100
0000
0001
0010
0100
0000
0010
0100
,
2000
0000
0001
0001
3001
0000
1001
0000
,
0001
0000
1000
0100
0010
0000
0001
0000
,
0100
0010
1000
0000
1001
0000
0001
0000
,
1000
0010
0100
0001
0100
0000
0001
0000
,
0100
0010
1000
0000
0110
0000
1001
0000
,
0001
0010
0100
0000
1000
0100
0010
0000
,
0001
0100
0010
0000
1001
0000
0000
0000
,
0001
0000
0000
0001
0000
0000
0000
0000
1000
0000
0000
1000
0000
0000
0000
0000
,
0010
0100
0001
0000
1001
0000
0000
0000
,
1000
0000
0000
0100
0000
0000
1000
0000
0000
0000
0000
0000
0000
0000
0000
0000
,
0001
0000
0000
0100
0000
0000
0001
0000
0000
0000
0000
0000
0000
0000
0000
0000
,
1000
0000
0000
0010
0000
0000
1000
0000
0000
0000
0000
0000
0000
0000
0000
0000
,
0001
0000
0000
0010
0000
0000
0001
0000
0000
0000
0000
0000
0000
0000
0000
0000
,
1000
0100
0001
0100
,
1000
0001
1000
0000
,
0001
0100
1000
0100
,
0001
1000
0001
1001
,
1000
0000
0001
0100
0010
0000
1000
0000
,
0100
0010
0001
0000
1001
0000
0001
0000
,
1000
0010
0100
0001
0100
0000
0010
0000
,
1000
0100
0010
0000
0110
0000
1001
0000
,
1000
0010
0100
0000
0001
0100
0010
0000
,
1000
0100
0010
0000
1001
0000
0000
0000
,
0001
0000
0000
0001
0000
0000
0000
0000
0100
0000
0000
0100
0000
0000
0000
0000
,
0010
1000
0001
0000
1001
0000
0000
0000
,
1000
0001
0100
0010
,
1000
0000
0001
0000
1000
0001
1000
0000
;

//---------------dance-single - Lisek----------------
#NOTES:
     dance-single:
     Lisek:
     Easy:
     2:
     0.126,0.173,0.000,0.120,0.000:
0000
0000
0000
0000
,
0000
0000
0000
0000
,
0000
0000
0000
0000
,
0000
0000
0000
0000
,
1000
0000
0010
0000
,
0100
0000
0010
0000
,
1000
0000
0001
0000
,
0100
0100
0100
0000
,
0001
0000
0010
0000
,
0001
0000
1000
0000
,
0010
0000
0100
0000
,
0020
0000
0030
0000
,
1000
0000
0100
0000
,
0010
0000
0001
0000
,
1000
0000
0010
0000
,
0100
0000
0001
0000
,
2000
3000
0002
0003
,
1000
0001
1000
0000
,
0001
0000
0100
0000
,
0010
0100
0010
0000
,
2000
0000
0000
0000
,
0000
0000
0000
3000
,
0002
0000
0000
0000
,
0000
0000
0000
0003
,
1000
0000
0010
0000
,
0100
0000
0001
0000
,
1000
0000
0001
0000
,
1000
1000
1000
0000
,
0001
0000
0100
0000
,
0001
0000
1000
0000
,
0010
0000
0100
0000
,
0020
0000
0030
0000
,
1000
0000
0100
0000
,
0010
0000
0001
0000
,
1000
0000
0010
0000
,
0100
0000
0001
0000
,
0200
0300
0020
0030
,
0100
0010
0100
0000
,
0001
0000
1000
0000
,
0001
1000
0001
0000
,
2000
0000
0000
3000
0000
0000
0000
0000
,
0002
0000
0000
0003
0000
0000
0000
0000
,
0200
0000
0000
0300
0000
0000
0000
0000
,
0020
0000
0000
0030
0000
0000
0000
0000
,
1000
0000
0001
0000
,
1000
0000
0001
0000
,
0100
0000
0010
0000
,
0100
0000
0010
0000
,
1000
0000
0100
0000
,
0010
0000
0001
0000
,
1000
0000
0010
0000
,
0100
0000
0001
0000
,
2000
3000
0002
0003
,
1000
0010
1000
0000
,
0001
0000
0100
0000
,
0010
0100
0010
0000
,
2000
0000
0000
3000
,
0002
0000
0000
0003
;
