#VERSION:0.82;
#TITLE:Zetsubousei Hero Chiryouyaku;
#SUBTITLE:;
#ARTIST:Soraru;
#TITLETRANSLIT:;
#SUBTITLETRANSLIT:;
#ARTISTTRANSLIT:;
#GENRE:;
#ORIGIN:;
#CREDIT:Danganronpa please;
#BANNER:banner.png;
#BACKGROUND:bg.png;
#PREVIEWVID:;
#JACKET:;
#CDIMAGE:;
#DISCIMAGE:;
#LYRICSPATH:;
#CDTITLE:;
#MUSIC:Credits to Danganronpa.ogg;
#OFFSET:-0.414578;
#SAMPLESTART:55.443192;
#SAMPLELENGTH:12.878052;
#SELECTABLE:YES;
#BPMS:0.000=205.000,
355.500=102.500,
361.500=205.000;
#STOPS:;
#DELAYS:;
#WARPS:;
#TIMESIGNATURES:0.000=4=4;
#TICKCOUNTS:0.000=4;
#COMBOS:0.000=1;
#SPEEDS:0.000=1.000=0.000=0;
#SCROLLS:0.000=1.000;
#FAKES:;
#LABELS:0.000=Song Start,
31.500=First Step,
477.500=Last Freeze Step,
484.000=Freeze End;
#BGCHANGES:;
#KEYSOUNDS:;
#ATTACKS:
;

//---------------dance-single - ----------------
#NOTEDATA:;
#CHARTNAME:;
#STEPSTYPE:dance-single;
#DESCRIPTION:;
#CHARTSTYLE:;
#DIFFICULTY:Hard;
#METER:9;
#RADARVALUES:0.718989,0.664648,0.302113,0.082394,0.075528,677.000000,44.000000,12.000000,0.000000,0.000000,0.000000,0.000000,0.000000,0.718989,0.664648,0.302113,0.082394,0.075528,677.000000,44.000000,12.000000,0.000000,0.000000,0.000000,0.000000,0.000000;
#CREDIT:;
#NOTES:
0000
0000
0000
0000
,
0000
0000
0000
0000
,
0000
0000
0000
0000
,
0000
0000
0000
0000
,
0000
0000
0000
0000
,
0000
0000
0000
0000
,
0000
0000
0000
0000
,
0000
0000
0000
0000
0000
0000
0000
1000
,
0000
0001
0100
0000
0010
1000
0100
0010
,
0000
0001
0010
0000
0100
1000
0010
0100
,
0000
0001
0100
0000
0010
1000
0100
0010
,
0000
0001
0010
0100
1000
0010
0100
0001
,
0000
1000
0100
0000
0010
0100
1000
0010
,
0000
0010
0100
0000
0010
0100
0001
1000
,
0000
0100
0010
0000
0001
0010
0100
1000
,
0000
0010
0100
0010
1000
0100
0010
0001
,
0000
1000
0100
1000
0010
1000
0001
1000
,
0001
0100
0001
0010
0001
0000
1000
0010
,
0000
0100
0001
0100
0010
0100
1000
0100
,
0010
0100
0001
0000
0010
0100
1000
0010
,
0000
1000
0100
1000
0010
1000
0001
1000
,
0010
1000
0100
0010
0100
0000
1000
0010
,
0000
0100
0001
0100
0010
0100
1000
0100
,
0010
0100
0001
0000
0010
0100
1000
0010
,
0000
0000
0000
0100
0001
0000
0000
1000
,
0100
0000
0000
0010
0001
1000
0010
0100
,
0000
0100
0010
0100
0010
0000
1000
0000
,
0100
0000
0010
0001
1000
0000
0001
0100
,
0000
0000
0000
0010
1000
0000
0000
0001
,
0010
0000
0000
0100
1000
0100
0010
0001
,
0000
1000
0010
1000
0010
0000
0100
0001
,
0010
1000
0010
0001
1000
0000
0001
1000
,
0000
0001
0100
0010
1000
0100
1000
0100
,
0010
0000
0001
0000
1000
0000
0010
0000
0100
0000
0000
0001
1000
0000
0100
0000
,
0000
0010
0100
0010
0001
0000
1001
0000
,
0110
0000
0000
0010
1000
0000
0100
0000
0010
0000
0001
0000
1000
0000
0010
0000
,
0000
0010
0100
0001
0010
0100
1000
0010
,
0100
0000
0001
0000
1000
0000
0000
0001
1000
0000
0000
0010
0100
0000
0001
0000
,
0000
1000
0100
0010
0100
0000
1000
0010
,
0000
0100
0001
0100
0001
0000
0000
1100
,
0000
0100
0010
0001
1000
0010
0100
0001
,
0000
0101
0000
1010
0000
1100
0000
0100
,
0000
1000
0100
0000
0010
0000
0100
1000
,
0000
0010
0100
0001
1000
0000
0000
0011
,
0000
0010
0100
1000
0010
0000
1000
1010
,
0000
0010
0100
0001
0010
0000
0000
0100
,
0000
1000
1000
0001
0100
0100
0010
1000
,
0000
0000
1001
0000
0110
0000
0001
1000
,
0000
0001
0100
0001
1000
0001
0010
0100
,
0000
0000
1000
0001
0000
0100
0010
1000
,
0000
0000
0100
0010
0100
0000
1000
0000
0010
0000
1000
0000
0001
0000
0100
0000
,
0000
0110
0000
1010
0000
0100
0001
0100
,
0000
0010
1000
0000
1100
0000
0100
0020
,
0000
1000
0000
0001
0000
1000
0000
0031
,
0000
0100
0010
1000
0100
0010
0001
1000
,
0000
1000
0001
1000
0010
0000
0100
0001
,
0000
1000
0010
1000
0100
1000
0001
0100
,
0000
0110
0000
1100
0000
0100
0010
0001
,
0000
0010
0100
1000
0010
0100
0001
0101
,
0000
1010
0000
1100
0000
1000
0001
1001
,
0000
0000
0001
1000
0010
0100
0001
1000
,
0000
0000
0000
0000
0100
0000
0010
0000
0001
0000
0000
1000
0001
0000
0100
0000
,
0000
0010
0010
1000
0100
0000
1000
0010
,
0000
0100
0001
0100
0010
1000
0100
0020
,
0000
1000
0001
0001
,
0230
0000
0001
0000
1300
0010
0100
0002
,
0000
1003
0100
0010
0001
0010
0100
1000
,
0010
0100
0001
2000
0000
0010
3010
0100
,
0000
0001
0100
0010
0100
0001
0010
0100
,
0000
0010
0001
0000
1000
0010
0100
0002
,
0000
0000
1003
0010
0100
1000
0100
0002
,
0000
0000
0010
2000
0003
0000
0100
3100
,
0000
0000
0010
0000
0001
0000
1000
0000
0010
0000
0000
0100
0001
0000
0000
1000
,
0100
0000
0000
1000
0100
0000
1000
0000
0010
0000
0100
0000
0001
0000
1000
0000
,
0000
0000
0000
0100
0000
0000
0010
0000
0000
0000
0001
0000
1000
0000
0000
0000
1000
0000
0100
0000
0000
0000
0010
0000
,
0001
0100
0010
1000
0100
0100
0010
0001
,
0000
1000
0010
1000
0100
1000
0001
0100
,
0000
0010
1000
0010
0100
0010
1000
0100
,
0010
0001
0000
1000
0010
0100
0001
0000
,
1000
0100
1000
0100
0010
0001
1000
0010
,
0000
0100
0010
0100
0001
0010
0100
1000
,
0000
0101
0000
1100
0000
0101
0000
0010
,
0000
1000
0100
0010
0001
0000
0010
0100
,
0000
0010
0001
1000
0010
0000
0100
0001
,
0000
1000
1000
0100
0010
0000
0001
0010
,
0000
0100
0100
1000
0010
0000
0000
1000
,
0000
0100
0010
1000
0010
0100
1000
0010
,
0000
0000
0110
0000
0000
0110
0000
0000
0110
0000
0000
0110
0000
0000
0001
0000
,
1000
0000
0000
0000
0000
0000
0000
0001
,
0010
0100
1000
0100
0010
0001
0100
0000
0010
0000
1000
0000
0100
0010
0001
0000
,
0010
0100
1000
0010
0100
0001
1000
0000
0000
0000
1100
0000
0000
0000
0101
0000
,
0000
0001
0010
0001
0000
0001
1000
0000
,
0110
0000
0001
2000
0000
0100
0000
0010
,
0000
3001
0000
0001
0000
0100
0010
0100
,
0001
0000
0010
0000
0100
0000
1000
0000
0000
0000
0000
0001
1000
0000
0010
0000
,
0100
0000
0001
0100
0000
0010
1000
0100
,
0010
0001
0010
0100
0000
1000
0000
0010
,
0000
0100
0001
0100
0000
0010
1000
0100
,
0010
0001
0100
0010
0000
0110
0000
1001
,
0000
0001
1000
0001
0000
0000
1000
0100
,
0010
0000
0001
0100
0000
0000
0001
0100
,
0010
0000
1000
0100
0000
0010
0010
0001
,
0100
0010
0100
0001
0000
1000
0100
0010
,
0001
0100
0000
0101
0000
0010
1000
0000
,
0100
0010
0001
0100
0000
0010
1000
0000
,
0001
0100
0010
1000
0000
1000
0100
0000
,
0010
0001
0010
0100
0000
0100
1000
0010
,
0100
0010
1000
0100
0000
0010
0001
0000
,
1000
0100
1000
0100
0000
0010
0001
0000
,
1000
0010
1000
0010
0000
0100
0001
0000
,
1000
0100
0010
0001
0000
0100
0010
0100
,
0001
0100
0010
1000
0000
0000
0101
0000
,
1100
0000
0001
0100
0000
0000
1010
0000
,
0011
0000
1000
0010
0000
0000
0011
0000
,
0101
0000
0010
1010
0000
1100
0000
0011
,
0000
1100
0000
1001
0000
0001
1000
0010
,
0100
0001
0010
1000
0010
0001
0100
1000
,
0100
0001
0010
0100
1000
0100
0010
0001
,
0100
0010
1000
0200
0000
0000
0000
0000
,
0000
0300
0000
2020
0000
0000
0000
0000
,
0000
0000
0000
0000
,
3030
0000
0000
0000
;

//---------------dance-single - ----------------
#NOTEDATA:;
#CHARTNAME:;
#STEPSTYPE:dance-single;
#DESCRIPTION:;
#CHARTSTYLE:;
#DIFFICULTY:Beginner;
#METER:3;
#RADARVALUES:0.208929,0.245896,0.054930,0.000000,0.000000,205.000000,8.000000,0.000000,2.000000,0.000000,0.000000,0.000000,0.000000,0.208929,0.245896,0.054930,0.000000,0.000000,205.000000,8.000000,0.000000,2.000000,0.000000,0.000000,0.000000,0.000000;
#CREDIT:;
#NOTES:
0000
0000
0000
0000
,
0000
0000
0000
0000
,
0000
0000
0000
0000
,
0000
0000
0000
0000
,
0000
0000
0000
0000
,
0000
0000
0000
0000
,
0000
0000
0000
0000
,
0000
0000
0000
0000
,
1000
0000
0000
0000
,
0001
0000
0000
0000
,
0100
0000
0000
0000
,
0001
0000
0000
0000
,
1000
0000
0000
0000
,
0001
0000
0000
0000
,
0010
0000
0000
0000
,
0001
0000
0000
0000
,
0000
1000
0000
0100
,
0000
0010
0000
0001
,
0000
0001
0000
0100
,
0000
0010
0000
1000
,
0000
1000
0000
0100
,
0000
0010
0000
0100
,
0000
1000
0000
0010
,
0000
0100
0000
0001
,
0001
0000
0000
0000
,
0000
0000
0000
0000
,
1000
0000
0000
0000
,
0000
0000
0000
0000
,
0010
0000
0000
0000
,
0000
0000
0000
0000
,
0100
0000
0000
0000
,
0010
0000
0000
0000
,
0000
1000
0000
1000
,
0000
0001
0000
0001
,
0000
0100
0000
0100
,
0000
0010
0000
0010
,
0000
1000
0000
0100
,
0000
0010
0000
0001
,
0000
1000
0000
0010
,
0010
0000
1001
0000
,
0000
0001
0000
0001
,
0000
0100
0000
0010
,
0000
1000
0000
1000
,
0000
0100
0000
0010
,
0010
0000
0000
0000
0001
0000
0000
0100
,
0000
0000
0000
0000
0010
0000
0000
1000
,
0000
0000
0001
0000
0001
0000
0000
0001
,
0000
0000
0000
0000
,
1000
0000
0100
0000
,
0010
0000
0001
0000
,
0010
0000
0000
0000
0100
0000
0000
1000
,
0000
1000
0000
1000
0000
0000
0000
0000
,
0001
0000
0100
0000
,
0010
0000
1000
0000
,
0010
0000
0000
0000
0100
0000
0000
0001
,
0000
0000
1000
0000
,
0001
0000
0010
0000
,
0100
0000
0010
0000
,
0001
0000
0000
0000
0100
0000
0000
0010
,
0000
0010
0000
0010
0000
0000
0000
0000
,
0000
1000
0000
0001
,
0000
0100
0000
0010
,
0010
0000
0000
0000
1000
0000
0000
0100
,
0000
0000
0000
0000
0000
0000
0000
0010
,
0000
0010
0000
0010
,
0000
0010
0000
0010
,
0000
0100
0000
1000
,
0000
0001
0000
1000
,
0000
0010
0000
0010
,
0000
0010
0000
0010
,
0000
0100
0000
0001
,
0000
0000
0001
0000
0000
0000
0000
1000
,
0000
0001
0000
0100
,
0000
0010
0000
0100
,
0000
0001
0000
0100
,
0000
0000
0010
0000
0000
0000
0000
1000
,
0000
0000
0000
0000
0100
0000
0000
0010
,
0000
0000
0000
0000
0001
0000
0000
1000
,
0000
0010
0000
0010
,
0100
0000
0100
0000
0100
0000
0000
0001
,
0000
1000
0000
1000
,
0000
0001
0000
0001
,
0000
0010
0000
0010
,
0000
0000
0100
0000
0000
0000
0000
1000
,
0000
0000
0000
0000
0001
0000
0000
0100
,
0000
0000
0000
0000
0010
0000
0000
1000
,
0000
0000
0000
0000
0001
0000
0000
1000
,
0000
0000
0000
0000
,
0010
0000
0000
0000
0000
0000
0000
M001
,
0000
0000
0000
0001
0000
0000
0000
1000
,
0000
0000
0000
001M
0000
0010
0000
0010
,
0000
0010
0000
0010
0000
0000
1000
0000
,
0000
0001
0000
0010
,
0000
0100
0000
1000
,
0000
0001
0000
0100
,
0100
0000
0000
0010
0000
0000
0010
0000
,
0000
1000
0000
0100
,
0000
0010
0000
0001
,
0000
0000
0000
1000
0000
1000
0000
1000
,
0000
0000
0000
0010
0000
0000
0000
0000
,
0100
0000
0000
0001
0000
0000
0000
0000
,
1000
0000
0000
0100
0000
0000
0010
0000
,
0010
0000
0000
0001
0000
0000
0000
0000
,
0000
0000
1000
0000
,
0010
0000
0100
0000
,
0001
0000
1000
0000
,
0100
0000
0010
0000
,
0001
0000
1000
0000
,
0010
0000
0100
0000
,
0010
0000
1000
0000
,
0100
0000
0010
0000
,
0001
0000
1001
0000
,
0000
0000
0110
0000
,
0000
0000
1001
0000
,
0000
0000
0110
0000
,
0000
0000
1000
0000
,
0010
0000
0100
0000
,
0001
0000
1001
0000
,
0110
0000
0000
0001
0000
0000
0000
0000
,
0000
0000
0000
0110
0000
0000
0000
0000
;

//---------------dance-single - ----------------
#NOTEDATA:;
#CHARTNAME:;
#STEPSTYPE:dance-single;
#DESCRIPTION:;
#CHARTSTYLE:;
#DIFFICULTY:Easy;
#METER:5;
#RADARVALUES:0.388431,0.415405,0.123592,0.089261,0.000000,365.000000,18.000000,13.000000,2.000000,0.000000,0.000000,0.000000,0.000000,0.388431,0.415405,0.123592,0.089261,0.000000,365.000000,18.000000,13.000000,2.000000,0.000000,0.000000,0.000000,0.000000;
#CREDIT:;
#NOTES:
0000
0000
0000
0000
,
0000
0000
0000
0000
,
0000
0000
0000
0000
,
0000
0000
0000
0000
,
0000
0000
0000
0000
,
0000
0000
0000
0000
,
0000
0000
0000
0000
,
0000
0000
0000
0000
0000
0000
0000
1000
,
0000
0000
0001
0000
0100
0000
0000
0010
,
0000
0000
1000
0000
0100
0000
0000
0010
,
0000
0000
0001
0000
0100
0000
0000
0010
,
0000
1000
1000
0100
,
0010
0000
0001
0000
0100
0000
0000
0010
,
0000
0000
1000
0000
0100
0000
0000
0010
,
0000
0000
0001
0000
0100
0000
0000
0010
,
0000
0100
0001
0010
,
0100
1000
1000
0001
,
0001
0000
0100
0000
0100
0000
0020
0030
,
0000
0010
0010
1000
,
1000
0000
0001
0000
0010
0000
0200
0300
,
0000
1000
1000
0001
,
0001
0000
0100
0000
0100
0000
0020
0030
,
0000
1000
0100
0010
,
0001
0000
1000
0000
0010
0000
0200
0300
,
0000
0000
0001
0000
,
1000
0000
0000
0000
0100
0000
0000
0010
,
0000
0010
0000
0000
0001
0000
0000
0000
,
1000
0000
0000
0000
0010
0000
0000
0100
,
0000
0100
0000
0000
0010
0000
0000
0000
,
1000
0000
0000
0000
0001
0000
0000
0010
,
0000
0010
0000
0000
0100
0000
0000
0000
,
1000
0000
0001
0000
1000
0000
0000
0010
,
0000
1000
0010
0100
,
0001
0000
1000
0000
0010
0000
0200
0300
,
0000
0001
0010
0100
,
1000
0000
0001
0000
0010
0000
0200
0300
,
0000
1000
0010
0100
,
0010
0000
1000
0000
0001
0000
0020
0030
,
0000
0000
0001
0000
0010
0000
0000
0100
,
0000
0000
1000
0000
1000
0000
0000
0001
,
0000
1000
0001
1000
,
0010
0010
0100
0100
,
0001
0010
0100
1000
,
0010
0000
0100
0000
0010
0000
0000
1001
,
0000
0000
0000
0000
0010
0000
0000
1001
,
0000
0000
0000
0000
0100
0000
0000
0001
,
0000
0000
0010
0000
0100
0000
0000
1000
,
0000
0000
0001
0000
0001
0000
0000
1000
,
0000
0010
0100
0001
,
1000
1000
0100
0100
,
0010
0000
0001
0000
0100
0000
0010
0100
,
0000
0100
0000
0100
0000
0100
0000
0010
,
0000
1000
0100
1000
,
0001
0100
0010
0100
,
0001
0000
0010
0000
0100
0000
0000
1000
,
0000
0000
0001
0000
0001
0000
0000
0100
,
0000
0010
1000
0001
,
0100
0100
0010
0010
,
1000
0000
0100
0000
0010
0000
0001
1000
,
0000
1000
0000
1000
0000
1000
0000
0001
,
0000
0100
0010
0100
,
0001
0100
0010
1000
,
0100
0000
0010
0000
0001
0000
0000
0100
,
0000
0000
0010
0000
1000
0000
0000
0001
,
0000
1100
0000
0101
,
0000
0011
0000
1010
,
1000
0100
0010
0001
,
0100
0000
0000
0010
0000
0000
0000
1000
,
0000
0001
1000
0001
,
0010
0010
0100
0100
,
1000
0000
0010
0000
0100
0000
0000
0002
,
0000
0000
0003
2000
0000
0000
3000
0100
,
0000
0010
0010
0010
,
1001
0010
1001
0010
,
0100
0100
0100
0100
,
1001
0000
0100
0000
1001
0000
0000
0001
,
0000
0000
0100
0000
0100
0000
0000
0010
,
0000
0000
1000
0000
1000
0000
0000
0001
,
0000
0010
0010
0010
,
0100
0000
1000
0000
0001
0000
0000
0100
,
0000
0010
1000
0010
,
0100
0100
0001
0001
,
0010
0100
1000
0001
,
0100
0000
0010
0000
1000
0000
0000
0001
,
0000
0000
0000
0000
0010
0000
0000
0100
,
0000
0000
0000
0000
1000
0000
0000
0001
,
0000
0000
1000
0000
1000
0000
0000
0010
,
0000
0100
0000
0000
0100
0000
0000
0001
,
1000
0000
0000
0000
0000
0000
0000
M001
,
0000
0000
0000
1000
0000
0000
0000
0010
,
0000
0000
0000
010M
0000
0100
0000
0100
,
0000
0100
0000
0010
0000
0000
0010
0000
,
1000
0001
0010
0010
,
0100
0100
1000
0010
,
0100
0000
0002
0003
0000
0000
1000
0000
,
1000
0000
0000
0100
0000
0000
0010
0000
,
0001
1000
0010
0010
,
0100
0100
0001
0100
,
0010
0000
1000
0001
0000
0001
0000
0001
,
0000
0001
0000
1000
0000
0000
0010
0000
,
0100
0001
0010
0100
,
1000
0000
0000
0001
0000
0000
0100
0000
,
0100
0000
0000
0010
0000
0000
0000
0000
,
0000
0000
0000
1001
0000
0000
0001
0000
,
0010
0000
0000
0100
0000
0000
1000
0000
,
0010
0000
0000
0100
0000
0000
0001
0000
,
0010
0000
0000
0100
0000
0100
0000
0100
,
0000
0100
0000
0010
0000
0000
0001
0000
,
0100
0000
0000
0010
0000
0000
1000
0000
,
0100
0000
0000
0010
0000
0000
0001
0000
,
0100
0000
0000
0010
0000
0000
1000
0000
,
0001
0000
0000
0010
0000
0000
0110
0000
,
0110
0000
0000
0001
0000
0000
0110
0000
,
0110
0000
0000
1000
0000
0000
0110
0000
,
0110
0000
0000
0001
0000
0100
0000
0010
,
0000
1000
0000
0100
0000
0000
0010
0000
,
0001
1000
0010
0100
,
0001
0010
0100
1000
,
0010
0000
0100
0002
0000
0000
0000
0000
,
0000
0003
0000
0220
0000
0000
0000
0000
,
0000
0000
0000
0000
,
0330
0000
0000
0000
;

//---------------dance-single - ----------------
#NOTEDATA:;
#CHARTNAME:;
#STEPSTYPE:dance-single;
#DESCRIPTION:;
#CHARTSTYLE:;
#DIFFICULTY:Medium;
#METER:7;
#RADARVALUES:0.584608,0.581567,0.384507,0.075528,0.034331,529.000000,56.000000,11.000000,0.000000,0.000000,0.000000,0.000000,0.000000,0.584608,0.581567,0.384507,0.075528,0.034331,529.000000,56.000000,11.000000,0.000000,0.000000,0.000000,0.000000,0.000000;
#CREDIT:;
#NOTES:
0000
0000
0000
0000
,
0000
0000
0000
0000
,
0000
0000
0000
0000
,
0000
0000
0000
0000
,
0000
0000
0000
0000
,
0000
0000
0000
0000
,
0000
0000
0000
0000
,
0000
0000
0000
0000
0000
0000
0000
1000
,
0000
0001
0010
0000
0100
0000
1000
0010
,
0000
0100
0001
0000
1000
0000
0100
0010
,
0000
0001
0100
0000
0010
0000
0100
0001
,
0000
1000
0100
0010
0001
0000
0100
0010
,
0000
0100
0010
0000
1000
0000
0100
0010
,
0000
0100
0010
0000
0001
0000
0100
0001
,
0000
0100
0001
0000
1000
0000
0001
0010
,
0000
0100
1000
0001
1000
0000
0010
0100
,
0000
0101
0001
1100
,
1000
0000
0101
0000
1010
0000
1000
0100
,
0000
0011
0100
1100
,
1000
0000
1010
0000
0100
0010
0100
0010
,
0000
0101
0110
0101
,
0011
0000
0110
0000
1100
0000
1000
0010
,
0000
0101
1100
1010
,
0011
0000
0110
0000
0010
0100
0001
1000
,
0000
0000
0000
0100
1000
0000
0000
0001
,
0100
0000
0000
0010
1000
0000
0001
0010
,
0000
0100
1000
0100
1000
0000
0001
0000
,
0100
0000
0010
0000
1000
0000
0001
0010
,
0000
0000
0000
0100
1000
0000
0000
0001
,
0100
0000
0000
0010
1000
0000
0001
0010
,
0000
0100
1000
0100
1000
0000
0001
0000
,
0100
0000
0010
0100
0010
0000
0000
1001
,
0000
0001
0010
0100
,
1000
0000
0001
0000
0010
0000
0100
1000
,
0000
0010
0100
0001
,
1000
0000
0010
0000
0100
0001
0100
0001
,
0000
1000
0100
0010
,
0001
0000
1000
0000
0100
0000
0010
0001
,
0000
0000
1000
0000
0010
0000
0100
0001
,
0000
0100
0010
0000
1000
0000
0000
0001
,
0000
1000
0010
0000
0001
0000
1000
0200
,
0000
0010
0000
0010
0000
0310
0000
0001
,
0000
1000
0010
0000
0100
0000
0001
0010
,
0000
0100
1000
0001
0100
0000
0000
0010
,
0000
0000
1001
0000
1100
0000
1000
0001
,
0000
0000
0101
0000
1001
0000
0000
0001
,
0000
0010
0100
0000
1000
0001
0100
0010
,
0000
0000
0100
0000
0100
0000
0100
0001
,
0000
1000
0100
0010
0100
0000
1000
0010
,
0100
0000
0001
0100
0010
0000
1000
0100
,
0010
0000
0001
0000
1000
0000
0010
0100
,
0000
0100
0000
0001
0000
1000
0000
1100
,
0000
0000
0001
0000
0100
0010
1000
0000
,
0100
0011
0100
1010
,
0001
0000
0100
0010
1000
0000
0100
0010
,
0000
0001
0100
0001
0100
0000
0010
1000
,
0000
0101
1000
1100
,
0002
0100
0010
1003
,
0001
0100
0010
0000
1000
0100
0010
0100
,
0000
1000
0000
0010
0000
0010
1000
0001
,
0000
1010
0001
0101
,
1000
0000
0000
0000
1100
0000
0000
0000
1000
0000
0000
0001
0000
0000
0001
0000
,
0000
0010
0100
0010
0001
0100
0010
1000
,
0000
0000
1000
0000
0001
0100
0000
0020
,
0000
1000
0100
0001
,
2030
0000
0100
0000
3001
0100
0010
1000
,
0000
1000
0100
0010
0001
0010
0100
0010
,
0001
0100
0010
2000
0000
0010
0000
3010
,
0000
0100
0001
0000
1000
0100
1000
0000
,
0001
0100
0001
0000
1000
0100
0010
0001
,
0000
0000
1000
0000
0001
0000
0100
0010
,
0000
0000
2000
0100
0000
0000
3002
0100
,
0000
1003
0100
0001
,
0100
0000
1000
0000
0010
0000
0100
0001
,
0000
0001
1000
0000
0100
0000
0001
0000
,
0101
0000
0110
0000
1100
0000
0010
0100
,
0000
0001
0100
0010
1000
0000
0000
1010
,
0000
0010
1000
0100
0010
0000
0000
0011
,
0000
1000
0010
0100
,
0001
0010
0001
0010
0100
1000
0100
1000
,
0000
0001
0100
0000
0010
0000
1000
0200
,
0000
0001
0000
1000
0000
0001
0000
1300
,
0000
0010
0100
0001
1000
0000
0100
0010
,
0000
0001
0100
0010
0100
0000
0000
1001
,
0000
1000
0100
0000
0010
0000
0000
1001
,
0000
0001
0100
0000
0010
0000
0000
1010
,
0000
0000
0001
0000
0010
0000
0100
1000
,
0000
0000
0001
0000
0000
0001
0000
0000
0001
0000
0000
0001
0000
0000
1000
0000
,
0010
0000
0000
0000
0000
0000
0000
1000
,
0000
0001
0000
0100
0000
0010
1000
0000
0001
0000
0010
0000
0100
1000
0001
0000
,
0000
1000
0000
0001
0000
0100
0010
0000
0000
0000
0010
0000
0000
0000
0010
0000
,
0000
1000
0001
1000
0000
1000
0100
0000
,
0010
0000
0001
2000
0000
0010
0000
0001
,
0000
0100
0000
3001
0000
0100
0010
0100
,
0001
0010
0100
1000
0000
0000
0001
0000
,
0101
0000
0000
1100
0000
0000
0001
0000
,
0010
0000
0100
1000
0000
0001
0000
0100
,
0000
0010
0100
0010
0000
0000
1000
0100
,
1000
0100
0010
0001
0000
0100
0000
0100
,
0000
0010
1000
0001
0000
0000
1100
0000
,
0001
0101
1000
1010
,
0100
0000
1000
0100
0000
0010
0001
1000
,
0001
0000
0100
0010
0000
0000
0000
0000
,
0000
0000
0000
1001
0000
0001
0100
0000
,
0010
0000
1000
0100
0000
0010
0001
0000
,
1000
0000
0010
0100
0000
0001
1000
0000
,
0100
1000
0100
0010
0000
0001
0000
0001
,
0000
1000
0000
1001
0000
0000
0001
0000
,
0100
0000
0010
1000
0000
0100
1000
0000
,
0010
0000
0100
0001
0000
0100
0010
0000
,
0100
0010
1000
0100
0000
0010
0001
0010
,
0100
0000
1000
0010
0000
0000
0101
0000
,
0101
0000
0001
0100
0000
0000
1010
0000
,
1010
0000
1000
0100
0000
0000
0011
0000
,
0011
0000
0001
0100
0000
0001
0000
0110
,
0000
1001
0000
1100
0000
0100
0010
0001
,
0000
0100
0010
1000
0000
0100
0010
0100
,
0000
1000
0010
0100
0000
0001
0100
0010
,
1000
0100
0010
0001
0000
0000
0000
0000
,
0000
0000
0000
2200
0000
0000
0000
0000
,
0000
0000
0000
0000
,
3300
0000
0000
0000
;

//---------------dance-single - ----------------
#NOTEDATA:;
#CHARTNAME:;
#STEPSTYPE:dance-single;
#DESCRIPTION:;
#CHARTSTYLE:;
#DIFFICULTY:Challenge;
#METER:10;
#RADARVALUES:0.859256,1.000000,0.487500,0.137324,0.322711,785.000000,71.000000,20.000000,0.000000,0.000000,2.000000,0.000000,0.000000,0.859256,1.000000,0.487500,0.137324,0.322711,785.000000,71.000000,20.000000,0.000000,0.000000,2.000000,0.000000,0.000000;
#CREDIT:;
#NOTES:
// measure 0
0000
0000
0000
0000
,  // measure 1
0000
0000
0000
0000
,  // measure 2
0000
0000
0000
0000
,  // measure 3
0000
0000
0000
0000
,  // measure 4
0000
0000
0000
0000
,  // measure 5
0000
0000
0000
0000
,  // measure 6
0000
0000
0000
0000
0000
0000
0000
2000
,  // measure 7
0000
0000
0000
0000
0000
0000
3001
0000
1000
0001
1000
0001
1000
0001
1000
0000
,  // measure 8
0000
0000
0010
0000
0100
0000
0001
0000
1000
0100
1000
0100
1000
0000
0001
0000
,  // measure 9
0000
0000
0100
0000
0010
0000
1000
0000
0100
0010
0100
0010
0100
0000
1000
0000
,  // measure 10
0000
0000
0010
0000
0100
0000
0001
0000
0010
0100
0010
0100
0010
0000
0001
0000
,  // measure 11
0000
0000
1000
0010
0100
0000
0001
0000
1000
0000
1000
0000
0100
0000
0110
0000
,  // measure 12
0000
0000
0010
0000
0001
0000
1000
0000
0010
0100
0010
0100
0010
0000
1000
0000
,  // measure 13
0000
0000
0100
0000
0010
0000
0001
0000
1000
0010
1000
0010
1000
0000
0001
0000
,  // measure 14
0000
0000
0100
0000
0010
0000
1000
0000
0100
0010
0100
0010
0100
0000
0010
0000
,  // measure 15
0000
0000
0001
0100
0010
0000
1000
0000
0001
0000
0001
0000
0100
0000
0101
0000
,  // measure 16
0000
0001
0100
0010
0100
1000
0100
0010
,  // measure 17
0100
0001
0010
0100
1000
0000
0001
0011
,  // measure 18
0000
1000
0010
0100
0010
0001
0010
0100
,  // measure 19
0010
1000
0100
0000
0010
0001
0100
0110
,  // measure 20
0000
0010
1000
0100
1000
0010
1000
0001
,  // measure 21
0100
0010
0100
1000
0100
0000
0001
0011
,  // measure 22
0000
0100
1000
0100
0001
0100
1000
0010
,  // measure 23
0001
0010
1000
0000
0010
1000
0100
0110
,  // measure 24
0000
0000
0000
0001
0010
0000
0000
0100
,  // measure 25
1000
0000
0000
0001
0100
0010
0100
0010
,  // measure 26
0000
1000
0100
0010
0001
0000
1100
0000
,  // measure 27
0101
0000
0010
1000
0010
0000
0100
0101
,  // measure 28
0000
0101
0000
1000
0100
0000
0000
0001
,  // measure 29
0100
0000
0000
0010
1000
0100
0010
0001
,  // measure 30
0000
0010
0100
1000
0010
0000
0100
0010
,  // measure 31
0100
0010
1000
0100
0001
0000
0100
1100
,  // measure 32
0000
0001
0100
0010
0100
0001
0100
1000
,  // measure 33
0100
0001
0100
0010
1000
0100
0010
0001
,  // measure 34
0000
1000
0100
0010
0100
0000
1100
0000
,  // measure 35
0101
0000
0000
0001
0010
0000
0100
0000
1000
0000
0010
0000
0001
0000
0010
0000
,  // measure 36
0000
1000
0001
0010
0001
1000
0100
0010
,  // measure 37
1000
0000
0010
0000
0001
0000
0010
0000
1000
0000
0000
0010
0100
0000
1000
0000
,  // measure 38
0000
1000
0100
0010
0001
0000
1000
0010
,  // measure 39
0000
0000
0100
0000
0001
0000
0001
0000
1000
0000
0001
0010
0001
0000
1100
0000
,  // measure 40
0000
0001
0100
0010
0100
0001
0010
0100
,  // measure 41
0000
1100
0000
0101
0000
1010
0000
0001
,  // measure 42
0000
0001
0100
0000
0010
0000
1000
0100
,  // measure 43
0000
0001
0100
1000
0010
0000
0100
0101
,  // measure 44
0000
0001
0001
1000
0100
0000
0100
0110
,  // measure 45
0000
0100
0010
0001
1000
0000
0000
0101
,  // measure 46
0000
0001
0001
1000
0010
0010
0100
0201
,  // measure 47
0000
0000
1000
0000
0001
0000
1000
1300
,  // measure 48
0000
0100
0001
0010
1000
0010
0001
2000
,  // measure 49
0000
0000
3010
0200
0000
0001
0301
1000
,  // measure 50
0000
0000
0100
0010
0100
0000
1000
0000
0010
0000
0100
0000
0001
0000
0011
0000
,  // measure 51
0000
1100
0000
1010
0000
0101
0000
1001
,  // measure 52
0000
0001
0100
0000
0110
0000
0010
2000
,  // measure 53
0000
0100
0000
0010
0000
3002
0000
0103
,  // measure 54
0000
0010
1000
0100
0001
0100
1000
0010
,  // measure 55
0000
0000
0100
0010
0100
0000
0001
0000
0010
0000
0000
0000
0100
0000
1100
0000
,  // measure 56
0000
0001
0100
1000
0100
0001
0010
1000
,  // measure 57
0000
0011
0000
1010
0000
0001
0100
1000
,  // measure 58
0000
0100
0001
0010
0100
1000
0010
0110
,  // measure 59
0000
0101
0000
1100
0000
0100
0010
0110
,  // measure 60
0000
0000
0100
0010
0001
1000
0010
0100
,  // measure 61
0000
0000
0000
0000
0010
0000
1000
0000
0001
0000
0000
1000
0100
0000
0010
0000
,  // measure 62
0000
0001
0010
0100
1000
0000
0001
0101
,  // measure 63
0000
1000
0100
0001
0100
1000
0010
0120
,  // measure 64
0000
0001
1000
0001
,  // measure 65
2030
0000
0100
0000
0010
3001
0010
0200
,  // measure 66
0000
1300
0010
0100
1000
0100
0010
1000
,  // measure 67
0100
0000
0010
0000
0001
0000
1000
0000
0010
0000
0100
0010
0100
0010
0100
0000
,  // measure 68
0000
0000
0001
0010
0001
0000
1000
0010
1000
0000
0001
0000
0100
0000
0020
0000
,  // measure 69
0000
0130
0001
0000
0010
0100
1000
0200
,  // measure 70
0000
0000
1300
0010
0100
0001
4000
0400
,  // measure 71
0000
0000
0000
0000
0300
0000
3002
0000
0000
0000
0000
0000
0103
0010
0100
0000
,  // measure 72
0000
0000
0010
0000
1000
0100
0010
0000
0100
0010
0100
0000
0010
0100
0010
0000
,  // measure 73
0001
0100
0001
0000
1000
0100
0010
0001
1000
0010
1000
0010
0100
0001
0200
0000
,  // measure 74
0000
0000
0000
0300
0001
0000
0000
0000
0100
0000
0000
0000
0010
0000
0000
0000
1000
0000
0000
0000
0100
0000
0000
0000
0010
0000
0000
0000
0001
0000
0000
0000
0010
0000
0000
0000
0100
0000
0000
0000
1000
0000
0000
0000
0010
0000
0000
0000
,  // measure 75
0100
0000
0001
0000
0100
0010
0100
0010
1000
0010
1000
0010
0100
0000
0011
0000
,  // measure 76
0000
0010
0100
1000
0010
0100
0000
0101
,  // measure 77
0000
0001
0010
0100
1000
0010
0100
0001
,  // measure 78
2000
0100
0100
3001
,  // measure 79
0001
0100
0001
0100
0001
1000
0100
1000
0001
0100
0001
0100
0001
1000
0100
0000
,  // measure 80
0000
0010
0001
0010
0100
0010
0001
1000
,  // measure 81
0000
1010
0000
0101
0000
0011
0000
0001
,  // measure 82
0000
0010
0100
0010
0001
0000
0100
0010
,  // measure 83
0000
0100
0010
1000
0100
0000
0000
0110
,  // measure 84
0000
1000
0001
0001
1000
0000
0001
0101
,  // measure 85
0000
0001
1000
1000
0001
0000
0000
1100
,  // measure 86
0000
0001
0001
0100
0010
0010
1000
0001
,  // measure 87
0000
0000
1100
0000
0000
0101
0000
0000
0011
0000
0000
1010
0000
0000
0100
0000
,  // measure 88
0200
0000
0001
0000
1000
0000
0001
0301
,  // measure 89
0001
0010
0100
1000
0100
0010
0001
0000
0001
0000
1000
0000
0001
0100
0010
0000
,  // measure 90
0010
0100
0001
0010
0100
1000
1001
0000
0000
0000
0110
0000
0000
0000
0101
0000
,  // measure 91
0000
1000
0001
1001
0000
1000
0100
0000
,  // measure 92
0011
0000
0001
0200
0000
1000
0000
0001
,  // measure 93
0000
1000
0000
0302
0000
0013
0100
1000
,  // measure 94
0001
0000
0100
0000
0010
0000
1000
0000
0000
0000
0000
0001
0100
0000
0010
0000
,  // measure 95
0100
0000
0001
0011
0000
0100
1000
0010
,  // measure 96
1000
0100
0010
0001
0000
0101
0000
1010
,  // measure 97
0000
0001
0100
0010
0000
1000
0010
1000
,  // measure 98
0001
0010
0100
1000
0000
0101
0000
0011
,  // measure 99
0000
1100
0000
1010
0000
0000
0010
0100
,  // measure 100
0001
0000
1000
0001
0000
0000
1000
0100
,  // measure 101
0010
0000
0001
0010
0000
0001
0010
0100
,  // measure 102
0010
0000
0001
0100
0000
0010
1000
0100
,  // measure 103
1000
0001
0000
0101
0000
0001
0010
0100
,  // measure 104
1000
0100
1000
0100
1000
0000
0001
0000
0000
0000
0100
0000
0010
0000
1000
0000
,  // measure 105
0001
0100
0001
0100
0001
0000
1000
0000
0000
0000
0100
0000
0010
0000
0001
0000
,  // measure 106
1000
0001
1000
0001
1000
0000
0100
0000
0000
0000
0010
0000
0001
0010
0100
0000
,  // measure 107
1000
0010
1000
0010
0100
0000
0001
0000
0000
0000
1000
0000
0100
0000
0010
0000
,  // measure 108
0100
1000
0100
1000
0100
0000
0001
0000
0000
0000
0100
0000
1000
0000
0010
0000
,  // measure 109
0100
0001
0100
0001
0100
0000
1000
0000
0000
0000
0100
0000
0001
0000
0010
0000
,  // measure 110
0100
1000
0100
1000
0100
0000
0010
0000
0000
0000
0001
0100
0010
0000
0100
0000
,  // measure 111
0001
0000
0010
0100
0010
0100
0020
0000
0000
0000
0031
0000
0101
0000
0100
0000
,  // measure 112
0010
0100
0001
0011
0000
0100
1100
1000
,  // measure 113
0010
0100
0001
0011
0000
0001
0101
0100
,  // measure 114
0010
1000
0100
0110
0000
0011
0000
1010
,  // measure 115
0000
0110
0000
1001
0000
0001
0100
1000
,  // measure 116
0100
0001
0100
0001
0100
0000
0001
0000
0010
0000
1000
0000
0010
0000
0001
0000
,  // measure 117
0100
0010
0100
0010
0100
0000
0010
0000
1000
0000
0100
0000
0010
0000
0001
0000
,  // measure 118
0100
0010
0100
0010
0100
0000
0001
0000
0000
0000
0001
1000
0001
0000
0100
0000
,  // measure 119
0010
1000
0010
1000
0010
0200
0002
0000
0000
0000
0000
0000
0000
0000
0000
0000
,  // measure 120
0000
0000
0000
0000
,  // measure 121
0303
0000
0000
0000
;
