#TITLE:VELFARRE 2000;
#SUBTITLE:;
#ARTIST:BAZOOKA GIRL;
#TITLETRANSLIT:;
#SUBTITLETRANSLIT:;
#ARTISTTRANSLIT:;
#GENRE:;
#CREDIT:;
#BANNER:VELFARRE 2000-bn.ogg;
#BACKGROUND:VELFARRE 2000-bg.ogg;
#LYRICSPATH:;
#CDTITLE:loodeecdtitle.png;
#MUSIC:VELFARRE 2000.ogg;
#OFFSET:-3.400;
#SAMPLESTART:68.872;
#SAMPLELENGTH:12.000;
#SELECTABLE:YES;
#BPMS:0.000=161.270;
#STOPS:;
#BGCHANGES:;
#KEYSOUNDS:;

//---------------dance-single - Loodee----------------
#NOTES:
     dance-single:
     Welfare 2000:
     Challenge:
     11:
     0.920,0.912,0.362,0.488,0.769:
0000
0000
0000
0000
,
0000
0000
0000
0000
,
0100
0000
1000
0100
0000
1000
0100
0010
0002
0000
0103
0020
0000
1030
0010
0100
,
0001
0000
0010
0100
0000
0010
0100
1000
0020
0000
0130
0002
0000
1003
0100
0010
,
0100
0000
1000
0001
0000
1000
0001
0100
0020
0000
0130
0002
0000
1003
0001
1000
,
0100
0000
0010
0100
0000
0010
0100
1000
0020
0000
0130
0020
0000
0130
0001
1000
,
0010
0000
0100
0001
0000
0100
0001
0010
0200
0000
1300
0020
0000
1030
0001
0100
,
0010
0000
1000
0010
0000
1000
0010
0100
0002
0000
0013
0200
0000
1300
0100
0010
,
0001
0000
0100
0010
0000
0100
0010
1000
0002
0000
1003
0200
0000
0310
0001
0100
,
0010
0000
0010
0000
1000
0100
1000
0100
4000
0000
0000
0000
3001
0000
0000
0000
,
0011
0010
0100
1000
0010
1000
0100
0100
,
0010
0000
0001
1000
0001
0000
0100
0010
0100
0000
0001
1000
0001
0000
1100
0000
,
0100
1000
0001
1000
0010
0100
0001
0001
,
0010
0000
0100
1000
0100
0000
0010
0001
0010
0000
0100
1000
0004
0000
0000
0000
,
0103
0010
1000
0010
0100
0001
1000
1000
,
0100
0010
0004
0000
0103
0010
4000
0000
,
3100
0010
0100
0000
1000
0001
1000
0000
0010
0100
0010
0000
1000
0000
0001
0000
,
0100
0000
0010
1000
0001
1000
0100
0000
0010
0001
0100
0000
0040
0000
0000
0000
,
0130
0101
0000
1001
0000
1100
0000
0101
,
1010
0101
0000
0011
0000
0000
0010
0000
,
0001
0000
0100
0010
0000
0100
0010
1000
0002
0000
1003
0020
0000
1030
0001
1000
,
0100
0000
0010
0001
0000
0010
0001
0100
0020
0000
1030
0002
0000
1003
0100
0010
,
0001
0000
1000
0010
0000
1000
0010
0100
0020
0000
1030
0200
0000
1300
0001
0010
,
0100
0000
1000
0100
0000
1000
0100
1000
0200
0000
0310
0200
0000
1300
0001
1000
,
0010
0000
0100
0001
0000
0100
0001
1000
0200
0000
1300
0020
0000
1030
0001
0010
,
0001
0000
1000
0001
0000
1000
0001
1000
0020
0000
1030
0200
0000
0310
0001
1000
,
0010
0000
0100
0001
0000
0100
0001
1000
0002
0000
0013
0200
0000
0310
0001
0100
,
0010
0000
1000
0010
0000
1000
0010
1000
0001
0000
0000
0000
0110
0000
0000
0000
,
1000
0100
0010
0100
0010
0001
0100
0010
,
1000
0100
0010
0100
0010
1000
0010
0001
,
0200
0000
0320
0000
1030
0010
1000
0001
,
1000
0000
0100
1000
0000
0100
1000
0010
0200
0000
0301
2000
0000
3001
0010
0100
,
1000
0001
1000
0100
0010
0001
0100
0010
,
1000
0001
1000
0010
0100
1000
0100
0001
,
2000
0000
3200
0000
0310
0001
0100
0001
,
0010
0000
0100
0010
0000
0100
1000
0010
0200
0000
0301
0020
0000
0031
0100
0010
,
1000
0100
1100
0000
0001
0100
0101
0000
,
0001
1000
0100
0001
0100
0010
0001
0100
,
1001
0110
1001
0110
,
0001
0100
0001
1000
0001
0001
1000
1000
,
0010
1000
1010
0000
0001
0010
0011
0000
,
1000
0010
0100
1000
0100
0001
1000
0001
,
0011
1100
0110
0011
,
0101
0001
1000
1010
0000
0110
1001
0000
,
1000
0100
1000
0000
0010
0000
0100
0000
0001
0000
1000
0000
0100
0000
0010
0000
,
1000
0010
0100
1000
0001
0100
0010
1000
,
1000
0100
0010
0001
0100
0010
0100
0010
,
0001
0000
0010
0000
0100
0000
0001
0000
1000
0000
0100
0000
1000
0001
1000
0001
,
0100
0010
0100
0000
0001
0000
1000
0000
0001
0000
0010
0000
0100
0000
0010
0000
,
1000
0010
0001
0100
0010
1000
0010
1000
,
0001
0010
0100
2000
0010
0000
0001
0000
,
3001
0000
0010
0000
0100
0000
0001
0000
0100
0010
0100
1000
0001
1000
0010
1000
,
0100
0010
0100
0000
1000
0000
0001
0000
1000
0000
0010
0000
0100
0000
0010
0000
,
0001
0010
0100
0001
1000
0010
1000
0100
,
0100
0010
0001
0100
0010
1000
0010
0100
,
1000
0000
0100
0000
0010
0000
0100
0000
0001
0000
1000
0000
0010
1000
0001
1000
,
0100
0010
0001
0000
0100
0000
0001
0000
1000
0000
0001
0000
0010
0000
0100
0000
,
0001
0100
0010
0001
1000
0010
1000
0001
,
0101
0100
0000
1001
0000
1100
0000
1100
,
0100
0010
0001
0200
0000
1300
1000
0100
,
0110
0101
0000
1001
0000
1010
0000
1100
,
0011
0011
0000
0011
0000
0000
0000
0000
,
0001
0000
1000
0100
0000
0010
0100
1000
0002
0000
1003
0020
0000
1030
0100
0010
,
0001
0000
1000
0010
0000
1000
0010
0100
0020
0000
1030
0002
0000
1003
0100
0010
,
0001
0000
1000
0001
0000
1000
0010
0100
0020
0000
1030
0200
0000
1300
0001
0010
,
0100
0000
0010
0100
0000
0010
0001
0100
0020
0000
1030
0020
0000
1030
0100
0010
,
0100
0000
1000
0001
0000
0100
0001
0100
0020
0000
1030
0200
0000
1300
0001
0100
,
0010
0000
1000
0001
0000
1000
0100
1000
0002
0000
0013
0200
0000
0310
0001
1000
,
0010
0000
0100
0010
0000
0100
0001
1000
0200
0000
0310
0002
0000
0013
0100
1000
,
0010
0000
0100
0010
0000
0100
0010
1000
0001
0000
0000
0000
0101
0000
0000
0000
,
2002
0000
0000
0000
,
0000
0000
0000
0000
,
3003
0000
0000
0000
;

//---------------dance-single - Loodee----------------
#NOTES:
     dance-single:
     Loodee:
     Hard:
     8:
     0.673,0.570,0.280,0.497,0.190:
0000
0000
0000
0000
,
0000
0000
0000
0000
,
1000
0000
0100
1000
0000
0000
0001
0000
2000
0000
0000
3200
0000
0000
0310
0000
,
0001
0000
0100
0001
0000
0000
1000
0000
0020
0000
0000
0230
0000
0000
0301
0000
,
0010
0000
0100
0010
0000
0000
0100
0000
2000
0000
0000
3002
0000
0000
1003
0000
,
0010
0000
0100
0010
0000
0000
0100
0000
0010
0000
1000
0000
0001
0000
1000
0000
,
0100
0000
0010
0100
0000
0000
1000
0000
0020
0000
0000
0230
0000
0000
0310
0000
,
0100
0000
0001
0100
0000
0000
0010
0000
2000
0000
0000
3200
0000
0000
0310
0000
,
0001
0000
1000
0001
0000
0000
1000
0000
0020
0000
0000
0230
0000
0000
0310
0000
,
1000
1000
0001
1000
0400
0000
0310
0000
,
0011
0000
0001
1000
0010
1000
0001
0001
,
1000
0010
0010
2000
0000
3002
0000
0013
,
0100
0000
1000
0010
1000
0100
0010
0010
,
0001
1000
1000
0002
0000
0023
0000
0130
,
1000
0000
1010
0000
0010
1000
0001
0001
,
0010
0100
4000
0000
3001
0000
0004
0000
,
0103
0000
0100
0000
0001
0000
1000
0000
0100
0010
0100
0000
1000
0000
0001
0000
,
1000
1000
0100
0002
0000
0103
0010
0001
,
1000
0010
0000
0101
0000
1010
0000
0001
,
0010
0010
0000
1001
0000
0000
0110
0000
,
0001
0000
0100
0010
0000
0000
1000
0000
0002
0000
0000
0023
0000
0000
0130
0000
,
0010
0000
0001
1000
0000
0000
0010
0000
0200
0000
0000
0320
0000
0000
1030
0000
,
0010
0000
1000
0001
0000
0000
0010
0000
0200
0000
0000
2300
0000
0000
3001
0000
,
0100
0000
0010
1000
0000
0000
0010
0000
1000
0000
0001
0000
0010
0000
0001
0000
,
0010
0000
0100
1000
0000
0000
0001
0000
0200
0000
0000
0320
0000
0000
1030
0000
,
0001
0000
0100
0001
0000
0000
1000
0000
0200
0000
0000
2300
0000
0000
3010
0000
,
0100
0000
0001
1000
0000
0000
0001
0000
0020
0000
0000
0230
0000
0000
0310
0000
,
0001
0000
0010
0001
0000
0000
0100
0000
1001
0000
0000
0000
1010
0000
0000
0000
,
0010
0100
0010
1000
0001
0010
0200
0000
,
0310
0001
0100
0010
0100
1000
0100
0010
,
2000
0000
3002
0000
0013
0100
0010
0100
,
1000
0001
1000
0001
0200
0000
0310
0000
,
1000
0100
0010
0100
0010
0001
0200
0000
,
0301
0010
0001
1000
0010
0100
1000
0100
,
0002
0000
2003
0000
3100
0010
0100
0010
,
0001
1000
0001
1000
0020
0000
0130
0000
,
1010
0011
1100
0011
,
0000
0001
0100
1000
0100
0001
1000
0000
,
1010
0101
1010
0101
,
0000
0001
0100
0001
1000
1000
0100
0100
,
1001
0110
1001
0110
,
0000
1000
0100
0010
1000
0010
0001
0000
,
2000
3020
0032
0023
,
1030
0001
1000
0001
0000
0110
1001
0000
,
1000
0100
0010
0001
0100
0010
1000
0010
,
0001
0010
0000
0100
0000
0001
0000
1000
,
0100
0010
0001
0010
0100
0010
0001
0100
,
1000
0100
0000
0001
0000
0010
0000
0100
,
1000
0001
1000
0010
0100
0001
1000
0100
,
0001
0100
0000
0010
0000
0001
0000
1000
,
0010
0100
0010
2000
0001
0000
0100
0000
,
3001
0010
0100
0010
0000
0011
0000
0000
,
0001
0100
0010
1000
0010
0100
0001
0010
,
1000
0010
0000
0100
0000
0010
0000
0001
,
0100
0001
1000
0001
0010
0001
1000
0010
,
0001
0010
0000
0100
0000
0001
0000
1000
,
0100
0010
0100
1000
0010
0100
0001
0100
,
1000
0100
0000
0001
0000
1000
0000
0001
,
1000
1000
0000
0011
0000
0011
0000
0001
,
0100
0010
1000
0002
0000
0013
0100
1000
,
0001
0100
0000
0110
0000
1001
0000
1000
,
0100
0100
0000
1001
0000
0000
0000
0000
,
0001
0000
0010
0001
0000
0000
1000
0000
0020
0000
0000
0230
0000
0000
0301
0000
,
1000
0000
0100
1000
0000
0000
0001
0000
0200
0000
0000
0320
0000
0000
1030
0000
,
0001
0000
1000
0001
0000
0000
1000
0000
0200
0000
0000
0320
0000
0000
0130
0000
,
1000
0000
0001
0100
0000
0000
0010
0000
0100
0000
0001
0000
1000
0000
0001
0000
,
1000
0000
0100
0010
0000
0000
0100
0000
0020
0000
0000
0032
0000
0000
1003
0000
,
0010
0000
0100
0010
0000
0000
1000
0000
0002
0000
0000
0203
0000
0000
0310
0000
,
1000
0000
0100
1000
0000
0000
0001
0000
2000
0000
0000
3002
0000
0000
0013
0000
,
0100
0000
1000
0100
0000
0000
1000
0000
1001
0000
0000
0000
0110
0000
0000
0000
,
1001
0000
0000
0000
;

//---------------dance-single - Loodee----------------
#NOTES:
     dance-single:
     Loodee:
     Medium:
     6:
     0.487,0.421,0.118,0.371,0.000:
0000
0000
0000
0000
,
0000
0000
0000
0000
,
1000
0100
1000
0100
0020
0000
0031
0000
,
0100
0010
0100
0010
2000
0000
3001
0000
,
0100
0001
0100
0001
2000
0000
3001
0000
,
0010
0100
0010
0100
1000
0100
1000
0001
,
1000
0010
1000
0010
0200
0000
0301
0000
,
0010
0001
0010
0001
2000
0000
3100
0000
,
1000
0001
1000
0001
0200
0000
0310
0000
,
1000
0100
1000
0100
2000
0000
3010
0000
,
0101
0000
0001
0000
0010
0100
1000
0100
,
0010
0000
0010
0000
0010
0000
0010
0001
,
1000
0000
0010
0000
0100
0010
0100
0001
,
1000
1000
1000
2000
,
3010
0000
0110
0000
0100
0001
0100
0001
,
1000
0200
0310
0002
,
0103
0010
0100
0010
1000
0001
1000
0001
,
1000
0100
0010
0001
1000
0000
0200
0000
,
0310
0001
0000
1001
0000
1001
0000
1000
,
0010
1000
0000
0001
0000
0000
0100
0000
,
0001
0010
0100
1000
0200
0000
1300
0000
,
0001
0010
0100
0010
0002
0000
1003
0000
,
0010
1000
0001
0100
0020
0000
1030
0000
,
0001
0010
0001
0010
0001
1000
0001
1000
,
0010
0100
0001
1000
0002
0000
1003
0000
,
0100
0010
0001
1000
0200
0000
1300
0000
,
0010
0100
0001
0100
0020
0000
0130
0000
,
0001
1000
0001
0000
1001
0000
1001
0000
,
1000
0100
0010
0001
2000
0000
3010
0000
,
1000
0100
0010
0001
1000
0001
1000
0000
,
0020
0230
0301
1000
,
0001
0010
0001
0010
0001
0000
1000
0000
,
0010
0100
0001
1000
0020
0000
1030
0000
,
0010
0100
0001
1000
0010
0100
0010
0000
,
2000
0000
3002
0000
0013
0100
0010
0000
,
0001
1000
0001
1000
0001
0000
0100
0000
,
0110
0000
1001
0000
,
0000
1000
0100
0010
0001
0010
0100
1000
,
0020
0230
0320
0230
,
0300
0001
1000
0001
0010
0000
0100
0000
,
1100
0000
0011
0000
,
0000
0001
0010
0100
1000
0100
1000
0000
,
0002
0203
0320
2030
,
3001
1000
0001
1000
0000
0100
1000
0000
,
0100
0000
0020
0000
0031
1000
0001
1000
,
0010
0100
0000
0010
0000
1000
0000
0001
,
1000
0000
0200
0000
0310
0100
0010
0100
,
1000
0001
0000
1000
0000
0010
0000
0100
,
0010
0000
2000
0000
3001
1000
0001
0010
,
0001
1000
0000
0010
0000
0100
0000
0001
,
0010
0100
0000
0200
0000
0000
1300
0000
,
0001
0100
0010
2000
0000
3002
0000
0003
,
1000
0000
0200
0000
0310
0001
0010
0001
,
1000
0010
0000
1000
0000
0001
0000
0010
,
0100
0000
0020
0000
0031
0100
0010
0100
,
0001
1000
0000
0010
0000
0100
0000
0001
,
0010
0000
0200
0000
1300
0100
1000
0010
,
1000
0001
0000
0010
0000
0100
0000
1000
,
0010
0100
0000
0020
0000
0130
0000
0001
,
1000
0001
1000
0010
0000
0000
0110
0000
,
1001
0000
0000
0000
,
0000
0000
0000
0000
,
1001
0000
0000
0000
;

//---------------dance-single - Loodee----------------
#NOTES:
     dance-single:
     Loodee:
     Easy:
     4:
     0.384,0.353,0.054,0.109,0.000:
0000
0000
0000
0000
,
0000
0000
0000
0000
,
1000
0010
0010
1000
,
0001
0010
0010
0001
,
0100
0010
0010
1000
,
0001
0000
0001
0000
1000
0001
1000
0000
,
0100
1000
1000
0001
,
0100
0010
0010
1000
,
0001
0010
0010
0001
,
1000
0001
1000
0000
0020
0000
0130
0000
,
0001
0000
1000
0000
0001
1000
0001
0000
,
0010
0010
0010
0100
,
1000
0000
0001
0000
0100
0010
0100
0000
,
0001
0001
0001
0010
,
0100
0000
1000
0000
0100
1000
0100
0000
,
1000
0020
0130
0002
,
1003
1000
0001
0001
,
1000
0001
1000
0000
0010
0000
0100
0000
,
0001
0000
0000
0001
0000
1000
0000
0001
,
1000
0000
0000
0000
,
0100
0000
0100
0000
1000
0001
1000
0000
,
0010
0000
0010
0000
0100
0001
0100
0000
,
0001
0000
0001
0000
0010
0100
0010
0000
,
0100
0100
1000
1000
,
0010
0000
0010
0000
0100
0001
0100
0000
,
0001
0000
0001
0000
1000
0100
1000
0000
,
0001
0000
0001
0000
0100
0010
0100
0000
,
0010
0010
1000
0001
,
0010
0010
0100
1000
,
0010
0010
0100
0001
,
2000
3200
1300
0001
,
0100
0000
0010
0000
0100
0010
0100
0000
,
0001
0001
0010
0100
,
1000
1000
0010
0100
,
0002
2003
3100
0100
,
0010
0001
1000
0001
,
1001
0000
1001
0000
,
0001
0100
0010
1000
,
0110
0000
0110
0000
,
0001
1000
0100
0010
,
1001
0000
1001
0000
,
0001
0100
0001
1000
,
0200
0320
0032
2003
,
3010
0000
0000
0010
0000
0000
0100
0000
,
0001
0000
1000
0000
0100
1000
0100
0000
,
1000
0001
1000
0010
,
0100
0000
0001
0000
0100
0010
0100
0000
,
0001
1000
0001
0010
,
0100
0000
1000
0000
0001
0100
0001
0000
,
1000
0001
0010
0001
,
0100
0100
0100
0100
,
0010
0000
1000
0000
0001
1000
0001
0000
,
0010
0000
0100
0000
1000
0100
1000
0000
,
0100
0010
0001
0100
,
0010
0000
1000
0000
0010
0100
0010
0000
,
1000
0001
1000
0100
,
0010
0000
0001
0000
0100
0010
0100
0000
,
0001
0010
0100
1000
,
0001
0000
0000
0001
0000
0000
0000
0000
,
1000
0100
1000
0010
,
0100
0000
0000
0001
0000
1000
0000
0001
,
1000
0000
0000
0000
,
0001
0010
0001
0010
,
0100
1000
0100
1000
,
0010
0100
0010
0100
,
0001
0000
0001
0000
1000
0010
1000
0000
,
0100
0010
0100
0010
,
0001
1000
0001
1000
,
0010
0100
0010
0100
,
0010
0010
1000
0001
,
0020
0000
0000
0000
,
0030
0000
0000
0000
;
