#TITLE:Time again;
#SUBTITLE:;
#ARTIST:猫叉Master;
#TITLETRANSLIT:;
#SUBTITLETRANSLIT:;
#ARTISTTRANSLIT:Nekomata Master;
#GENRE:;
#CREDIT:;
#BANNER:[ROUND D] - Time again.png;
#BACKGROUND:[ROUND D] - Time again-bg.png;
#LYRICSPATH:;
#CDTITLE:cdtitle.png;
#MUSIC:[ROUND D] - Time again.mp3;
#OFFSET:0.000000;
#SAMPLESTART:90.387337;
#SAMPLELENGTH:11.980000;
#SELECTABLE:YES;
#BPMS:0.000000=97.000000
;
#STOPS:
;
#BGCHANGES:;
#KEYSOUNDS:;
#ATTACKS:;

//---------------dance-single - ----------------
#NOTES:
     dance-single:
     :
     Hard:
     8:
     0.296781,0.384570,0.103081,0.245807,0.170479,262.000000,249.000000,13.000000,31.000000,0.000000,0.000000,0.296781,0.384570,0.103081,0.245807,0.170479,262.000000,249.000000,13.000000,31.000000,0.000000,0.000000:
0000
0000
0000
0000
,
0000
0000
0000
0000
,
0000
0000
0000
0000
,
0000
0000
0000
0000
,
0000
0000
0000
0000
1000
0001
1000
0001
,
1000
1000
0100
0100
,
0001
0010
0100
0010
0001
1000
0001
1000
,
0001
0001
0001
2000
,
3200
0000
0310
0001
1000
0100
1000
0100
,
1000
1000
0001
0001
,
2000
3002
0023
0000
,
0000
0000
0030
0001
0010
0100
1000
0002
,
0000
0000
0000
0103
0000
0000
1001
0000
0000
0000
0010
1000
,
0010
0000
0000
0000
0000
0000
0100
0000
0000
0000
0000
0000
0000
0000
0000
0010
0000
0000
0000
0000
0100
0000
0001
0000
,
0100
0000
0000
0000
0000
0010
1000
0000
0000
0001
0000
0000
1000
0000
0000
0100
0000
0000
1000
0000
0000
0100
0000
0000
,
0010
0000
0000
0001
0000
0000
0010
0000
0000
0001
0000
0000
1000
0000
0000
0000
0000
0000
0000
0000
0001
0000
1000
0000
,
0001
0000
0000
0000
0000
0000
0110
0000
0000
0000
0000
0000
0000
0000
0000
0001
0000
0000
0000
0000
1000
0000
0100
0000
,
1000
0000
0000
0000
0000
0000
0010
0000
0000
0000
0000
0000
0000
0000
0000
0100
0000
0000
0000
0000
0010
0000
0100
0000
,
0010
0000
1000
0001
0100
0010
1000
0010
,
0100
0000
0000
0000
0001
1000
0001
0000
0000
0000
0010
0100
,
0010
0000
0000
0000
0000
0000
1001
0000
0000
0000
0000
0000
0010
0000
0001
0000
0010
0000
0002
0000
0000
1000
0000
0000
,
0010
0000
0000
0010
0000
0000
1000
0000
0000
1003
0000
0000
0100
0000
1000
0000
0100
0000
2000
0000
0000
0001
0000
0000
,
0010
0000
0000
0010
0000
0000
0001
0000
0000
3001
0000
0000
0100
0000
0010
0000
0100
0000
0020
0000
0000
1000
0000
0000
,
1000
0000
0000
0130
0000
0000
0101
0000
0000
1000
0000
0000
0010
0000
0100
0000
0010
0000
0200
0000
0000
0000
0000
0000
,
0000
0000
0000
0000
0000
0000
0301
0000
1000
0001
0000
0000
0100
0000
1000
0000
0100
0000
2000
0000
0000
0001
0000
0000
,
0100
0000
0000
0100
0000
0000
0001
0000
0000
3001
0000
0000
0010
0000
0001
0000
0010
0000
0002
0000
0000
1000
0000
0000
,
0100
0000
0000
0100
0000
0000
1000
0000
0000
1003
0000
0000
0010
0000
0100
0000
0010
0000
0200
0000
0000
0001
0000
0000
,
0001
0000
0000
0010
0000
0000
0010
0000
0000
0301
0000
0000
0100
0000
0010
0000
0100
0000
0002
0000
0000
0000
0000
0000
,
0000
1000
1000
2003
0100
0000
0000
0000
,
0000
0000
0000
0000
,
0010
0000
0010
0010
3002
0000
0000
0000
,
0000
0000
0000
0000
,
2003
0000
3002
0023
,
0230
2300
3002
0023
,
0230
2300
3002
0203
,
0320
0000
0000
0000
0000
0000
2030
0000
0000
0000
0000
0000
3002
0000
0000
0000
0000
0000
1003
0000
0000
0000
0000
0001
,
0100
0000
0000
0000
0000
0001
0010
0000
0000
0100
0000
0001
1000
0000
0000
0000
0000
0010
1000
0000
0000
0000
0000
0001
,
1000
0000
0000
0000
0000
0010
1000
0000
0000
0000
0000
0001
0100
0000
0000
0000
0000
0000
0000
0000
0000
0010
0000
0000
,
0100
0001
0010
0100
1001
0000
0000
0010
,
1000
0001
0100
0010
1001
0000
0000
0000
,
1100
0000
0000
0000
0000
0000
0101
0000
0000
0000
0000
0000
0001
0000
0000
0000
0000
0010
0001
0000
0000
0000
0000
0100
,
0001
0000
0000
0000
0000
0010
0001
0000
0000
0000
0000
0100
0010
0000
0000
0000
0000
0000
0000
0000
0000
0010
0000
0000
,
1000
0100
1000
0010
1001
0000
0000
0001
,
0010
0001
1000
0001
0110
0000
0000
0001
,
0100
0010
1000
0100
2001
0000
0001
0000
,
0001
0001
0001
0001
,
0001
3001
0100
0100
,
0100
0100
0010
0010
,
0110
0000
0010
0100
1001
0000
0000
0000
;

//---------------dance-single - ----------------
#NOTES:
     dance-single:
     :
     Medium:
     5:
     0.214090,0.288427,0.031717,0.103081,0.126868,189.000000,185.000000,4.000000,13.000000,0.000000,0.000000,0.214090,0.288427,0.031717,0.103081,0.126868,189.000000,185.000000,4.000000,13.000000,0.000000,0.000000:
0000
0000
0000
0000
,
0000
0000
0000
0000
,
0000
0000
0000
0000
,
0000
0000
0000
0000
,
0000
0000
0000
0000
1000
0001
0000
1000
,
0001
0000
0100
0100
,
0100
0000
0101
0000
0001
1000
0000
0001
,
1000
0000
0001
1000
,
0100
0000
0010
0001
1000
0100
0000
1000
,
0100
0000
0001
0001
,
1000
0001
0020
0000
,
0000
0000
0030
0001
0010
0100
1000
0001
,
0000
0000
0000
0100
0000
0000
0001
0000
0000
0000
0010
0000
,
0100
0000
0000
0000
0000
0000
1000
0000
0000
0000
0000
0000
0000
0000
0000
0010
0000
0000
0000
0000
0100
0000
0000
0000
,
0001
0000
1000
0001
1000
0000
1000
0000
,
0010
0000
0000
0100
0000
0000
0010
0000
0000
0100
0000
0000
0001
0000
0000
0000
0000
0000
0000
0000
0001
0000
0000
0000
,
1000
0000
0000
0000
0000
0000
0110
0000
0000
0000
0000
0000
0000
0000
0000
0100
0000
0000
0000
0000
0010
0000
0000
0000
,
0001
0000
0000
0000
0000
0000
0010
0000
0000
0000
0000
0000
0000
0000
0000
0100
0000
0000
0000
0000
0010
0000
0000
0000
,
0001
0000
1000
0000
0100
0000
0100
0010
,
0100
0000
0000
0000
1000
0000
0001
0000
0000
0000
0010
0000
,
0010
0000
0000
1001
0000
0000
0010
0001
0010
0002
0000
0000
,
0000
0000
0000
0000
0000
0000
0000
0000
0000
0003
0000
0000
0100
0000
1000
0000
0100
0000
2000
0000
0000
0000
0000
0000
,
0000
0000
0000
0000
0000
0000
0000
0000
0000
3000
0000
0000
0100
0000
0010
0000
0100
0000
0020
0000
0000
0000
0000
0000
,
0000
0000
0000
0030
0000
0000
0001
0000
0000
0000
0000
0000
0010
0000
0100
0000
0010
0000
0200
0000
0000
0000
0000
0000
,
0000
0000
0000
0000
0000
0000
0301
0000
0000
0001
0000
0000
0100
0000
1000
0000
0100
0000
2000
0000
0000
0000
0000
0000
,
0000
0000
0000
0000
0000
0000
0000
0000
0000
3000
0000
0000
0010
0000
0001
0000
0010
0000
0002
0000
0000
0000
0000
0000
,
0000
0000
0000
0000
0000
0000
0000
0000
0000
0003
0000
0000
0010
0000
0100
0000
0010
0000
0200
0000
0000
0000
0000
0000
,
0000
0000
0000
0000
0000
0000
0000
0000
0000
0300
0000
0000
0100
0000
0010
0000
0100
0000
0002
0000
0000
0000
0000
0000
,
0003
1000
1000
2000
0000
0000
0000
0000
,
0000
0000
0000
0000
,
0000
0000
3002
0000
,
0000
0000
0000
0000
,
2003
0000
3001
0010
,
0100
1000
0001
0010
,
0100
1000
0001
0100
,
0010
1000
0001
1000
,
0001
0000
0000
0000
0000
0000
0010
0000
0000
0000
0000
0001
1000
0000
0000
0000
0000
0010
1000
0000
0000
0000
0000
0001
,
1000
0000
0000
0000
0000
0010
1000
0000
0000
0000
0000
0001
0100
0000
0000
0000
0000
0000
0000
0000
0000
0010
0000
0000
,
0100
0001
0010
0100
0001
0000
0000
0010
,
1000
0001
0100
0010
1000
0000
0000
0000
,
0100
0000
0000
0000
0000
0000
0010
0000
0000
0000
0000
0000
0001
0000
0000
0000
0000
0010
0001
0000
0000
0000
0000
0100
,
0001
0000
0000
0000
0000
0010
0001
0000
0000
0000
0000
0100
0010
0000
0000
0000
0000
0000
0000
0000
0000
0010
0000
0000
,
1000
0100
1000
0010
1000
0000
0000
0001
,
0010
0001
1000
0001
0100
0000
0000
0001
,
0100
0010
1000
0100
2000
0000
0000
0000
,
0000
0000
0000
0000
,
0000
3000
0100
0100
,
0100
0100
0010
0010
,
0100
0000
0010
0100
1001
0000
0000
0000
;

//---------------dance-single - ----------------
#NOTES:
     dance-single:
     :
     Easy:
     3:
     0.148391,0.192285,0.015859,0.103081,0.000000,131.000000,129.000000,2.000000,13.000000,0.000000,0.000000,0.148391,0.192285,0.015859,0.103081,0.000000,131.000000,129.000000,2.000000,13.000000,0.000000,0.000000:
0000
0000
0000
0000
,
0000
0000
0000
0000
,
0000
0000
0000
0000
,
0000
0000
0000
0000
,
0000
0000
1000
1000
,
1000
1000
0100
0100
,
0100
0100
0001
0001
,
0001
0001
0100
1000
,
0100
0010
1000
1000
,
1000
1000
0001
0001
,
0001
0001
0020
0000
,
0000
0030
0100
0100
,
0100
0100
0001
0000
,
0001
0000
1000
0000
0000
0001
0000
0000
,
1000
0001
1000
1000
,
0010
0010
0100
0000
,
0001
0000
0100
0000
0000
0100
0000
0000
,
0001
0000
0010
0000
0000
0100
0000
0000
,
0001
1000
0100
0100
,
0100
0100
0001
0000
,
0010
1001
0010
0002
,
0000
0000
0000
0003
0100
0000
2000
0000
,
0000
0000
0000
3000
0100
0000
0020
0000
,
0000
0030
0001
0000
0010
0000
0200
0000
,
0000
0301
0100
2000
,
0000
0000
0000
3000
0010
0000
0002
0000
,
0000
0000
0000
0003
0010
0000
0200
0000
,
0000
0000
0000
0300
0100
0000
0002
0000
,
0003
1000
0000
2000
0000
0000
0000
0000
,
0000
0000
0000
0000
,
0000
0000
3002
0000
,
0000
0000
0000
0000
,
2003
0000
3001
0010
,
0100
1000
0001
0010
,
0100
1000
0001
0100
,
0010
1000
0001
1000
,
0001
0100
0010
1000
,
0001
0100
0010
0000
,
1000
0001
1000
0000
,
0010
0100
0001
0000
,
0100
0010
1000
0001
,
0100
0001
0010
0000
,
0100
1000
0001
0000
,
0010
0001
0100
0000
,
0001
0100
0002
0000
,
0000
0000
0000
0000
,
0000
0003
0100
0100
,
0100
0100
0010
0010
,
0100
0010
1001
0000
;

//---------------dance-single - ----------------
#NOTES:
     dance-single:
     :
     Beginner:
     1:
     0.079293,0.096142,0.000000,0.182373,0.000000,70.000000,70.000000,0.000000,23.000000,0.000000,0.000000,0.079293,0.096142,0.000000,0.182373,0.000000,70.000000,70.000000,0.000000,23.000000,0.000000,0.000000:
// measure 0
0000
0000
0000
0000
,  // measure 1
0000
0000
0000
0000
,  // measure 2
0000
0000
0000
0000
,  // measure 3
0000
0000
0000
0000
,  // measure 4
0000
0000
1000
0000
,  // measure 5
1000
0000
0100
0000
,  // measure 6
0100
0000
0001
0000
,  // measure 7
0001
0000
0100
0000
,  // measure 8
0100
0000
1000
0000
,  // measure 9
1000
0000
0001
0000
,  // measure 10
0001
0000
0020
0000
,  // measure 11
0000
0030
0100
0000
,  // measure 12
0100
0000
0001
0000
,  // measure 13
0001
0000
1000
0000
,  // measure 14
1000
0000
0010
0000
,  // measure 15
0010
0000
0100
0000
,  // measure 16
0100
0000
0001
0000
,  // measure 17
0001
0000
1000
0000
,  // measure 18
1000
0000
0100
0000
,  // measure 19
0100
0000
0001
0000
,  // measure 20
0001
0000
0020
0000
,  // measure 21
0000
0030
0200
0000
,  // measure 22
0000
0000
0000
0300
0020
0000
0000
0000
,  // measure 23
0000
0000
0000
0030
0200
0000
0000
0000
,  // measure 24
0000
0300
2000
0000
,  // measure 25
0000
0000
0000
3000
0002
0000
0000
0000
,  // measure 26
0000
0000
0000
0003
0200
0000
0000
0000
,  // measure 27
0000
0000
0000
0300
0002
0000
0000
0000
,  // measure 28
0000
0000
0000
0003
2000
0000
0000
0000
,  // measure 29
0000
0000
0000
0000
,  // measure 30
0000
0000
0000
3000
0002
0000
0000
0000
,  // measure 31
0000
0000
0000
0000
0000
0000
0000
0003
,  // measure 32
2000
0000
0000
3000
0002
0000
0000
0003
,  // measure 33
0020
0000
0000
0030
0200
0000
0000
0300
,  // measure 34
2000
0000
0000
3000
0002
0000
0000
0003
,  // measure 35
0200
0000
0000
0300
0002
0000
0000
0003
,  // measure 36
2000
0000
0000
3000
0001
0000
0000
0000
,  // measure 37
0001
0000
1000
0000
,  // measure 38
1000
0000
0010
0000
,  // measure 39
0010
0000
0100
0000
,  // measure 40
0100
0000
0001
0000
,  // measure 41
0001
0000
0010
0000
,  // measure 42
0010
0000
1000
0000
,  // measure 43
1000
0000
0100
0000
,  // measure 44
0100
0000
0002
0000
,  // measure 45
0000
0000
0000
0000
,  // measure 46
0000
0003
0200
0000
,  // measure 47
0000
0300
0020
0000
,  // measure 48
0000
0000
0000
0030
1000
0000
0000
0000
;
